osu file format v14

[General]
AudioFilename: audio.mp3
AudioLeadIn: 0
PreviewTime: 55256
Countdown: 0
SampleSet: Soft
StackLeniency: 0.3
Mode: 0
LetterboxInBreaks: 0
WidescreenStoryboard: 1

[Editor]
DistanceSpacing: 0.8
BeatDivisor: 2
GridSize: 4
TimelineZoom: 1

[Metadata]
Title:Todokanai Koi '13 (TV Size)
TitleUnicode:届かない恋 '13 (TV Size)
Artist:Uehara Rena
ArtistUnicode:上原れな
Creator:[ TNTlealu ]
Version:Boss' Normal
Source:WHITE ALBUM2
Tags:ホワイトアルバム2 frozz bossandy Silent Rock Japanese anime WHITE ALBUM2 ORIGINAL SOUNDTRACK Opening Video Game J-pop JPop Pop eroge
BeatmapID:2366320
BeatmapSetID:1132232

[Difficulty]
HPDrainRate:3
CircleSize:3.2
OverallDifficulty:4
ApproachRate:5
SliderMultiplier:1.5
SliderTickRate:1

[Events]
//Background and Video events
0,0,"78083080_p0.jpg",0,0
Video,315,"WhiteAlbum2-OP1.avi"
//Break Periods
//Storyboard Layer 0 (Background)
//Storyboard Layer 1 (Fail)
//Storyboard Layer 2 (Pass)
//Storyboard Layer 3 (Foreground)
//Storyboard Layer 4 (Overlay)
//Storyboard Sound Samples

[TimingPoints]
200,444.444444444444,4,2,1,20,1,0
4866,-100,4,2,1,60,0,0
5533,-100,4,2,1,70,0,0
12644,-100,4,2,1,60,0,0
41088,-100,4,2,1,50,0,0
55311,-100,4,2,1,80,0,1
83755,-100,4,2,1,70,0,1
87088,-100,4,2,1,60,0,0
88199,-100,4,2,1,55,0,0
89088,-100,4,2,1,50,0,0
89977,-100,4,2,1,45,0,0
90866,-100,4,2,1,40,0,0
91755,-100,4,2,1,35,0,0
92644,-100,4,2,1,30,0,0
93533,-100,4,2,1,25,0,0
94422,-100,4,2,1,20,0,0
95311,-100,4,2,1,10,0,0
96199,-100,4,2,1,5,0,0

[Colours]
Combo1 : 81,78,193
Combo2 : 197,171,158
Combo3 : 100,98,164
Combo4 : 187,122,94

[HitObjects]
184,52,4866,5,0,1:2:0:0:
184,52,5088,1,8,2:0:0:0:
74,101,5533,6,0,L|-18:89,2,75.0749999999999,6|0|8,1:2|2:0|2:0,2:0:0:0:
16,204,6422,2,0,L|90:213,1,75.0749999999999,0|0,1:2|1:2,2:0:0:0:
136,324,7088,2,0,L|284:300,1,150.15,0|0,2:0|2:0,2:0:0:0:
316,248,7755,1,8,2:0:0:0:
316,248,7977,2,0,P|372:212|456:224,1,150.15,0|0,2:0|1:2,2:0:0:0:
504,252,8644,1,8,2:0:0:0:
404,316,9088,6,0,P|368:340|324:344,1,75.0749999999999,6|0,1:2|2:0,2:0:0:0:
276,336,9533,1,8,2:0:0:0:
156,356,9977,2,0,P|153:312|171:272,1,75.0749999999999,0|0,1:2|1:2,2:0:0:0:
202,235,10422,1,8,2:0:0:0:
244,124,10866,2,0,P|282:143|308:179,1,75.0749999999999,0|0,1:2|1:2,2:0:0:0:
332,220,11311,1,8,2:0:0:0:
332,220,11533,2,0,P|383:212|483:248,1,150.15,6|0,1:2|1:2,2:0:0:0:
492,300,12199,1,10,2:0:0:0:
384,356,12644,6,0,P|309:362|241:334,1,150.15,6|8,1:2|2:0,2:0:0:0:
140,268,13533,2,0,L|152:188,1,75.0749999999999,0|0,1:2|1:2,2:0:0:0:
100,164,13977,2,0,L|112:84,1,75.0749999999999,8|0,2:0|2:0,2:0:0:0:
64,52,14422,1,0,1:2:0:0:
176,12,14866,1,8,2:0:0:0:
256,104,15311,2,0,P|296:100|348:80,1,75.0749999999999,0|0,1:2|1:2,2:0:0:0:
360,40,15755,2,0,P|395:51|433:54,1,75.0749999999999,10|2,2:0|2:0,2:0:0:0:
492,36,16199,6,0,L|464:192,1,150.15,2|8,1:2|2:0,2:0:0:0:
420,224,16866,2,0,B|383:233|346:224|346:224|309:214|272:224,1,150.15,2|2,2:0|1:2,2:0:0:0:
220,256,17533,1,10,2:0:0:0:
220,256,17755,2,0,P|160:296|72:276,1,150.15,2|0,2:0|2:0,2:0:0:0:
40,248,18422,1,8,2:0:0:0:
36,128,18866,2,0,L|32:52,2,75.0749999999999,2|0|10,1:2|1:2|2:0,2:0:0:0:
144,184,19755,6,0,B|148:240|148:240|116:272|116:272|120:328,1,150.15,2|8,1:2|2:0,2:0:0:0:
240,308,20644,2,0,L|328:296,1,75.0749999999999,0|0,1:2|1:2,2:0:0:0:
356,344,21088,2,0,L|444:332,1,75.0749999999999,8|0,2:0|2:0,2:0:0:0:
480,368,21533,1,0,1:2:0:0:
512,252,21977,1,8,2:0:0:0:
428,164,22422,2,0,P|428:120|448:84,1,75.0749999999999,0|0,1:2|1:2,2:0:0:0:
404,44,22866,2,0,P|360:44|324:24,1,75.0749999999999,10|2,2:0|2:0,2:0:0:0:
300,80,23311,6,0,P|231:109|157:105,1,150.15,2|8,1:2|2:0,2:0:0:0:
48,60,24199,2,0,L|44:140,1,75.0749999999999,0|2,1:2|1:2,2:0:0:0:
80,184,24644,1,10,2:0:0:0:
80,184,24866,2,0,L|92:340,1,150.15,2|0,2:0|2:0,2:0:0:0:
136,372,25533,1,8,2:0:0:0:
248,332,25977,2,0,L|240:224,1,75.0749999999999,2|2,1:2|2:0,2:0:0:0:
196,216,26422,2,0,L|204:108,1,75.0749999999999,10|8,2:0|2:0,2:0:0:0:
172,88,26866,6,0,P|246:94|314:66,1,150.15,6|8,1:2|2:0,2:0:0:0:
416,4,27755,2,0,P|432:44|428:96,1,75.0749999999999,0|0,1:2|1:2,2:0:0:0:
396,124,28199,2,0,P|380:164|384:216,1,75.0749999999999,8|0,2:0|2:0,2:0:0:0:
396,252,28644,1,0,1:2:0:0:
500,308,29088,1,8,2:0:0:0:
500,308,29311,2,0,P|428:364|352:360,1,150.15,0|0,2:0|1:2,2:0:0:0:
328,328,29977,2,0,B|288:324|288:324|244:328,1,75.0749999999999,10|2,2:0|2:0,2:0:0:0:
192,332,30422,5,2,1:2:0:0:
76,360,30866,1,8,2:0:0:0:
76,360,31088,2,0,B|66:323|76:286|76:286|85:249|76:212,1,150.15,2|2,2:0|1:2,2:0:0:0:
24,184,31755,1,10,2:0:0:0:
24,184,31977,2,0,P|0:116|56:44,1,150.15,2|0,2:0|2:0,2:0:0:0:
96,32,32644,1,8,2:0:0:0:
184,116,33088,2,0,P|192:156|184:192,2,75.0749999999999,2|0|10,1:2|1:2|2:0,2:0:0:0:
272,32,33977,6,0,B|308:22|344:41|344:41|380:22|416:32,1,150.15,2|8,1:2|2:0,2:0:0:0:
396,152,34866,2,0,L|408:240,1,75.0749999999999,0|0,1:2|1:2,2:0:0:0:
360,264,35311,2,0,L|272:252,1,74.7374999999999,8|0,2:0|2:0,2:0:0:0:
236,288,35755,1,0,1:2:0:0:
140,216,36199,1,8,2:0:0:0:
28,260,36644,2,0,P|17:224|21:186,1,75.0749999999999,0|0,1:2|1:2,2:0:0:0:
60,140,37088,2,0,P|70:104|66:66,1,75.0749999999999,10|2,2:0|2:0,2:0:0:0:
116,36,37533,6,0,B|152:26|189:36|189:36|226:45|263:36,1,150.15,2|8,1:2|2:0,2:0:0:0:
212,144,38422,2,0,P|216:180|248:220,1,74.7374999999999,0|2,1:2|1:2,2:0:0:0:
288,240,38866,1,10,2:0:0:0:
288,240,39088,2,0,P|356:224|392:148,1,150.15,2|0,2:0|1:2,2:0:0:0:
372,100,39755,2,0,P|364:64|372:20,1,75.0749999999999,8|8,2:0|2:3,2:0:0:0:
480,68,40422,1,8,2:3:0:0:
480,68,40645,1,4,2:3:0:0:
452,184,41088,6,0,P|396:176|304:224,1,150.15,6|10,1:2|2:3,2:0:0:0:
276,260,41755,2,0,P|222:277|123:246,1,150.15,0|0,1:2|1:2,2:0:0:0:
93,211,42422,1,10,2:0:0:0:
96,92,42866,2,0,B|172:60|240:96|240:96|232:56|260:20,2,225.05625,2|2|12,1:2|1:2|2:0,2:0:0:0:
164,192,44644,6,0,P|240:212|312:188,1,150.15,4|10,1:2|2:3,2:0:0:0:
332,136,45311,2,0,P|408:116|480:140,1,150.15,0|0,1:2|1:2,2:0:0:0:
508,188,45977,1,10,2:0:0:0:
456,300,46422,2,0,B|400:312|400:312|368:292|368:292|304:304,1,150.15,2|8,1:2|2:3,2:0:0:0:
276,348,47088,1,2,1:2:0:0:
276,348,47311,2,0,B|216:360|216:360|168:368|128:328,1,150.15,2|8,2:0|2:0,2:0:0:0:
204,236,48199,6,0,L|196:144,1,75.0749999999999,6|0,1:2|2:0,2:0:0:0:
188,100,48644,1,10,2:3:0:0:
188,100,48866,2,0,B|179:58|150:37|150:37|116:47|94:83,1,150.15,2|2,1:2|1:2,2:0:0:0:
72,140,49533,1,10,2:0:0:0:
80,260,49977,2,0,P|112:328|192:352,1,150.15,2|8,1:2|2:3,2:0:0:0:
236,336,50644,2,0,B|308:316|308:316|384:336,1,150.15,2|0,1:2|1:2,2:0:0:0:
436,356,51311,1,10,2:0:0:0:
512,264,51755,6,0,L|500:104,1,150.15,14|2,2:0|1:2,2:0:0:0:
380,96,52644,2,0,L|292:84,1,75.0749999999999,8|8,2:0|2:0,2:0:0:0:
248,104,53088,2,0,L|160:92,1,75.0749999999999,8|8,2:0|2:0,2:0:0:0:
120,64,53533,1,6,1:2:0:0:
52,296,54422,1,2,2:0:0:0:
148,224,54866,1,8,2:0:0:0:
216,324,55311,6,0,P|264:260|260:176,1,150.15,6|8,1:2|2:0,2:0:0:0:
236,140,55977,2,0,B|316:136|316:136|380:88,1,150.15,2|0,2:0|1:2,2:0:0:0:
420,60,56644,1,10,2:0:0:0:
492,156,57088,2,0,L|364:248,1,150.15,2|8,1:2|2:0,2:0:0:0:
316,272,57755,2,0,B|278:238|278:238|238:244|238:244|195:204,1,150.15,2|0,2:0|1:2,2:0:0:0:
156,160,58422,1,10,2:0:0:0:
80,252,58866,6,0,L|86:326,2,75.0749999999999,2|0|8,1:2|2:0|2:0,2:0:0:0:
8,156,59755,1,0,1:2:0:0:
76,56,60199,2,0,P|112:52|150:62,1,75.0749999999999,10|2,2:0|2:0,2:0:0:0:
196,100,60644,2,0,P|232:104|270:93,1,75.0749999999999,2|2,1:2|2:0,2:0:0:0:
320,60,61088,1,10,2:0:0:0:
320,60,61311,2,0,L|300:208,1,150.15,2|0,2:0|1:2,2:0:0:0:
292,268,61977,1,14,2:0:0:0:
376,356,62422,6,0,P|412:296|396:208,1,150.15,6|8,1:2|2:0,2:0:0:0:
432,168,63088,2,0,P|442:95|405:31,1,150.15,2|0,2:0|1:2,2:0:0:0:
352,4,63755,1,10,2:0:0:0:
332,124,64199,2,0,P|280:148|264:68,1,150.15,2|8,1:2|2:0,2:0:0:0:
268,20,64866,2,0,L|116:44,1,150.15,2|0,2:0|1:2,2:0:0:0:
60,56,65533,1,10,2:0:0:0:
8,164,65977,6,0,P|5:248|61:299,1,150,6|8,1:2|2:0,2:0:0:0:
104,312,66644,2,0,P|184:285|212:215,1,150,6|2,1:2|1:2,2:0:0:0:
220,172,67311,1,10,2:0:0:0:
220,172,67533,2,0,B|294:159|294:159|338:230,1,150.15,10|0,2:0|1:2,2:0:0:0:
292,268,68199,1,8,2:0:0:0:
292,268,68422,1,6,1:2:0:0:
384,348,68866,1,2,1:2:0:0:
425,302,69088,2,0,L|429:214,1,75.0749999999999,10|6,2:0|2:3,2:0:0:0:
456,176,69533,6,0,B|456:120|456:120|436:88|436:88|436:32,1,150,6|8,1:2|2:0,2:0:0:0:
376,36,70199,2,0,L|220:56,1,150.15,2|0,2:0|1:2,2:0:0:0:
168,64,70866,1,10,2:0:0:0:
48,80,71311,2,0,P|80:148|144:184,1,150,2|8,1:2|2:0,2:0:0:0:
200,172,71977,2,0,P|280:156|352:188,1,150,2|0,2:0|1:2,2:0:0:0:
372,232,72644,1,10,2:0:0:0:
264,284,73088,6,0,L|258:358,2,75,2|0|8,1:2|2:0|2:0,2:0:0:0:
372,232,73977,1,0,1:2:0:0:
480,180,74422,2,0,L|474:106,1,75.0749999999999,10|2,2:0|2:0,2:0:0:0:
424,76,74866,2,0,P|388:80|350:69,1,75.0749999999999,2|2,1:2|2:0,2:0:0:0:
304,32,75311,1,10,2:0:0:0:
304,32,75533,2,0,P|212:32|128:80,1,150.15,2|0,2:0|1:2,2:0:0:0:
144,112,76199,2,0,P|100:116|56:104,1,75.0749999999999,8|8,2:0|2:0,2:0:0:0:
16,80,76644,5,6,1:2:0:0:
32,200,77088,1,8,2:0:0:0:
32,200,77311,2,0,B|78:220|78:220|126:220|126:220|174:200,1,150.15,2|2,2:0|1:2,2:0:0:0:
228,176,77977,1,10,2:0:0:0:
228,176,78199,2,0,B|274:157|274:157|322:157|322:157|370:177,1,150.15,2|0,2:0|2:0,2:0:0:0:
424,204,78866,2,0,B|460:212|460:212|500:204,2,75,8|0|0,2:0|2:0|1:2,2:0:0:0:
424,84,79755,1,10,2:0:0:0:
304,84,80199,6,0,L|152:84,1,150.15,6|8,1:2|2:0,2:0:0:0:
92,84,80866,2,0,P|68:156|92:224,1,150.15,6|0,1:2|1:2,2:0:0:0:
152,224,81533,1,8,2:0:0:0:
272,224,81977,2,0,B|324:224|324:224|356:196|356:196|428:196,1,150.15,0|8,1:2|2:0,2:0:0:0:
472,196,82644,1,6,1:2:0:0:
472,316,83088,1,0,1:2:0:0:
412,316,83311,2,0,L|328:316,1,74.7374999999999,8|4,2:0|2:3,2:0:0:0:
277,315,83755,5,6,1:2:0:0:
172,376,84199,1,8,2:0:0:0:
172,376,84422,2,0,P|104:352|72:276,1,150,2|2,2:0|2:0,2:0:0:0:
96,228,85088,2,0,P|104:189|96:157,1,75.0749999999999,10|10,2:0|2:3,2:0:0:0:
72,100,85533,2,0,B|156:136|224:84|236:28|236:28|276:28|276:28|288:84|356:136|440:100,1,450.1125,6|10,1:2|2:0,2:0:0:0:
468,36,87088,5,6,1:2:0:0:
256,192,87311,12,0,96199,2:0:0:0:
