osu file format v14

[General]
AudioFilename: audio.mp3
AudioLeadIn: 0
PreviewTime: 55326
Countdown: 0
SampleSet: Soft
StackLeniency: 0.5
Mode: 0
LetterboxInBreaks: 0
WidescreenStoryboard: 1

[Editor]
Bookmarks: 4881
DistanceSpacing: 1
BeatDivisor: 4
GridSize: 4
TimelineZoom: 1.650001

[Metadata]
Title:Todokanai Koi '13 (TV EDIT)
TitleUnicode:届かない恋 '13 (TV EDIT)
Artist:Uehara Rena
ArtistUnicode:上原れな
Creator:Namki
Version:M a r v o l l o's Hard
Source:WHITE ALBUM2
Tags:m_a_r_v_o_l_l_o Asaiga Shmiklak Marvollo WHITE ALBUM2 ORIGINAL SOUNDTRACK
BeatmapID:1462786
BeatmapSetID:691147

[Difficulty]
HPDrainRate:6
CircleSize:4
OverallDifficulty:7
ApproachRate:7.5
SliderMultiplier:1.5
SliderTickRate:1

[Events]
//Background and Video events
0,0,"kissu.png",0,0
//Break Periods
2,41303,50945
//Storyboard Layer 0 (Background)
//Storyboard Layer 1 (Fail)
//Storyboard Layer 2 (Pass)
//Storyboard Layer 3 (Foreground)
//Storyboard Sound Samples

[TimingPoints]
215,444.444444444444,4,2,1,60,1,0
4881,-100,4,2,1,60,0,0
5103,-100,4,2,1,60,0,0
5548,-100,4,2,1,60,0,0
12659,-100,4,2,1,60,0,0
13326,-133.333333333333,4,2,1,60,0,0
14437,-100,4,2,1,60,0,0
16548,-100,4,2,1,15,0,0
16659,-100,4,2,1,60,0,0
20437,-133.333333333333,4,2,1,60,0,0
21548,-100,4,2,1,60,0,0
23659,-100,4,2,1,15,0,0
23770,-100,4,2,1,60,0,0
27548,-133.333333333333,4,2,1,60,0,0
28659,-100,4,2,1,60,0,0
34659,-133.333333333333,4,2,1,60,0,0
35770,-100,4,2,1,60,0,0
41103,-100,4,2,1,60,0,0
51770,-100,4,2,1,60,0,0
52437,-100,4,2,1,60,0,0
55326,-100,4,2,1,60,0,0
85548,-133.333333333333,4,2,1,60,0,0
86881,-100,4,2,1,60,0,0
89103,-100,4,2,1,10,0,0

[Colours]
Combo1 : 204,162,251
Combo2 : 121,227,206
Combo3 : 85,187,255

[HitObjects]
108,188,4881,5,8,0:3:0:0:
160,240,5103,2,0,P|197:237|234:232,1,75,8|0,0:2|0:0,0:0:0:0:
339,123,5548,5,4,0:0:0:0:
391,70,5770,1,0,0:0:0:0:
444,120,5992,2,0,P|453:149|460:208,1,75,8|0,0:3|0:0,0:0:0:0:
410,286,6437,5,8,0:3:0:0:
476,324,6659,1,2,0:0:0:0:
412,364,6881,1,8,0:3:0:0:
328,256,7103,6,0,P|276:258|243:271,1,75,2|8,0:0|0:3,0:0:0:0:
201,318,7548,2,0,P|149:316|111:315,1,75,2|8,0:0|0:3,0:0:0:0:
73,262,7992,2,0,P|69:210|76:172,1,75,0|8,0:1|0:3,0:0:0:0:
125,134,8437,2,0,B|215:164|179:108|281:134,1,150,2|0,0:0|0:0,0:0:0:0:
376,241,9103,5,8,0:0:0:0:
332,176,9326,1,2,0:0:0:0:
270,131,9548,2,0,P|269:89|283:53,1,75,8|0,0:3|0:0,0:0:0:0:
372,112,9992,5,8,0:3:0:0:
332,176,10214,1,0,0:0:0:0:
265,211,10437,2,0,P|234:208|176:200,1,75,8|0,0:3|0:0,0:0:0:0:
116,276,10881,5,8,0:3:0:0:
60,328,11103,1,0,0:0:0:0:
132,352,11326,1,8,0:3:0:0:
44,232,11548,5,4,0:0:0:0:
88,172,11770,2,0,P|92:116|84:84,1,75,2|0,0:0|0:0,0:0:0:0:
141,44,12214,2,0,P|197:48|229:40,1,75,2|8,0:0|0:3,0:0:0:0:
250,30,12548,1,8,0:3:0:0:
284,14,12659,6,0,P|321:20|368:26,1,75,4|0,0:0|0:0,0:0:0:0:
411,77,13103,1,8,0:0:0:0:
360,132,13326,2,0,P|341:163|466:227,1,225.000008583069,2|0,0:0|0:0,0:0:0:0:
418,331,14437,6,0,P|375:322|336:320,1,75,4|0,0:0|0:0,0:0:0:0:
272,336,14881,1,8,0:0:0:0:
123,187,15326,5,8,0:3:0:0:
70,134,15548,1,0,0:0:0:0:
123,81,15770,1,8,0:0:0:0:
175,135,15992,1,0,0:0:0:0:
268,84,16214,6,0,P|323:78|396:84,1,112.5,4|0,0:0|0:0,0:0:0:0:
406,108,16659,1,8,0:0:0:0:
368,172,16881,2,0,P|367:216|371:252,1,75,2|8,0:0|0:3,0:0:0:0:
440,272,17326,2,0,P|441:228|437:192,1,75,2|8,0:0|0:0,0:0:0:0:
368,172,17770,1,0,0:0:0:0:
293,246,17992,6,0,P|247:257|151:201,1,150,6|8,0:0|0:0,0:0:0:0:
248,24,18881,5,8,0:3:0:0:
195,77,19103,1,0,0:0:0:0:
248,130,19325,1,8,0:0:0:0:
300,76,19547,1,0,0:0:0:0:
195,77,19770,6,0,P|157:76|107:73,1,75,4|0,0:0|0:0,0:0:0:0:
67,127,20214,1,8,0:0:0:0:
121,185,20437,2,0,P|186:172|348:194,1,225.000008583069,2|0,0:0|0:0,0:0:0:0:
432,248,21548,6,0,P|423:205|421:166,1,75,6|0,0:0|0:0,0:0:0:0:
432,100,21992,1,8,0:0:0:0:
316,276,22437,5,8,0:3:0:0:
263,223,22659,1,0,0:0:0:0:
210,276,22881,1,8,0:0:0:0:
264,328,23103,1,2,0:0:0:0:
338,253,23326,6,0,P|344:198|338:125,1,112.5,4|0,0:0|0:0,0:0:0:0:
314,114,23770,2,0,P|279:115|226:114,1,75,8|0,0:0|0:0,0:0:0:0:
168,92,24214,1,8,0:3:0:0:
144,164,24437,2,0,P|145:208|141:244,1,75,2|0,0:0|0:0,0:0:0:0:
96,296,24882,1,2,0:0:0:0:
32,212,25103,6,0,P|27:124|44:44,1,150,4|8,0:0|0:0,0:0:0:0:
236,24,25992,5,10,0:3:0:0:
204,92,26214,1,2,0:3:0:0:
223,172,26437,1,8,0:3:0:0:
223,172,26548,1,8,0:3:0:0:
223,172,26659,1,8,0:3:0:0:
328,277,26881,6,0,P|392:264|494:282,1,150,4|8,0:1|0:0,0:0:0:0:
475,274,27548,2,0,B|452:184|452:184|464:156|464:156|432:44,1,225.000008583069,2|0,0:0|0:0,0:0:0:0:
339,15,28659,5,6,0:0:0:0:
286,67,28881,1,2,0:0:0:0:
338,119,29103,1,10,0:0:0:0:
284,172,29326,2,0,P|283:209|288:256,1,75,2|8,0:0|0:3,0:0:0:0:
328,309,29770,1,0,0:0:0:0:
364,244,29992,1,8,0:0:0:0:
286,246,30214,1,2,0:0:0:0:
340,336,30437,6,0,P|408:368|476:324,1,150,4|8,0:0|0:0,0:0:0:0:
500,268,31103,2,0,P|496:222|492:184,1,75,2|8,0:0|0:3,0:0:0:0:
423,165,31548,2,0,P|418:202|416:239,1,75,2|8,0:0|0:0,0:0:0:0:
363,292,31992,1,2,0:0:0:0:
280,360,32214,6,0,B|190:390|226:334|124:360,1,150,4|8,0:0|0:0,0:0:0:0:
60,376,32881,1,0,0:0:0:0:
20,312,33103,2,0,P|16:264|20:232,1,75,8|0,0:3|0:0,0:0:0:0:
92,212,33548,2,0,P|96:249|93:286,1,75,8|0,0:0|0:0,0:0:0:0:
156,368,33992,6,0,P|232:364|313:360,1,150,4|8,0:0|0:0,0:0:0:0:
305,360,34659,2,0,B|288:296|288:296|464:304,1,225.000008583069,2|0,0:0|0:0,0:0:0:0:
480,204,35770,6,0,P|435:201|393:197,1,75,4|0,0:0|0:0,0:0:0:0:
340,160,36214,1,8,0:0:0:0:
289,217,36437,2,0,P|251:220|214:222,1,75,0|8,0:0|0:3,0:0:0:0:
161,169,36881,1,0,0:0:0:0:
122,233,37103,2,0,P|118:269|123:308,1,75,8|2,0:0|0:0,0:0:0:0:
32,360,37548,6,0,P|37:277|40:203,1,150,4|8,0:0|0:0,0:0:0:0:
188,61,38437,5,8,0:3:0:0:
240,113,38659,1,2,0:0:0:0:
282,51,38881,1,8,0:0:0:0:
334,103,39103,1,2,0:0:0:0:
292,200,39326,6,0,P|291:242|300:292,1,75,4|0,0:0|0:0,0:0:0:0:
364,352,39770,1,8,0:0:0:0:
363,242,39992,1,8,0:0:0:0:
295,274,40214,1,0,0:0:0:0:
425,296,40437,1,4,0:3:0:0:
273,354,40659,2,0,P|225:353|192:343,1,75,4|0,0:3|0:0,0:0:0:0:
92,240,41103,5,4,0:1:0:0:
256,192,51770,12,4,53548,0:1:0:0:
28,96,54881,6,0,P|46:100|64:105,3,37.5,8|8|8|8,0:3|0:3|0:3|0:3,0:0:0:0:
91,132,55326,6,0,B|181:162|145:106|247:132,1,150,4|8,0:1|0:0,0:0:0:0:
289,182,55992,1,2,0:0:0:0:
328,120,56214,2,0,P|331:79|331:39,1,75,8|0,0:3|0:0,0:0:0:0:
402,19,56659,2,0,P|401:56|405:93,1,75,8|0,0:0|0:0,0:0:0:0:
479,167,57103,6,0,P|474:247|468:336,1,150,4|8,0:0|0:0,0:0:0:0:
416,369,57770,1,2,0:0:0:0:
363,316,57992,2,0,P|357:278|359:236,1,75,8|0,0:3|0:0,0:0:0:0:
284,224,58437,2,0,P|285:261|279:298,1,75,8|0,0:0|0:0,0:0:0:0:
188,352,58881,6,0,P|117:348|24:344,1,150,4|8,0:0|0:0,0:0:0:0:
0,280,59548,1,0,0:0:0:0:
52,227,59770,2,0,P|88:220|132:224,1,75,8|0,0:3|0:0,0:0:0:0:
184,272,60214,1,8,0:0:0:0:
232,212,60437,1,2,0:0:0:0:
126,222,60659,5,4,0:0:0:0:
84,284,60881,2,0,P|84:319|89:360,1,75,2|8,0:0|0:0,0:0:0:0:
164,372,61326,2,0,B|194:282|138:318|164:216,1,150,2|2,0:0|0:0,0:0:0:0:
214,173,61992,1,8,0:0:0:0:
266,225,62214,1,2,0:0:0:0:
328,88,62437,6,0,P|243:85|152:82,1,150,4|8,0:0|0:0,0:0:0:0:
125,135,63103,1,2,0:0:0:0:
178,188,63326,2,0,P|188:236|176:280,1,75,8|0,0:3|0:0,0:0:0:0:
120,304,63770,2,0,P|109:268|113:231,1,75,8|0,0:0|0:0,0:0:0:0:
187,156,64214,6,0,P|264:168|346:150,1,150,4|8,0:0|0:0,0:0:0:0:
392,108,64881,1,2,0:0:0:0:
444,160,65103,2,0,P|447:194|452:260,1,75,8|0,0:3|0:0,0:0:0:0:
384,268,65548,2,0,P|379:226|376:189,1,75,8|0,0:0|0:0,0:0:0:0:
256,108,65992,5,4,0:1:0:0:
203,160,66214,1,8,0:3:0:0:
184,88,66437,1,8,0:3:0:0:
300,180,66659,6,0,P|319:210|316:268,1,75,4|8,0:1|0:3,0:0:0:0:
248,236,67104,1,2,0:0:0:0:
348,332,67326,5,8,0:0:0:0:
412,296,67548,1,8,0:3:0:0:
412,296,67659,1,8,0:3:0:0:
412,296,67770,6,0,P|419:253|412:216,1,75,4|0,0:0|0:0,0:0:0:0:
378,156,68214,1,8,0:0:0:0:
271,262,68437,2,0,P|232:268|124:232,1,150,4|8,0:1|0:3,0:0:0:0:
74,178,69103,2,0,L|64:119,3,37.5
77,104,69548,6,0,B|167:134|131:78|233:104,1,150,4|8,0:1|0:0,0:0:0:0:
296,96,70214,1,2,0:0:0:0:
352,148,70436,2,0,P|355:189|355:229,1,75,8|0,0:3|0:0,0:0:0:0:
306,277,70881,2,0,P|269:278|232:274,1,75,8|0,0:0|0:0,0:0:0:0:
156,199,71326,6,0,P|161:119|167:30,1,150,4|8,0:0|0:0,0:0:0:0:
96,20,71993,1,2,0:0:0:0:
36,68,72215,2,0,P|30:106|32:148,1,75,8|0,0:3|0:0,0:0:0:0:
84,195,72660,2,0,P|85:232|79:269,1,75,8|0,0:0|0:0,0:0:0:0:
152,343,73103,6,0,P|229:339|316:335,1,150,4|8,0:0|0:0,0:0:0:0:
355,282,73770,1,0,0:0:0:0:
302,229,73992,2,0,P|295:193|299:149,1,75,8|0,0:3|0:0,0:0:0:0:
350,101,74436,1,8,0:0:0:0:
296,47,74659,1,2,0:0:0:0:
221,121,74881,5,4,0:0:0:0:
178,182,75103,2,0,P|178:217|183:258,1,75,2|8,0:0|0:0,0:0:0:0:
235,309,75548,2,0,B|325:339|289:283|391:309,1,150,2|0,0:0|0:0,0:0:0:0:
444,348,76214,1,8,0:0:0:0:
472,278,76436,1,8,0:3:0:0:
472,278,76548,1,8,0:3:0:0:
472,278,76659,6,0,P|475:193|478:102,1,150,4|8,0:1|0:0,0:0:0:0:
424,75,77325,1,2,0:0:0:0:
370,128,77548,2,0,P|367:177|372:220,1,75,8|2,0:3|0:0,0:0:0:0:
316,255,77992,1,8,0:0:0:0:
263,202,78214,1,2,0:0:0:0:
210,254,78436,6,0,P|133:266|51:248,1,150,4|8,0:0|0:0,0:0:0:0:
32,184,79103,1,2,0:0:0:0:
96,144,79325,2,0,P|99:110|104:44,1,75,8|0,0:3|0:0,0:0:0:0:
173,46,79770,2,0,P|178:88|181:125,1,75,8|0,0:0|0:0,0:0:0:0:
286,226,80214,5,4,0:1:0:0:
233,174,80436,1,8,0:3:0:0:
214,246,80659,1,8,0:3:0:0:
292,376,80881,6,0,P|328:356|344:308,1,75,4|8,0:1|0:3,0:0:0:0:
272,304,81326,1,2,0:0:0:0:
360,248,81548,5,8,0:0:0:0:
412,195,81770,1,2,0:0:0:0:
412,195,81881,1,2,0:0:0:0:
412,195,81992,6,0,P|433:195|456:200,2,37.5,8|8|0,0:3|0:3|0:0,0:0:0:0:
376,128,82437,1,8,0:0:0:0:
228,152,82659,2,0,P|207:225|222:308,1,150,4|8,0:1|0:3,0:0:0:0:
270,350,83326,2,0,P|304:352|316:352,3,37.5
343,342,83770,6,0,P|358:306|368:248,1,75,4|0,0:1|0:0,0:0:0:0:
368,196,84214,2,0,P|330:194|293:197,1,75,8|2,0:0|0:0,0:0:0:0:
213,277,84659,1,8,0:3:0:0:
112,226,84881,1,0,0:0:0:0:
132,338,85103,1,8,0:3:0:0:
132,338,85214,1,8,0:3:0:0:
132,338,85326,1,8,0:3:0:0:
191,198,85548,6,0,P|200:144|23:116,1,281.250010728836,4|2,0:1|0:0,0:0:0:0:
29,104,86770,1,0,0:0:0:0:
29,104,86881,1,8,0:3:0:0:
93,252,87103,1,4,0:1:0:0:
256,192,87214,12,0,89103,0:0:0:0:
