osu file format v14

[General]
AudioFilename: audio.mp3
AudioLeadIn: 0
PreviewTime: 55326
Countdown: 0
SampleSet: Soft
StackLeniency: 0.5
Mode: 0
LetterboxInBreaks: 0
WidescreenStoryboard: 0

[Editor]
Bookmarks: 4881
DistanceSpacing: 0.6
BeatDivisor: 4
GridSize: 4
TimelineZoom: 1.8

[Metadata]
Title:Todokanai Koi '13 (TV EDIT)
TitleUnicode:届かない恋 '13 (TV EDIT)
Artist:Uehara Rena
ArtistUnicode:上原れな
Creator:Namki
Version:Broken Heart
Source:WHITE ALBUM2
Tags:m_a_r_v_o_l_l_o Asaiga Shmiklak Marvollo WHITE ALBUM2 ORIGINAL SOUNDTRACK
BeatmapID:1462665
BeatmapSetID:691147

[Difficulty]
HPDrainRate:6
CircleSize:4.5
OverallDifficulty:7
ApproachRate:8.3
SliderMultiplier:1.8
SliderTickRate:1

[Events]
//Background and Video events
0,0,"kissu.png",0,0
//Break Periods
//Storyboard Layer 0 (Background)
//Storyboard Layer 1 (Fail)
//Storyboard Layer 2 (Pass)
//Storyboard Layer 3 (Foreground)
//Storyboard Sound Samples

[TimingPoints]
215,444.444444444444,4,2,1,60,1,0
4881,-111.111111111111,4,2,1,60,0,0
5103,-90.9090909090909,4,2,1,60,0,0
5548,-100,4,2,1,60,0,0
12659,-125,4,2,1,60,0,0
41103,-133.333333333333,4,2,1,60,0,0
51770,-117.647058823529,4,2,1,60,0,0
52437,-111.111111111111,4,2,1,60,0,0
55326,-99.9999999999999,4,2,1,60,0,0
85548,-117.647058823529,4,2,1,60,0,0
89103,-117.647058823529,4,2,1,10,0,0

[Colours]
Combo1 : 204,162,251
Combo2 : 121,227,206
Combo3 : 85,187,255

[HitObjects]
206,209,4881,6,0,P|205:230|203:254,1,40.4999987640381,8|0,0:3|0:0,0:0:0:0:
85,153,5103,2,0,B|161:164|156:113|228:125,1,148.500004531861,8|0,0:2|0:0,0:0:0:0:
251,136,5548,5,4,0:0:0:0:
312,47,5770,1,0,0:0:0:0:
318,213,5992,1,8,0:3:0:0:
309,201,6437,5,8,0:3:0:0:
497,152,6659,2,0,L|404:144,1,90,2|8,0:0|0:3,0:0:0:0:
311,244,7103,6,0,P|310:284|335:335,1,90,2|8,0:0|0:3,0:0:0:0:
278,159,7548,2,0,P|242:178|211:225,1,90,2|8,0:0|0:3,0:0:0:0:
327,68,7992,6,0,L|436:73,1,90,0|8,0:1|0:3,0:0:0:0:
278,159,8437,2,0,B|188:162|188:162|161:148|161:148|48:153,1,225,2|0,0:0|0:0,0:0:0:0:
32,165,9103,5,8,0:0:0:0:
142,246,9326,1,2,0:0:0:0:
212,78,9548,1,8,0:3:0:0:
20,171,9992,5,8,0:3:0:0:
145,263,10215,1,0,0:0:0:0:
225,71,10437,1,8,0:3:0:0:
8,172,10881,5,8,0:3:0:0:
143,271,11104,1,0,0:0:0:0:
230,63,11326,1,8,0:3:0:0:
161,145,11548,5,4,0:0:0:0:
347,93,11770,2,0,P|350:48|337:-2,1,90,2|0,0:0|0:0,0:0:0:0:
267,166,12214,1,2,0:0:0:0:
410,238,12437,5,8,0:3:0:0:
410,238,12548,1,8,0:3:0:0:
410,238,12659,2,0,P|486:225|505:139,1,144,4|8,0:0|0:0,0:0:0:0:
330,320,13326,1,2,0:0:0:0:
264,254,13548,2,0,P|231:248|182:251,1,72,8|0,0:3|0:0,0:0:0:0:
71,350,13992,1,8,0:0:0:0:
194,325,14214,1,0,0:0:0:0:
107,202,14437,6,0,P|68:190|30:190,1,72,4|0,0:0|0:0,0:0:0:0:
217,176,14881,2,0,P|207:136|188:103,1,72,8|0,0:0|0:0,0:0:0:0:
103,49,15326,1,8,0:3:0:0:
282,54,15548,1,0,0:0:0:0:
203,0,15770,5,8,0:0:0:0:
128,166,15992,1,0,0:0:0:0:
368,141,16214,2,0,B|360:79|360:79|349:56|349:56|343:-6,1,144,4|8,0:0|0:0,0:0:0:0:
512,170,16881,2,0,P|480:194|448:202,1,72,2|8,0:0|0:3,0:0:0:0:
445,110,17326,1,2,0:0:0:0:
428,298,17548,2,0,P|391:282|368:258,1,72,8|0,0:0|0:0,0:0:0:0:
296,304,17992,5,6,0:0:0:0:
314,172,18214,1,0,0:0:0:0:
201,319,18437,1,8,0:0:0:0:
160,220,18659,1,0,0:0:0:0:
203,330,18881,6,0,L|121:325,1,72,8|0,0:3|0:0,0:0:0:0:
155,235,19326,1,8,0:0:0:0:
20,344,19548,1,0,0:0:0:0:
12,171,19770,2,0,L|96:177,2,72,4|0|8,0:0|0:0|0:0,0:0:0:0:
276,92,20437,2,0,B|204:99|204:99|186:93|186:93|123:100,1,144,2|0,0:0|0:0,0:0:0:0:
222,17,21103,1,8,0:0:0:0:
173,171,21326,1,0,0:0:0:0:
365,117,21548,6,0,P|362:63|348:40,1,72,6|0,0:0|0:0,0:0:0:0:
173,171,21992,2,0,P|159:204|162:239,1,72,8|0,0:0|0:0,0:0:0:0:
106,319,22437,1,8,0:3:0:0:
281,284,22659,1,0,0:0:0:0:
184,358,22881,5,8,0:0:0:0:
269,189,23103,1,2,0:0:0:0:
389,354,23326,2,0,L|404:197,1,144,4|8,0:0|0:0,0:0:0:0:
407,124,23992,1,0,0:0:0:0:
407,124,24214,1,8,0:3:0:0:
488,157,24437,5,2,0:0:0:0:
314,138,24659,1,8,0:0:0:0:
503,44,24881,2,0,P|465:47|423:54,1,72,2|4,0:0|0:0,0:0:0:0:
197,54,25326,5,0,0:0:0:0:
242,129,25548,2,0,P|279:133|322:139,1,72,8|0,0:0|0:0,0:0:0:0:
185,64,25992,5,10,0:3:0:0:
112,165,26214,2,0,P|83:167|46:174,1,36,2|0,0:3|0:0,0:0:0:0:
215,232,26437,1,8,0:3:0:0:
228,226,26548,1,8,0:3:0:0:
242,224,26659,1,8,0:3:0:0:
352,334,26881,6,0,P|354:255|368:176,1,144,4|8,0:1|0:0,0:0:0:0:
423,60,27548,2,0,P|388:78|350:92,1,72,2|8,0:0|0:3,0:0:0:0:
275,168,27992,1,0,0:0:0:0:
187,33,28214,2,0,P|220:46|252:63,1,72,8|0,0:0|0:0,0:0:0:0:
277,173,28659,5,6,0:0:0:0:
201,118,28881,1,2,0:0:0:0:
151,221,29103,1,10,0:0:0:0:
112,66,29326,1,2,0:0:0:0:
70,269,29548,2,0,P|25:279|-6:277,1,72,8|0,0:3|0:0,0:0:0:0:
167,273,29992,5,8,0:0:0:0:
74,173,30214,1,2,0:0:0:0:
126,353,30437,2,0,B|195:374|203:331|273:355,1,144,4|8,0:0|0:0,0:0:0:0:
373,256,31103,2,0,P|337:257|301:278,1,72,2|8,0:0|0:3,0:0:0:0:
445,356,31548,1,2,0:0:0:0:
502,281,31770,2,0,P|498:243|492:198,1,72,8|2,0:0|0:0,0:0:0:0:
488,64,32214,6,0,P|461:97|353:77,1,144,4|8,0:0|0:0,0:0:0:0:
420,33,32881,1,0,0:0:0:0:
317,189,33103,2,0,P|278:176|242:175,1,72,8|0,0:3|0:0,0:0:0:0:
195,84,33548,1,8,0:0:0:0:
209,260,33770,1,0,0:0:0:0:
76,174,33992,6,0,P|79:138|90:89,2,72,4|0|8,0:0|0:0|0:0,0:0:0:0:
172,109,34659,1,0,0:0:0:0:
16,80,34881,1,8,0:3:0:0:
178,89,35103,1,0,0:0:0:0:
0,192,35326,1,8,0:0:0:0:
183,72,35548,1,0,0:0:0:0:
212,234,35770,6,0,P|252:226|278:209,1,72,4|0,0:0|0:0,0:0:0:0:
267,29,36214,2,0,P|236:10|201:4,1,72,8|0,0:0|0:0,0:0:0:0:
209,101,36659,1,8,0:3:0:0:
209,101,36881,1,0,0:0:0:0:
337,80,37103,5,8,0:0:0:0:
192,114,37326,1,2,0:0:0:0:
318,239,37548,2,0,B|397:246|380:203|470:214,1,144,4|8,0:0|0:0,0:0:0:0:
437,298,38214,1,0,0:0:0:0:
437,298,38437,1,8,0:3:0:0:
343,161,38659,5,2,0:0:0:0:
437,298,38881,1,8,0:0:0:0:
418,113,39103,1,2,0:0:0:0:
318,272,39326,6,0,P|285:284|225:277,1,72,4|0,0:0|0:0,0:0:0:0:
198,353,39770,1,8,0:0:0:0:
248,184,39992,1,8,0:0:0:0:
256,187,40437,5,4,0:3:0:0:
164,285,40659,2,0,P|197:294|234:290,1,72,4|0,0:3|0:0,0:0:0:0:
176,198,41103,6,0,P|173:152|170:70,1,101.250003862381,4|0,0:1|0:0,0:0:0:0:
182,80,41548,2,0,P|216:65|247:67,1,67.5000025749208,8|0,0:3|0:0,0:0:0:0:
299,2,41992,2,0,P|328:23|342:51,1,67.5000025749208,2|0,0:3|0:0,0:0:0:0:
359,145,42437,1,2,0:3:0:0:
359,145,42548,1,0,0:3:0:0:
359,145,42659,1,2,0:3:0:0:
210,235,42881,6,0,B|137:241|148:198|66:213,1,135.000005149842,4|2,0:0|0:3,0:0:0:0:
23,269,43548,1,8,0:3:0:0:
115,139,43770,2,0,P|80:130|49:138,1,67.5000025749208,2|0,0:3|0:0,0:0:0:0:
202,98,44214,2,0,P|191:63|169:41,1,67.5000025749208,8|0,0:0|0:0,0:0:0:0:
282,152,44659,6,0,P|331:151|405:146,1,101.250003862381,4|0,0:0|0:0,0:0:0:0:
402,153,45103,2,0,P|400:192|391:229,1,67.5000025749208,8|0,0:0|0:0,0:0:0:0:
307,304,45548,2,0,P|307:270|314:237,1,67.5000025749208,2|0,0:3|0:0,0:0:0:0:
398,361,45992,1,8,0:3:0:0:
398,361,46103,1,0,0:3:0:0:
398,361,46214,1,2,0:3:0:0:
220,353,46437,6,0,B|163:350|163:350|141:342|141:342|78:338,1,135.000005149842,4|8,0:0|0:3,0:0:0:0:
9,353,47103,1,8,0:3:0:0:
68,218,47326,2,0,P|108:232|128:254,1,67.5000025749208,2|0,0:3|0:0,0:0:0:0:
229,285,47770,2,0,P|236:326|227:354,1,67.5000025749208,8|0,0:0|0:0,0:0:0:0:
132,264,48214,6,0,L|131:136,1,101.250003862381,4|0,0:0|0:0,0:0:0:0:
121,144,48659,1,8,0:0:0:0:
229,220,48881,2,0,P|263:215|296:202,1,67.5000025749208,8|2,0:3|0:3,0:0:0:0:
309,107,49326,1,2,0:3:0:0:
379,260,49548,1,2,0:3:0:0:
379,260,49659,1,0,0:3:0:0:
379,260,49770,1,2,0:3:0:0:
460,86,49992,6,0,P|428:73|395:69,2,67.5000025749208,4|0|8,0:0|0:0|0:3,0:0:0:0:
289,146,50659,1,2,0:0:0:0:
217,76,50881,2,0,P|217:43|224:1,1,67.5000025749208,2|8,0:3|0:3,0:3:0:0:
298,153,51326,2,0,P|302:186|303:220,1,67.5000025749208,8|0,0:0|0:0,0:0:0:0:
382,276,51770,6,0,B|305:290|320:239|214:261,1,153.000002918243,4|8,0:1|0:3,0:0:0:0:
142,323,52437,5,8,0:3:0:0:
154,171,52659,1,12,0:3:0:0:
38,262,52881,1,8,0:3:0:0:
263,181,53103,1,12,0:3:0:0:
30,141,53326,1,8,0:3:0:0:
176,355,53548,1,4,0:1:0:0:
298,184,54881,5,8,0:3:0:0:
268,171,54992,1,8,0:3:0:0:
236,168,55103,1,8,0:3:0:0:
204,175,55214,1,8,0:3:0:0:
181,192,55326,6,0,B|92:209|100:147|-10:167,1,180,4|8,0:1|0:0,0:0:0:0:
43,251,55992,1,2,0:0:0:0:
160,100,56214,2,0,P|213:87|258:91,1,90,8|0,0:3|0:0,0:0:0:0:
332,9,56659,2,0,P|369:48|388:89,1,90,8|0,0:0|0:0,0:0:0:0:
334,216,57103,5,4,0:0:0:0:
490,124,57326,1,0,0:0:0:0:
299,126,57548,1,8,0:0:0:0:
464,253,57770,2,0,P|508:257|556:241,2,90,2|8|0,0:0|0:3|0:0,0:0:0:0:
299,126,58437,2,0,P|255:122|207:138,1,90,8|0,0:0|0:0,0:0:0:0:
139,264,58881,6,0,P|128:176|106:81,1,180,4|8,0:0|0:0,0:0:0:0:
46,27,59548,1,0,0:0:0:0:
209,111,59770,1,8,0:3:0:0:
22,126,59992,1,0,0:0:0:0:
166,14,60214,5,8,0:0:0:0:
183,214,60437,1,2,0:0:0:0:
337,118,60659,2,0,P|332:70|319:26,1,90,4|2,0:0|0:0,0:0:0:0:
255,179,61103,1,8,0:0:0:0:
437,283,61326,1,2,0:0:0:0:
328,325,61548,2,0,P|284:321|233:314,2,90,8|2|8,0:3|0:0|0:0,0:0:0:0:
92,321,62214,5,2,0:0:0:0:
134,227,62437,2,0,B|124:148|124:148|128:120|128:120|119:40,1,180,4|8,0:0|0:0,0:0:0:0:
202,154,63103,1,2,0:0:0:0:
46,104,63326,1,8,0:3:0:0:
205,54,63548,1,0,0:0:0:0:
133,237,63770,2,0,P|81:247|32:243,1,90,8|0,0:0|0:0,0:0:0:0:
205,54,64214,6,0,L|385:67,1,180,4|8,0:0|0:0,0:0:0:0:
504,174,64881,2,0,P|439:164|413:141,1,90,2|8,0:0|0:3,0:0:0:0:
485,83,65326,1,0,0:0:0:0:
402,250,65548,2,0,P|357:251|319:273,1,90,8|0,0:0|0:0,0:0:0:0:
260,360,65992,5,4,0:1:0:0:
234,255,66214,1,8,0:3:0:0:
262,150,66437,1,8,0:3:0:0:
339,279,66659,5,4,0:1:0:0:
208,241,66881,1,8,0:3:0:0:
395,220,67103,5,2,0:0:0:0:
142,319,67326,1,8,0:0:0:0:
283,186,67548,5,8,0:3:0:0:
281,168,67659,1,8,0:3:0:0:
278,150,67770,2,0,P|234:136|184:141,2,90,4|0|8,0:0|0:0|0:0,0:0:0:0:
402,241,68437,2,0,P|446:243|489:230,1,90,4|2,0:1|0:0,0:0:0:0:
369,157,68881,1,8,0:3:0:0:
325,290,69103,1,8,0:3:0:0:
298,288,69214,1,8,0:3:0:0:
271,287,69325,1,8,0:3:0:0:
244,286,69436,1,8,0:3:0:0:
218,283,69548,6,0,B|119:302|145:238|34:257,1,180,4|8,0:1|0:0,0:0:0:0:
69,339,70214,1,2,0:0:0:0:
182,195,70437,2,0,P|169:148|141:108,1,90,8|0,0:3|0:0,0:0:0:0:
236,288,70881,2,0,P|270:254|290:208,1,90,8|0,0:0|0:0,0:0:0:0:
260,128,71326,5,4,0:0:0:0:
392,212,71548,1,0,0:0:0:0:
193,189,71770,1,8,0:0:0:0:
351,147,71992,2,0,P|387:135|441:157,2,90,2|8|0,0:0|0:3|0:0,0:0:0:0:
331,36,72659,2,0,L|188:31,1,135,8|0,0:0|0:0,0:0:0:0:
184,37,73103,5,4,0:0:0:0:
241,153,73326,1,0,0:0:0:0:
70,91,73548,2,0,P|71:45|83:-6,1,90,8|0,0:0|0:0,0:0:0:0:
255,157,73992,2,0,P|264:200|265:245,1,90,8|0,0:3|0:0,0:0:0:0:
177,215,74437,5,8,0:0:0:0:
333,275,74659,1,2,0:0:0:0:
222,351,74881,1,4,0:0:0:0:
188,193,75103,1,2,0:0:0:0:
342,306,75326,1,8,0:0:0:0:
197,357,75547,1,2,0:0:0:0:
308,188,75770,2,0,P|361:189|400:203,2,90,8|0|8,3:0|0:0|0:0,0:0:0:0:
144,325,76437,5,8,0:0:0:0:
144,325,76548,1,8,0:3:0:0:
144,325,76659,2,0,P|134:281|138:236,2,90,4|0|8,0:1|0:0|0:0,0:0:0:0:
179,130,77326,1,2,0:0:0:0:
0,111,77548,1,8,0:3:0:0:
141,226,77770,1,2,0:0:0:0:
95,42,77992,1,8,0:0:0:0:
20,216,78214,1,2,0:0:0:0:
220,61,78437,6,0,B|316:77|306:29|411:37,1,180,4|8,0:0|0:0,0:0:0:0:
478,162,79103,1,2,0:0:0:0:
393,243,79326,2,0,P|329:240|301:228,1,90,8|0,0:3|0:0,0:0:0:0:
309,48,79770,2,0,P|351:34|396:35,1,90,8|0,0:0|0:0,0:0:0:0:
356,141,80214,5,4,0:1:0:0:
213,166,80437,1,8,0:3:0:0:
71,138,80659,1,8,0:3:0:0:
249,56,80881,5,4,0:1:0:0:
229,189,81103,1,8,0:3:0:0:
159,29,81326,1,2,0:0:0:0:
306,141,81548,1,8,0:0:0:0:
140,141,81770,5,2,0:0:0:0:
122,139,81881,1,2,0:0:0:0:
104,134,81992,2,0,P|78:132|48:137,2,45,8|8|8,0:3|0:3|0:3,0:0:0:0:
79,219,82437,1,8,0:0:0:0:
184,71,82659,2,0,P|228:79|288:77,1,90,4|2,0:1|0:0,0:0:0:0:
323,5,83103,1,8,0:3:0:0:
351,158,83326,1,8,0:3:0:0:
375,168,83437,1,8,0:3:0:0:
402,170,83548,1,8,0:3:0:0:
427,165,83659,1,8,0:3:0:0:
451,153,83770,6,0,B|451:222|451:222|439:246|439:246|436:344,1,180,4|8,0:1|0:0,0:0:0:0:
219,224,84437,1,2,0:0:0:0:
289,164,84659,2,0,P|345:169|375:192,1,90,8|0,0:3|0:0,0:0:0:0:
203,241,85103,1,8,0:3:0:0:
206,223,85214,1,8,0:3:0:0:
206,204,85326,1,8,0:3:0:0:
204,186,85437,1,8,0:3:0:0:
200,167,85548,6,0,B|122:178|127:139|40:151,2,153.000002918243,4|2|2,0:1|0:3|0:3,0:0:0:0:
304,112,86659,1,2,0:0:0:0:
272,252,86881,1,8,0:3:0:0:
136,24,87103,1,4,0:1:0:0:
256,192,87214,12,0,89103,0:0:0:0:
