osu file format v14

[General]
AudioFilename: audio.mp3
AudioLeadIn: 0
PreviewTime: 55326
Countdown: 0
SampleSet: Soft
StackLeniency: 0.5
Mode: 0
LetterboxInBreaks: 0
WidescreenStoryboard: 0

[Editor]
Bookmarks: 4881,96214
DistanceSpacing: 0.95
BeatDivisor: 2
GridSize: 32
TimelineZoom: 1.450001

[Metadata]
Title:Todokanai Koi '13 (TV EDIT)
TitleUnicode:届かない恋 '13 (TV EDIT)
Artist:Uehara Rena
ArtistUnicode:上原れな
Creator:Namki
Version:Asaiga's Normal
Source:WHITE ALBUM2
Tags:m_a_r_v_o_l_l_o Asaiga Shmiklak Marvollo WHITE ALBUM2 ORIGINAL SOUNDTRACK
BeatmapID:1464168
BeatmapSetID:691147

[Difficulty]
HPDrainRate:4.2
CircleSize:3.2
OverallDifficulty:5.4
ApproachRate:5.5
SliderMultiplier:1.25
SliderTickRate:1

[Events]
//Background and Video events
0,0,"kissu.png",0,0
//Break Periods
//Storyboard Layer 0 (Background)
//Storyboard Layer 1 (Fail)
//Storyboard Layer 2 (Pass)
//Storyboard Layer 3 (Foreground)
//Storyboard Sound Samples

[TimingPoints]
215,444.444444444444,4,2,1,60,1,0
4881,-100,4,2,1,60,0,0
5103,-100,4,2,1,60,0,0
5548,-100,4,2,1,60,0,0
12659,-100,4,2,1,60,0,0
13326,-100,4,2,1,60,0,0
14437,-100,4,2,1,60,0,0
20437,-100,4,2,1,60,0,0
21548,-100,4,2,1,60,0,0
27548,-100,4,2,1,60,0,0
41103,-100,4,2,1,60,0,0
55326,-100,4,2,1,60,0,0
85548,-100,4,2,1,60,0,0
87103,-133.333333333333,4,2,1,15,0,0
89103,-133.333333333333,4,2,1,10,0,0

[Colours]
Combo1 : 204,162,251
Combo2 : 121,227,206
Combo3 : 85,187,255

[HitObjects]
400,340,4881,6,0,L|404:265,1,62.5,0|8,3:0|0:2,0:0:0:0:
408,158,5548,6,0,L|281:172,1,125,4|2,0:0|0:0,0:0:0:0:
167,197,6437,1,2,0:0:0:0:
167,197,6659,2,0,P|151:265|179:320,2,125,2|2|2,0:0|0:0|0:0,0:0:0:0:
121,87,7992,1,2,0:0:0:0:
237,109,8437,1,2,0:0:0:0:
237,109,8659,2,0,L|322:101,1,62.5,2|0,0:0|0:0,0:0:0:0:
358,98,9103,6,0,P|387:145|376:227,1,125,4|2,0:0|0:0,0:0:0:0:
308,306,9992,2,0,P|277:252|282:191,1,125,2|2,0:0|0:0,0:0:0:0:
250,76,10881,1,2,0:0:0:0:
250,76,11103,2,0,L|163:85,1,62.5,2|0,0:0|0:0,0:0:0:0:
128,91,11548,2,0,B|121:153|121:153|149:209|149:209|139:286,1,187.5,4|8,0:0|0:0,0:0:0:0:
228,351,12659,6,0,P|286:351|336:296,1,125,4|8,0:0|0:0,0:0:0:0:
359,190,13548,2,0,L|349:102,1,62.5,0|0,3:0|3:0,0:0:0:0:
344,68,13992,1,8,0:0:0:0:
228,94,14437,2,0,P|176:127|106:102,2,125,2|8|2,0:0|0:0|0:0,0:0:0:0:
344,68,15770,2,0,L|419:79,1,62.5,8|0,0:0|0:0,0:0:0:0:
463,91,16214,6,0,P|475:165|449:215,1,125,0|8,3:0|0:0,0:0:0:0:
373,295,17103,2,0,L|289:307,1,62.5,0|0,3:0|3:0,0:0:0:0:
252,316,17548,1,8,0:0:0:0:
243,198,17992,2,0,B|258:139|258:139|245:64,2,125,2|8|2,0:0|0:0|0:0,0:0:0:0:
123,199,19326,1,8,0:0:0:0:
122,81,19770,6,0,L|266:75,1,125,0|8,3:0|0:0,0:0:0:0:
364,92,20659,2,0,P|378:128|379:157,1,62.5,0|0,3:0|3:0,0:0:0:0:
371,210,21103,1,8,0:0:0:0:
321,318,21548,2,0,L|180:325,2,125,2|8|2,0:0|0:0|0:0,0:0:0:0:
427,265,22881,2,0,P|419:230|421:191,1,62.5,8|0,0:0|0:0,0:0:0:0:
430,144,23326,6,0,B|368:144|368:144|313:104,1,125,0|8,3:0|0:0,0:0:0:0:
223,34,24214,2,0,B|167:64|167:64|95:64,1,125,0|8,3:0|0:0,0:0:0:0:
17,143,25103,2,0,L|21:222,1,62.5,0|0,3:0|3:0,0:0:0:0:
22,264,25548,1,8,0:0:0:0:
137,290,25992,2,0,L|133:211,1,62.5,0|0,3:0|3:0,0:0:0:0:
132,169,26437,1,8,0:0:0:0:
177,59,26881,6,0,P|231:26|300:43,1,125,4|8,0:0|0:0,0:0:0:0:
383,108,27770,2,0,L|375:170,1,62.5,0|0,3:0|3:0,0:0:0:0:
368,230,28214,1,8,0:0:0:0:
287,317,28659,2,0,P|225:328|156:330,2,125,2|8|2,0:0|0:0|0:0,0:0:0:0:
368,230,29992,2,0,L|359:158,1,62.5,8|0,0:0|0:0,0:0:0:0:
350,109,30436,6,0,P|296:147|221:124,1,125,0|8,3:0|0:0,0:0:0:0:
131,92,31325,2,0,P|124:124|128:163,1,62.5,0|0,3:0|3:0,0:0:0:0:
158,203,31770,1,8,0:0:0:0:
176,320,32214,2,0,B|124:284|124:284|59:284,2,125,2|8|2,0:0|0:0|0:0,0:0:0:0:
286,365,33548,1,8,0:0:0:0:
391,309,33992,6,0,B|443:273|443:273|508:273,1,125,2|8,0:0|0:0,0:0:0:0:
493,154,34881,2,0,L|423:154,1,62.5,0|0,3:0|3:0,0:0:0:0:
371,155,35325,1,8,0:0:0:0:
280,78,35770,2,0,L|280:227,2,125,2|8|2,0:0|0:0|0:0,0:0:0:0:
164,103,37103,2,0,L|88:103,1,62.5,8|0,0:0|0:0,0:0:0:0:
42,103,37548,6,0,P|21:165|51:232,1,125,0|8,3:0|0:0,0:0:0:0:
116,309,38436,2,0,P|135:250|111:168,1,125,0|8,3:0|0:0,0:0:0:0:
156,75,39325,2,0,P|185:96|229:105,1,62.5,0|0,3:0|3:0,0:0:0:0:
269,107,39770,1,8,0:0:0:0:
377,58,40214,2,0,P|393:90|399:115,1,62.5,0|0,3:0|3:0,0:0:0:0:
396,175,40659,1,8,0:0:0:0:
325,270,41103,5,4,0:0:0:0:
242,184,41548,1,8,0:0:0:0:
242,184,41770,1,0,3:0:0:0:
169,277,42214,1,0,3:0:0:0:
169,277,42437,1,8,0:0:0:0:
92,186,42881,5,0,3:0:0:0:
166,93,43326,2,0,L|166:24,1,62.5,8|0,0:0|3:0,0:0:0:0:
274,79,43992,1,0,3:0:0:0:
274,79,44214,2,0,L|274:156,1,62.5,8|0,0:0|0:0,0:0:0:0:
274,201,44659,5,4,0:0:0:0:
386,164,45103,1,8,0:0:0:0:
386,164,45326,1,0,3:0:0:0:
439,269,45770,1,0,3:0:0:0:
439,269,45992,1,8,0:0:0:0:
331,318,46437,6,0,L|250:318,2,62.5,0|0|8,3:0|3:0|0:0,0:0:0:0:
381,348,47103,1,0,0:0:0:0:
433,320,47326,2,0,L|514:320,2,62.5,0|0|8,3:0|3:0|0:0,0:0:0:0:
395,207,48214,5,4,0:0:0:0:
470,114,48659,1,8,0:0:0:0:
470,114,48881,1,0,3:0:0:0:
383,31,49326,1,0,3:0:0:0:
383,31,49548,2,0,L|314:41,1,62.5,8|0,0:0|0:0,0:0:0:0:
290,90,49992,6,0,L|301:158,2,62.5,0|0|8,3:0|3:0|0:0,0:0:0:0:
238,59,50659,1,0,0:0:0:0:
180,71,50881,2,0,L|113:83,2,62.5,0|0|8,3:0|3:0|0:0,0:0:0:0:
256,192,51770,12,4,53548,0:0:0:0:
338,311,55326,6,0,B|193:315,1,125,4|8,0:0|0:0,0:0:0:0:
94,318,56214,2,0,P|83:286|84:258,1,62.5,0|0,3:0|3:0,0:0:0:0:
95,199,56659,1,8,0:0:0:0:
153,95,57103,2,0,P|201:66|271:77,1,125,0|8,3:0|0:0,0:0:0:0:
377,119,57992,2,0,L|376:193,1,62.5,0|0,3:0|3:0,0:0:0:0:
375,241,58437,1,8,0:0:0:0:
294,328,58881,6,0,B|235:349|235:349|174:326,2,125,2|8|2,0:0|0:0|0:0,0:0:0:0:
236,224,60214,2,0,P|230:190|235:160,1,62.5,8|0,0:0|0:0,0:0:0:0:
256,107,60659,2,0,L|117:114,1,125,0|8,3:0|0:0,0:0:0:0:
62,210,61548,2,0,L|-4:213,2,62.5,0|0|8,3:0|3:0|0:0,0:0:0:0:
136,302,62437,6,0,B|280:309,1,125,4|8,0:0|0:0,0:0:0:0:
379,315,63325,2,0,P|390:283|389:255,1,62.5,0|0,3:0|3:0,0:0:0:0:
378,196,63770,1,8,0:0:0:0:
310,98,64214,2,0,P|262:127|192:116,1,125,0|8,3:0|0:0,0:0:0:0:
85,74,65103,2,0,L|84:148,1,62.5,0|0,3:0|3:0,0:0:0:0:
83,196,65548,1,8,0:0:0:0:
159,286,65992,5,0,3:0:0:0:
244,203,66437,1,8,0:0:0:0:
244,203,66659,1,0,3:0:0:0:
319,294,67103,1,0,3:0:0:0:
319,294,67326,2,0,L|382:294,1,62.5,8|0,0:0|0:0,0:0:0:0:
440,294,67770,5,0,3:0:0:0:
503,193,68214,1,8,0:0:0:0:
503,193,68437,2,0,B|444:174|444:174|376:193,1,125,0|0,3:0|3:0,0:0:0:0:
325,205,69103,2,0,L|301:147,1,62.5,8|0,0:0|0:0,0:0:0:0:
274,94,69548,6,0,B|215:114|215:114|146:95,1,125,4|8,0:0|0:0,0:0:0:0:
41,62,70436,2,0,P|30:94|31:122,1,62.5,0|0,3:0|3:0,0:0:0:0:
42,181,70881,1,8,0:0:0:0:
113,275,71325,2,0,P|173:279|222:224,1,125,0|8,3:0|0:0,0:0:0:0:
216,118,72214,2,0,L|277:106,1,62.5,0|0,3:0|3:0,0:0:0:0:
336,96,72659,1,8,0:0:0:0:
436,159,73103,6,0,B|436:293,2,125,2|8|2,0:0|0:0|0:0,0:0:0:0:
332,217,74436,2,0,P|301:212|260:196,1,62.5,8|0,0:0|0:0,0:0:0:0:
220,171,74881,2,0,L|229:297,1,125,0|8,3:0|0:0,0:0:0:0:
127,234,75770,2,0,P|94:224|59:224,1,62.5,0|0,3:0|3:0,0:0:0:0:
19,186,76214,2,0,L|11:106,1,62.5,8|0,0:0|3:0,0:0:0:0:
29,66,76659,6,0,B|92:56|92:56|166:79,1,125,4|8,0:0|0:0,0:0:0:0:
258,124,77548,2,0,L|329:115,1,62.5,0|0,3:0|3:0,0:0:0:0:
378,109,77992,1,8,0:0:0:0:
484,160,78437,2,0,P|505:220|469:290,1,125,0|8,3:0|0:0,0:0:0:0:
385,341,79326,2,0,L|310:346,1,62.5,0|0,3:0|3:0,0:0:0:0:
263,346,79770,1,8,0:0:0:0:
188,253,80214,6,0,L|113:245,2,62.5,4|0|8,0:0|3:0|0:0,0:0:0:0:
246,261,80881,2,0,B|283:146|202:179|250:75,1,187.5,4|8,0:0|0:0,0:0:0:0:
365,66,81992,6,0,L|388:7,2,62.5,0|0|8,3:0|3:0|0:0,0:0:0:0:
395,117,82659,2,0,B|413:177|413:177|388:242,1,125,4|0,0:0|0:0,0:0:0:0:
363,287,83326,2,0,L|300:278,1,62.5,8|0,0:0|0:0,0:0:0:0:
242,270,83770,6,0,P|202:318|131:313,1,125,4|8,0:0|0:0,0:0:0:0:
62,232,84659,2,0,L|57:164,1,62.5,0|0,3:0|3:0,0:0:0:0:
97,125,85103,2,0,L|102:57,1,62.5,8|0,0:0|3:0,0:0:0:0:
67,13,85548,5,4,0:0:0:0:
256,192,87103,12,0,89103,0:0:0:0:
