osu file format v14

[General]
AudioFilename: Yume e no Ippo.mp3
AudioLeadIn: 0
PreviewTime: 75599
Countdown: 0
SampleSet: Soft
StackLeniency: 0.7
Mode: 3
LetterboxInBreaks: 0
SpecialStyle: 0
WidescreenStoryboard: 1

[Editor]
Bookmarks: 14628,28746,40040,51334,62628,68275,73922,82393,88040,93687,113452
DistanceSpacing: 0.1
BeatDivisor: 4
GridSize: 4
TimelineZoom: 2

[Metadata]
Title:Yume e no Ippo
TitleUnicode:夢への一歩
Artist:Uehara Ayumu (CV: Onishi Aguri)
ArtistUnicode:上原歩夢 (CV: 大西亜玖璃)
Creator:Al-Reina
Version:Normal
Source:ラブライブ!スクールアイドルフェスティバル ALL STARS
Tags:Ainer cryochan Angki 虹ヶ咲学園スクールアイドル同好会 Nijigasaki High School Idol Club ニジガク NijiGaku Love Live! LLSIFAS LLAS SIFAS Perfect Dream Project PDP School Idol Festival フェスティバル オールスターズ スクスタ Japanese video game pop jpop J-pop アキラ サンセット Akira Sunset academy gakuen doukoukai dōkōkai TOKIMEKI Runners LACA-15770 菊池博人 Kikuchi Hiroto All Stars Allstars All-stars
BeatmapID:3022372
BeatmapSetID:1472399

[Difficulty]
HPDrainRate:7
CircleSize:4
OverallDifficulty:7
ApproachRate:5
SliderMultiplier:1.4
SliderTickRate:1

[Events]
//Background and Video events
0,0,"Ayumu.jpg",0,0
//Break Periods
//Storyboard Layer 0 (Background)
//Storyboard Layer 1 (Fail)
//Storyboard Layer 2 (Pass)
//Storyboard Layer 3 (Foreground)
//Storyboard Layer 4 (Overlay)
//Storyboard Sound Samples

[TimingPoints]
511,352.941176470588,4,2,1,50,1,0
76746,-100,4,2,1,50,0,1
102158,-100,4,2,1,50,0,0

[HitObjects]
320,192,511,5,0,0:0:0:0:
64,192,687,1,0,0:0:0:0:
192,192,863,1,0,0:0:0:0:
448,192,1040,1,0,0:0:0:0:
320,192,1216,1,0,0:0:0:0:
64,192,1393,1,0,0:0:0:0:
192,192,1569,1,0,0:0:0:0:
320,192,1746,1,0,0:0:0:0:
448,192,1922,128,0,3334:0:0:0:0:
192,192,3334,1,0,0:0:0:0:
64,192,3687,1,0,0:0:0:0:
448,192,4040,1,0,0:0:0:0:
64,192,4393,1,0,0:0:0:0:
320,192,4746,1,0,0:0:0:0:
192,192,5099,1,0,0:0:0:0:
448,192,5452,1,0,0:0:0:0:
192,192,5805,1,0,0:0:0:0:
320,192,6158,1,0,0:0:0:0:
64,192,6510,1,0,0:0:0:0:
448,192,6863,1,0,0:0:0:0:
64,192,7216,1,0,0:0:0:0:
192,192,7569,1,0,0:0:0:0:
64,192,7922,1,0,0:0:0:0:
320,192,8099,1,0,0:0:0:0:
192,192,8275,1,0,0:0:0:0:
448,192,8452,1,0,0:0:0:0:
192,192,8628,1,0,0:0:0:0:
64,192,8981,1,0,0:0:0:0:
192,192,9334,1,0,0:0:0:0:
448,192,9687,1,0,0:0:0:0:
192,192,10040,1,0,0:0:0:0:
320,192,10393,1,0,0:0:0:0:
64,192,10746,1,0,0:0:0:0:
448,192,11099,1,0,0:0:0:0:
64,192,11452,1,0,0:0:0:0:
320,192,11805,1,0,0:0:0:0:
192,192,12158,1,0,0:0:0:0:
448,192,12510,1,0,0:0:0:0:
192,192,12863,1,0,0:0:0:0:
448,192,13040,1,0,0:0:0:0:
320,192,13216,1,0,0:0:0:0:
64,192,13569,1,0,0:0:0:0:
192,192,13922,1,0,0:0:0:0:
320,192,14275,1,0,0:0:0:0:
448,192,14628,128,0,15069:0:0:0:0:
64,192,15334,128,0,15687:0:0:0:0:
192,192,15687,1,0,0:0:0:0:
320,192,15863,128,0,16393:0:0:0:0:
192,192,16393,128,0,16746:0:0:0:0:
448,192,16746,128,0,17099:0:0:0:0:
320,192,17099,128,0,17452:0:0:0:0:
192,192,17452,128,0,18158:0:0:0:0:
448,192,18158,1,0,0:0:0:0:
64,192,18334,128,0,18687:0:0:0:0:
320,192,18687,128,0,19040:0:0:0:0:
192,192,19040,1,0,0:0:0:0:
448,192,19216,128,0,19569:0:0:0:0:
64,192,19922,128,0,20275:0:0:0:0:
448,192,20275,128,0,20628:0:0:0:0:
192,192,20628,1,0,0:0:0:0:
64,192,20805,128,0,20981:0:0:0:0:
320,192,21158,128,0,21510:0:0:0:0:
64,192,21510,128,0,22040:0:0:0:0:
448,192,22040,1,0,0:0:0:0:
320,192,22216,128,0,22393:0:0:0:0:
192,192,22569,128,0,22922:0:0:0:0:
320,192,22922,128,0,23452:0:0:0:0:
64,192,23452,1,0,0:0:0:0:
192,192,23628,128,0,23805:0:0:0:0:
448,192,23981,128,0,24334:0:0:0:0:
320,192,24334,128,0,24687:0:0:0:0:
64,192,24863,128,0,25216:0:0:0:0:
192,192,25216,128,0,25569:0:0:0:0:
320,192,25569,128,0,25922:0:0:0:0:
448,192,25922,128,0,26805:0:0:0:0:
320,192,26805,128,0,26981:0:0:0:0:
192,192,26981,128,0,27158:0:0:0:0:
64,192,27158,128,0,28746:0:0:0:0:
192,192,28746,1,4,0:0:0:0:
448,192,28746,1,2,0:0:0:0:
192,192,29275,1,0,0:0:0:0:
64,192,29452,1,0,0:0:0:0:
448,192,29805,1,0,0:0:0:0:
64,192,30158,1,2,0:0:0:0:
320,192,30158,1,4,0:0:0:0:
448,192,30510,1,0,0:0:0:0:
192,192,30863,1,0,0:0:0:0:
320,192,31216,1,0,0:0:0:50:Tom2.wav
64,192,31569,1,4,0:0:0:0:
448,192,31569,1,2,0:0:0:0:
192,192,31922,1,0,0:0:0:0:
448,192,32099,1,0,0:0:0:0:
192,192,32452,1,8,0:0:0:0:
448,192,32452,1,0,0:0:0:50:Tom1.wav
64,192,32628,1,8,0:0:0:0:
320,192,32628,1,0,0:0:0:50:Tom2.wav
192,192,32805,1,0,0:0:0:0:
320,192,32981,128,4,33334:0:0:0:0:
448,192,32981,1,2,0:0:0:0:
192,192,33334,1,8,0:0:0:0:
64,192,33510,1,2,0:0:0:0:
448,192,33510,128,4,33863:0:0:0:0:
64,192,33863,1,0,0:0:0:50:Tom2.wav
192,192,34040,1,0,0:0:0:50:Tom2.wav
320,192,34216,1,2,0:0:0:0:
64,192,34393,128,2,34746:0:0:0:0:
448,192,34393,1,4,0:0:0:0:
448,192,34746,128,2,34922:0:0:0:0:
192,192,35099,128,2,35275:0:0:0:0:
64,192,35275,128,0,35452:0:0:0:0:
320,192,35452,1,2,0:0:0:0:
448,192,35628,128,0,35981:0:0:0:0:
64,192,35805,1,2,0:0:0:0:
320,192,35981,1,0,0:0:0:0:
192,192,36158,1,2,0:0:0:0:
64,192,36334,1,0,0:0:0:0:
448,192,36510,1,2,0:0:0:0:
192,192,36687,1,2,0:0:0:0:
320,192,36863,1,2,0:0:0:0:
448,192,37040,1,2,0:0:0:0:
64,192,37216,1,2,0:0:0:0:
192,192,37216,128,4,38452:0:0:0:0:
448,192,37569,1,8,0:0:0:0:
64,192,37922,1,2,0:0:0:0:
320,192,38099,1,2,0:0:0:0:
448,192,38275,1,8,0:0:0:0:
64,192,38452,128,2,39158:0:0:0:0:
320,192,38452,1,0,0:0:0:0:
448,192,38805,1,2,0:0:0:0:
320,192,38981,1,8,0:0:0:0:
192,192,39158,1,2,0:0:0:0:
448,192,39158,128,0,39510:0:0:0:0:
320,192,39510,128,8,39687:0:0:0:0:
192,192,39687,128,2,39863:0:0:0:0:
64,192,39863,128,8,40040:0:0:0:0:
320,192,40040,1,2,0:0:0:0:
448,192,40040,1,4,0:0:0:0:
64,192,40393,128,0,40746:0:0:0:0:
448,192,40746,1,0,0:0:0:0:
192,192,40922,128,0,41275:0:0:0:0:
320,192,41275,128,0,41805:0:0:0:0:
448,192,41805,128,0,42158:0:0:0:0:
192,192,42158,128,0,42510:0:0:0:0:
320,192,42510,128,0,42863:0:0:0:0:
64,192,42863,128,2,43393:0:0:0:0:
192,192,43393,128,0,43746:0:0:0:0:
448,192,43746,128,0,44099:0:0:0:0:
64,192,44099,128,0,44628:0:0:0:0:
320,192,44628,1,0,0:0:0:0:
320,192,44805,128,0,44981:0:0:0:0:
192,192,45158,1,2,0:0:0:0:
320,192,45510,1,2,0:0:0:0:
64,192,45687,1,2,0:0:0:0:
448,192,46040,128,0,46393:0:0:0:0:
64,192,46393,1,0,0:0:0:0:
320,192,46569,128,0,46922:0:0:0:0:
192,192,46922,128,0,47452:0:0:0:0:
64,192,47452,128,0,47805:0:0:0:0:
320,192,47805,128,0,48158:0:0:0:0:
192,192,48158,128,0,48510:0:0:0:0:
448,192,48510,128,2,49040:0:0:0:0:
320,192,49040,128,0,49393:0:0:0:0:
64,192,49393,1,0,0:0:0:0:
448,192,49569,1,0,0:0:0:0:
192,192,49746,128,2,50099:0:0:0:0:
320,192,49746,1,0,0:0:0:0:
64,192,50099,1,2,0:0:0:0:
320,192,50275,1,8,0:0:0:0:
448,192,50275,1,0,0:0:0:0:
192,192,50452,1,2,0:0:0:0:
448,192,50628,1,2,0:0:0:0:
64,192,50805,128,0,50981:0:0:0:0:
192,192,50981,128,8,51158:0:0:0:0:
320,192,51158,128,0,51334:0:0:0:0:
64,192,51334,1,2,0:0:0:0:
448,192,51334,128,4,51510:0:0:0:0:
320,192,51687,1,8,0:0:0:0:
448,192,51687,1,0,0:0:0:0:
192,192,52040,1,2,0:0:0:0:
320,192,52216,1,2,0:0:0:0:
64,192,52393,1,8,0:0:0:0:
448,192,52393,1,0,0:0:0:0:
320,192,52746,1,2,0:0:0:0:
64,192,53099,1,8,0:0:0:0:
192,192,53099,1,0,0:0:0:0:
448,192,53452,1,2,0:0:0:0:
192,192,53628,1,2,0:0:0:0:
64,192,53805,1,8,0:0:0:0:
320,192,53805,1,0,0:0:0:0:
192,192,54158,1,2,0:0:0:0:
320,192,54510,1,8,0:0:0:0:
448,192,54510,1,0,0:0:0:0:
64,192,54863,1,2,0:0:0:0:
448,192,55040,1,2,0:0:0:0:
192,192,55216,1,8,0:0:0:0:
320,192,55216,1,0,0:0:0:0:
64,192,55393,1,2,0:0:0:0:
320,192,55746,1,2,0:0:0:0:
64,192,55922,1,8,0:0:0:0:
448,192,55922,1,0,0:0:0:0:
192,192,56275,1,2,0:0:0:0:
448,192,56452,1,2,0:0:0:0:
64,192,56628,1,8,0:0:0:0:
320,192,56628,1,0,0:0:0:0:
192,192,56981,1,2,0:0:0:0:
320,192,56981,1,4,0:0:0:0:
64,192,57334,1,8,0:0:0:0:
192,192,57334,1,0,0:0:0:0:
320,192,57687,1,2,0:0:0:0:
64,192,57863,1,2,0:0:0:0:
192,192,58040,1,8,0:0:0:0:
448,192,58040,1,0,0:0:0:0:
64,192,58393,1,2,0:0:0:0:
320,192,58746,1,8,0:0:0:0:
448,192,58746,1,0,0:0:0:0:
192,192,59099,1,2,0:0:0:0:
320,192,59275,1,2,0:0:0:0:
64,192,59452,1,8,0:0:0:0:
448,192,59452,1,0,0:0:0:0:
320,192,59805,1,2,0:0:0:0:
64,192,60158,1,8,0:0:0:0:
192,192,60158,1,0,0:0:0:0:
448,192,60510,1,2,0:0:0:0:
192,192,60687,1,2,0:0:0:0:
64,192,60863,1,8,0:0:0:0:
320,192,60863,1,0,0:0:0:0:
192,192,61216,1,2,0:0:0:0:
192,192,61393,1,2,0:0:0:0:
320,192,61569,1,8,0:0:0:0:
320,192,61746,1,0,0:0:0:0:
448,192,61922,1,8,0:0:0:0:
448,192,62099,1,0,0:0:0:50:Tom1.wav
320,192,62275,1,0,0:0:0:50:Tom2.wav
192,192,62452,1,0,0:0:0:50:Tom3.wav
64,192,62628,1,2,0:0:0:0:
448,192,62628,1,4,0:0:0:0:
320,192,63158,1,2,0:0:0:0:
192,192,63334,1,2,0:0:0:0:
64,192,63687,1,8,0:0:0:0:
192,192,63687,1,0,0:0:0:0:
448,192,64040,1,2,0:0:0:0:
192,192,64569,1,2,0:0:0:0:
320,192,64746,1,2,0:0:0:0:
64,192,65099,1,8,0:0:0:0:
320,192,65099,1,0,0:0:0:0:
448,192,65452,1,2,0:0:0:0:
320,192,65981,1,2,0:0:0:0:
64,192,66158,1,2,0:0:0:0:
64,192,66510,1,8,0:0:0:0:
192,192,66510,1,0,0:0:0:0:
320,192,66687,1,2,0:0:0:0:
64,192,67040,1,2,0:0:0:0:
192,192,67216,1,8,0:0:0:0:
448,192,67216,1,0,0:0:0:0:
320,192,67393,128,2,67746:0:0:0:0:
64,192,67569,1,2,0:0:0:0:
64,192,67922,1,8,0:0:0:0:
448,192,67922,1,0,0:0:0:0:
192,192,68275,1,4,0:0:0:0:
448,192,68275,1,2,0:0:0:0:
64,192,68628,1,8,0:0:0:0:
192,192,68628,1,0,0:0:0:0:
320,192,68981,1,2,0:0:0:0:
448,192,69158,1,2,0:0:0:0:
64,192,69334,128,8,69687:0:0:0:0:
192,192,69334,1,0,0:0:0:0:
448,192,69687,1,2,0:0:0:0:
64,192,70040,1,8,0:0:0:0:
192,192,70040,1,0,0:0:0:0:
320,192,70393,1,2,0:0:0:0:
192,192,70569,1,2,0:0:0:0:
64,192,70746,1,8,0:0:0:0:
448,192,70746,128,0,71099:0:0:0:0:
192,192,71099,1,2,0:0:0:0:
320,192,71099,1,4,0:0:0:0:
320,192,71452,1,8,0:0:0:0:
448,192,71452,1,0,0:0:0:0:
64,192,71805,128,2,71981:0:0:0:0:
448,192,71981,128,2,72158:0:0:0:0:
64,192,72158,1,8,0:0:0:0:
192,192,72158,1,0,0:0:0:0:
64,192,72510,1,8,0:0:0:0:
320,192,72510,1,0,0:0:0:0:
448,192,72775,1,2,0:0:0:0:
192,192,72863,1,8,0:0:0:0:
320,192,72863,1,0,0:0:0:0:
64,192,73040,1,2,0:0:0:0:
320,192,73216,1,8,0:0:0:0:
448,192,73216,1,0,0:0:0:0:
64,192,73481,1,2,0:0:0:0:
192,192,73569,1,8,0:0:0:0:
320,192,73569,1,0,0:0:0:0:
448,192,73746,1,2,0:0:0:0:
64,192,74099,1,8,0:0:0:0:
192,192,74099,1,0,0:0:0:0:
64,192,74275,1,8,0:0:0:0:
192,192,74275,1,0,0:0:0:0:
320,192,74628,1,8,0:0:0:0:
448,192,74628,1,0,0:0:0:0:
320,192,74805,1,8,0:0:0:0:
448,192,74805,1,0,0:0:0:0:
192,192,75158,1,8,0:0:0:0:
320,192,75158,1,0,0:0:0:0:
64,192,75510,1,8,0:0:0:0:
448,192,75510,1,0,0:0:0:0:
64,192,75687,128,8,76040:0:0:0:0:
448,192,75687,1,0,0:0:0:0:
192,192,76040,128,0,76393:0:0:0:0:
320,192,76393,128,0,76746:0:0:0:0:
64,192,76746,1,4,0:0:0:0:
448,192,76746,128,2,77099:0:0:0:0:
64,192,77099,1,8,0:0:0:0:
192,192,77099,1,0,0:0:0:0:
192,192,77452,128,2,77805:0:0:0:0:
448,192,77628,1,2,0:0:0:0:
64,192,77805,1,8,0:0:0:0:
320,192,77805,1,0,0:0:0:0:
320,192,77981,128,0,78510:0:0:0:0:
192,192,78158,1,2,0:0:0:0:
64,192,78510,128,8,78863:0:0:0:0:
448,192,78510,1,0,0:0:0:0:
448,192,78863,128,2,79216:0:0:0:0:
192,192,79040,1,2,0:0:0:0:
64,192,79216,1,8,0:0:0:0:
320,192,79216,1,0,0:0:0:0:
64,192,79569,128,2,80275:0:0:0:0:
320,192,79922,1,8,0:0:0:0:
448,192,80275,128,2,80628:0:0:0:0:
192,192,80452,1,2,0:0:0:0:
64,192,80628,1,8,0:0:0:0:
320,192,80628,1,0,0:0:0:0:
192,192,80805,128,2,81334:0:0:0:0:
64,192,81158,1,2,0:0:0:0:
320,192,81334,1,8,0:0:0:0:
448,192,81334,1,0,0:0:0:0:
448,192,81687,128,2,82040:0:0:0:0:
64,192,81863,1,2,0:0:0:0:
192,192,82040,1,8,0:0:0:0:
320,192,82040,128,0,82216:0:0:0:0:
64,192,82393,128,2,82746:0:0:0:0:
448,192,82393,1,4,0:0:0:0:
320,192,82746,1,8,0:0:0:0:
448,192,82746,1,0,0:0:0:0:
192,192,83099,128,2,83452:0:0:0:0:
320,192,83275,1,2,0:0:0:0:
64,192,83452,128,8,83805:0:0:0:0:
448,192,83452,1,0,0:0:0:0:
320,192,83805,128,2,84158:0:0:0:0:
64,192,84158,1,8,0:0:0:0:
192,192,84158,128,0,84510:0:0:0:0:
448,192,84510,128,2,84863:0:0:0:0:
64,192,84687,1,2,0:0:0:0:
192,192,84863,1,8,0:0:0:0:
320,192,84863,128,0,85216:0:0:0:0:
64,192,85216,128,2,85569:0:0:0:0:
192,192,85569,128,8,85922:0:0:0:0:
320,192,85569,1,0,0:0:0:0:
448,192,85922,128,2,86275:0:0:0:0:
320,192,86099,1,2,0:0:0:0:
64,192,86275,1,8,0:0:0:0:
192,192,86275,1,0,0:0:0:0:
320,192,86452,128,2,86805:0:0:0:0:
448,192,86452,1,4,0:0:0:0:
192,192,86805,1,2,0:0:0:0:
64,192,86981,128,8,87158:0:0:0:0:
448,192,86981,1,0,0:0:0:0:
320,192,87158,1,2,0:0:0:0:
192,192,87334,1,8,0:0:0:0:
448,192,87334,128,0,87510:0:0:0:0:
64,192,87687,128,2,87863:0:0:0:0:
320,192,87687,1,0,0:0:0:0:
192,192,88040,1,2,0:0:0:0:
448,192,88040,128,0,88393:0:0:0:0:
64,192,88393,1,8,0:0:0:0:
320,192,88393,1,4,0:0:0:0:
64,192,88746,128,2,89099:0:0:0:0:
320,192,88922,1,2,0:0:0:0:
192,192,89099,1,8,0:0:0:0:
448,192,89099,1,0,0:0:0:0:
448,192,89275,128,0,89805:0:0:0:0:
64,192,89452,1,2,0:0:0:0:
64,192,89805,128,8,90158:0:0:0:0:
320,192,89805,1,0,0:0:0:0:
320,192,90158,128,2,90510:0:0:0:0:
64,192,90334,1,2,0:0:0:0:
192,192,90510,128,8,90863:0:0:0:0:
448,192,90510,1,0,0:0:0:0:
64,192,90863,128,2,91216:0:0:0:0:
320,192,91216,1,8,0:0:0:0:
448,192,91216,1,0,0:0:0:0:
192,192,91569,1,2,0:0:0:0:
320,192,91746,128,2,92099:0:0:0:0:
64,192,91922,1,8,0:0:0:0:
192,192,92099,128,2,92452:0:0:0:0:
448,192,92099,1,4,0:0:0:0:
320,192,92452,1,2,0:0:0:0:
64,192,92628,1,8,0:0:0:0:
448,192,92628,128,0,92981:0:0:0:0:
320,192,92981,1,2,0:0:0:0:
192,192,93158,1,2,0:0:0:0:
64,192,93334,128,8,93687:0:0:0:0:
448,192,93334,1,0,0:0:0:0:
192,192,93687,128,2,94040:0:0:0:0:
320,192,93687,1,0,0:0:0:0:
64,192,94040,1,4,0:0:0:0:
448,192,94040,1,8,0:0:0:0:
448,192,94216,128,0,94393:0:0:0:0:
192,192,94393,1,2,0:0:0:0:
320,192,94569,1,2,0:0:0:0:
64,192,94746,1,8,0:0:0:0:
448,192,94746,1,0,0:0:0:0:
192,192,94922,1,2,0:0:0:0:
320,192,94922,128,4,95452:0:0:0:0:
64,192,95275,1,2,0:0:0:0:
192,192,95452,1,8,0:0:0:0:
448,192,95452,1,0,0:0:0:0:
192,192,95628,128,2,95805:0:0:0:0:
320,192,95628,1,4,0:0:0:0:
64,192,95981,1,2,0:0:0:0:
192,192,96158,1,8,0:0:0:0:
448,192,96158,1,0,0:0:0:0:
64,192,96334,128,2,96687:0:0:0:0:
320,192,96334,1,4,0:0:0:0:
448,192,96687,1,2,0:0:0:0:
192,192,96863,1,8,0:0:0:0:
320,192,96863,1,0,0:0:0:0:
320,192,97040,128,0,97216:0:0:0:0:
64,192,97216,1,2,0:0:0:0:
448,192,97393,1,2,0:0:0:0:
64,192,97569,1,8,0:0:0:0:
320,192,97569,1,0,0:0:0:0:
192,192,97746,128,2,98099:0:0:0:0:
448,192,98099,1,2,0:0:0:0:
64,192,98275,1,8,0:0:0:0:
320,192,98275,128,0,98628:0:0:0:0:
192,192,98628,128,2,98981:0:0:0:0:
448,192,98805,1,2,0:0:0:0:
64,192,98981,128,8,99334:0:0:0:0:
320,192,98981,1,0,0:0:0:0:
448,192,99334,128,2,100040:0:0:0:0:
192,192,99510,1,2,0:0:0:0:
64,192,99687,1,8,0:0:0:0:
320,192,99863,1,0,0:0:0:0:
64,192,100040,1,8,0:0:0:0:
192,192,100040,1,0,0:0:0:0:
320,192,100216,128,2,100393:0:0:0:0:
64,192,100569,128,4,101099:0:0:0:0:
448,192,100569,1,2,0:0:0:0:
448,192,100922,1,2,0:0:0:0:
192,192,101099,1,8,0:0:0:0:
320,192,101099,128,0,101452:0:0:0:0:
64,192,101275,1,2,0:0:0:0:
192,192,101452,1,8,0:0:0:0:
448,192,101452,128,0,101805:0:0:0:0:
64,192,101628,1,2,0:0:0:0:
192,192,101805,128,8,102158:0:0:0:0:
320,192,101805,1,0,0:0:0:0:
448,192,101981,1,2,0:0:0:0:
64,192,102158,128,4,102510:0:0:0:0:
320,192,102158,1,0,0:0:0:0:
192,192,102510,1,8,0:0:0:0:
320,192,102510,1,0,0:0:0:0:
192,192,102863,128,2,103040:0:0:0:0:
448,192,103040,1,2,0:0:0:0:
64,192,103216,1,8,0:0:0:0:
192,192,103216,128,0,103393:0:0:0:0:
320,192,103393,128,0,103746:0:0:0:0:
64,192,103569,1,2,0:0:0:0:
192,192,103922,1,8,0:0:0:0:
448,192,103922,128,0,104275:0:0:0:0:
64,192,104275,128,2,104628:0:0:0:0:
320,192,104452,1,2,0:0:0:0:
192,192,104628,128,8,104981:0:0:0:0:
448,192,104628,1,0,0:0:0:0:
64,192,104981,1,2,0:0:0:0:
320,192,104981,128,0,105334:0:0:0:0:
192,192,105334,128,8,105510:0:0:0:0:
448,192,105334,1,0,0:0:0:0:
192,192,105687,128,2,106040:0:0:0:0:
448,192,105863,1,2,0:0:0:0:
64,192,106040,1,8,0:0:0:0:
320,192,106040,1,0,0:0:0:0:
448,192,106216,128,2,106746:0:0:0:0:
64,192,106569,1,2,0:0:0:0:
192,192,106746,1,8,0:0:0:0:
320,192,106746,1,0,0:0:0:0:
320,192,107099,128,2,107452:0:0:0:0:
64,192,107275,1,2,0:0:0:0:
192,192,107452,128,8,107805:0:0:0:0:
448,192,107452,1,0,0:0:0:0:
64,192,107805,128,2,108158:0:0:0:0:
320,192,107805,1,4,0:0:0:0:
320,192,108158,1,8,0:0:0:0:
448,192,108158,1,0,0:0:0:0:
192,192,108510,1,2,0:0:0:0:
320,192,108687,1,2,0:0:0:0:
192,192,108863,1,8,0:0:0:0:
448,192,108863,1,0,0:0:0:0:
64,192,109040,128,2,109393:0:0:0:0:
320,192,109040,1,4,0:0:0:0:
192,192,109393,1,2,0:0:0:0:
64,192,109569,1,8,0:0:0:0:
320,192,109569,1,0,0:0:0:0:
192,192,109746,1,2,0:0:0:0:
448,192,109746,128,4,110099:0:0:0:0:
64,192,110099,1,2,0:0:0:0:
192,192,110275,1,8,0:0:0:0:
320,192,110452,1,2,0:0:0:0:
192,192,110628,1,8,0:0:0:0:
448,192,110628,1,4,0:0:0:0:
64,192,110893,1,2,0:0:0:0:
192,192,110981,1,8,0:0:0:0:
320,192,110981,1,0,0:0:0:0:
448,192,111158,1,2,0:0:0:0:
64,192,111334,1,8,0:0:0:0:
320,192,111334,1,0,0:0:0:0:
192,192,111510,1,2,0:0:0:0:
320,192,111687,1,8,0:0:0:0:
448,192,111687,1,0,0:0:0:0:
64,192,111863,128,2,112746:0:0:0:0:
320,192,112216,1,2,0:0:0:0:
448,192,112393,1,2,0:0:0:0:
192,192,112569,1,2,0:0:0:0:
320,192,112746,1,2,0:0:0:0:
320,192,112922,1,8,0:0:0:0:
192,192,113099,1,8,0:0:0:0:
192,192,113275,1,8,0:0:0:0:
64,192,113452,1,2,0:0:0:0:
448,192,113452,128,4,115922:0:0:0:0:
320,192,113805,1,0,0:0:0:0:
64,192,114510,1,0,0:0:0:0:
192,192,115216,1,0,0:0:0:0:
320,192,115922,1,0,0:0:0:0:
192,192,116099,1,2,0:0:0:0:
448,192,116275,128,2,118569:0:0:0:0:
64,192,116275,1,4,0:0:0:0:
320,192,116628,1,0,0:0:0:0:
64,192,117334,1,0,0:0:0:0:
192,192,118040,1,0,0:0:0:0:
64,192,118569,1,2,0:0:0:0:
64,192,118746,1,2,0:0:0:0:
192,192,118922,128,8,119099:0:0:0:0:
320,192,118922,128,0,119099:0:0:0:0:
