osu file format v14

[General]
AudioFilename: audio.mp3
AudioLeadIn: 0
PreviewTime: 77318
Countdown: 0
SampleSet: Soft
StackLeniency: 0.7
Mode: 3
LetterboxInBreaks: 0
SpecialStyle: 0
WidescreenStoryboard: 1

[Editor]
DistanceSpacing: 0.1
BeatDivisor: 4
GridSize: 32
TimelineZoom: 1.5

[Metadata]
Title:Kaika Sengen
TitleUnicode:開花宣言
Artist:Uehara Ayumu (CV: Onishi Aguri)
ArtistUnicode:上原歩夢 (CV: 大西亜玖璃)
Creator:Raisky757
Version:Flower
Source:ラブライブ!スクールアイドルフェスティバル ALL STARS
Tags:Forthnos us -- HONOKA -- 虹ヶ咲学園スクールアイドル同好会 love live! lovelive! Nijigasaki High School Idol Club ニジガク NijiGaku Ōnishi Oonishi Ohnishi llsif llas sifas perfect dream project pdp school idol festival フェスティバル オールスターズ スクスタ Love U my friends japanese pop jpop j-pop アキラ サンセット Akira Sunset 遠藤ナオキ Naoki Endō Endou anime video game academy gakuen doukoukai dōkōkai Blossoming Declaration
BeatmapID:2981552
BeatmapSetID:1274865

[Difficulty]
HPDrainRate:8
CircleSize:4
OverallDifficulty:8
ApproachRate:5
SliderMultiplier:1.4
SliderTickRate:1

[Events]
//Background and Video events
0,0,"bg.jpg",0,0
//Break Periods
//Storyboard Layer 0 (Background)
//Storyboard Layer 1 (Fail)
//Storyboard Layer 2 (Pass)
//Storyboard Layer 3 (Foreground)
//Storyboard Layer 4 (Overlay)
//Storyboard Sound Samples
Sample,50985,0,"HHOpen.wav",70
Sample,57207,0,"tom1.wav",70

[TimingPoints]
1874,444.444444444444,4,2,1,90,1,0
78318,-100,4,2,1,90,0,1
99651,-100,4,2,1,90,0,0

[HitObjects]
320,192,1799,5,0,0:0:0:0:
192,192,1836,1,0,0:0:0:0:
64,192,1874,1,0,0:0:0:0:
448,192,1874,128,0,2096:0:0:0:0:
320,192,2096,128,0,2318:0:0:0:0:
192,192,2318,128,0,2540:0:0:0:0:
64,192,2540,128,0,2762:0:0:0:0:
448,192,2540,1,0,0:0:0:0:
320,192,2762,128,0,2985:0:0:0:0:
192,192,2985,128,0,3207:0:0:0:0:
320,192,3207,128,0,3429:0:0:0:0:
64,192,3207,1,0,0:0:0:0:
448,192,3429,128,0,3651:0:0:0:0:
192,192,3651,128,0,3873:0:0:0:70:HHOpen.wav
320,192,3873,128,0,4096:0:0:0:0:
64,192,4096,128,0,4318:0:0:0:70:HHOpen.wav
448,192,4096,1,0,0:0:0:0:
192,192,4318,128,0,4540:0:0:0:0:
448,192,4540,1,8,0:0:0:0:
320,192,4540,1,0,0:0:0:0:
64,192,4651,1,8,0:0:0:0:
192,192,4651,1,0,0:0:0:0:
320,192,4762,1,0,0:0:0:70:tom2.wav
64,192,4873,1,0,0:0:0:70:tom2.wav
448,192,4873,1,0,0:0:0:0:
192,192,4985,1,0,0:0:0:70:tom3.wav
320,192,5096,1,0,0:0:0:70:tom3.wav
448,192,5096,1,0,0:0:0:0:
64,192,5207,128,0,5429:0:0:0:70:tom4.wav
192,192,5207,1,0,0:0:0:0:
192,192,5429,1,2,0:0:0:0:
320,192,5429,128,4,5873:0:0:0:0:
448,192,5429,1,0,0:0:0:0:
192,192,5873,1,0,0:0:0:70:HHOpen.wav
448,192,6096,128,0,6318:0:0:0:0:
320,192,6318,128,0,6762:0:0:0:0:
64,192,6762,128,0,6985:0:0:0:70:HHOpen.wav
192,192,6985,128,0,7207:0:0:0:0:
64,192,7207,1,2,0:0:0:0:
320,192,7207,1,4,0:0:0:0:
448,192,7207,128,0,7651:0:0:0:0:
64,192,7651,1,0,0:0:0:70:HHOpen.wav
320,192,7873,1,0,0:0:0:0:
448,192,8022,1,0,0:0:0:0:
64,192,8096,1,8,0:0:0:0:
192,192,8096,1,0,0:0:0:0:
320,192,8318,1,0,0:0:0:70:tom2.wav
448,192,8318,1,0,0:0:0:0:
64,192,8540,1,0,0:0:0:70:tom4.wav
320,192,8540,1,0,0:0:0:0:
448,192,8762,1,0,0:0:0:0:
192,192,8985,1,2,0:0:0:0:
320,192,8985,1,4,0:0:0:0:
448,192,8985,128,0,9429:0:0:0:0:
192,192,9429,128,0,9651:0:0:0:70:HHOpen.wav
320,192,9651,128,0,10096:0:0:0:0:
64,192,10096,128,0,10318:0:0:0:0:
448,192,10318,1,0,0:0:0:70:HHOpen.wav
320,192,10540,128,0,10762:0:0:0:0:
64,192,10762,1,4,0:0:0:0:
192,192,10762,1,2,0:0:0:0:
448,192,10762,1,0,0:0:0:0:
448,192,10985,128,0,11207:0:0:0:0:
192,192,11207,1,0,0:0:0:70:HHOpen.wav
64,192,11429,128,0,11651:0:0:0:0:
192,192,11651,1,0,0:0:0:70:tom3.wav
320,192,11651,1,0,0:0:0:0:
448,192,11873,1,8,0:0:0:0:
320,192,11948,1,8,0:0:0:0:
64,192,12022,1,8,0:0:0:0:
192,192,12022,1,0,0:0:0:0:
320,192,12096,1,8,0:0:0:0:
448,192,12096,1,0,0:0:0:0:
64,192,12207,1,8,0:0:0:0:
192,192,12207,1,0,0:0:0:0:
320,192,12318,1,0,0:0:0:70:tom3.wav
448,192,12318,128,0,12540:0:0:0:0:
64,192,12540,128,2,12985:0:0:0:0:
192,192,12540,1,4,0:0:0:0:
320,192,12540,1,0,0:0:0:0:
448,192,12985,1,0,0:0:0:70:HHOpen.wav
320,192,13207,128,0,13429:0:0:0:0:
64,192,13429,1,2,0:0:0:0:
192,192,13429,1,0,0:0:0:0:
448,192,13651,128,0,13873:0:0:0:0:
320,192,13873,1,0,0:0:0:70:HHOpen.wav
192,192,14096,128,0,14318:0:0:0:0:
64,192,14318,1,2,0:0:0:0:
448,192,14318,1,0,0:0:0:0:
320,192,14540,128,0,14762:0:0:0:0:
192,192,14762,1,0,0:0:0:70:HHOpen.wav
64,192,14985,128,0,15207:0:0:0:0:
320,192,15207,1,2,0:0:0:0:
448,192,15207,1,0,0:0:0:0:
64,192,15429,1,8,0:0:0:0:
192,192,15503,1,8,0:0:0:0:
448,192,15577,1,0,0:0:0:0:
320,192,15577,1,8,0:0:0:0:
64,192,15651,1,2,0:0:0:0:
192,192,15651,1,8,0:0:0:0:
320,192,15762,1,8,0:0:0:0:
448,192,15762,1,0,0:0:0:0:
64,192,15873,1,0,0:0:0:70:tom1.wav
192,192,15873,128,0,16096:0:0:0:0:
64,192,16096,1,2,0:0:0:0:
320,192,16096,1,4,0:0:0:0:
448,192,16096,128,0,16540:0:0:0:0:
64,192,16540,1,8,0:0:0:0:
192,192,16540,1,0,0:0:0:0:
320,192,16596,1,8,0:0:0:0:
64,192,16762,1,2,0:0:0:0:
448,192,16762,128,0,16985:0:0:0:70:HHOpen.wav
192,192,17207,1,2,0:0:0:0:
320,192,17207,128,0,17429:0:0:0:70:HHOpen.wav
64,192,17651,128,2,18318:0:0:0:0:
192,192,17651,1,4,0:0:0:0:
448,192,17651,1,0,0:0:0:0:
192,192,18318,1,0,0:0:0:70:HHOpen.wav
448,192,18540,128,0,18762:0:0:0:0:
64,192,18762,1,0,0:0:0:70:HHOpen.wav
192,192,18985,1,2,0:0:0:0:
320,192,18985,1,0,0:0:0:0:
64,192,19207,1,8,0:0:0:0:
320,192,19207,1,4,0:0:0:0:
448,192,19207,1,0,0:0:0:0:
64,192,19429,1,8,0:0:0:0:
192,192,19429,1,0,0:0:0:0:
320,192,19540,1,8,0:0:0:0:
448,192,19540,1,0,0:0:0:0:
64,192,19651,1,2,0:0:0:0:
192,192,19651,1,4,0:0:0:0:
448,192,19651,1,0,0:0:0:0:
192,192,19873,1,0,0:0:0:70:HHOpen.wav
64,192,20096,1,2,0:0:0:0:
448,192,20096,1,8,0:0:0:0:
320,192,20318,1,0,0:0:0:70:HHOpen.wav
448,192,20429,1,8,0:0:0:0:
64,192,20540,1,2,0:0:0:0:
192,192,20540,1,0,0:0:0:0:
320,192,20651,1,8,0:0:0:0:
448,192,20651,1,0,0:0:0:0:
64,192,20762,1,0,0:0:0:70:HHOpen.wav
192,192,20985,1,8,0:0:0:0:
320,192,20985,1,2,0:0:0:0:
320,192,21207,1,0,0:0:0:70:HHOpen.wav
448,192,21207,1,0,0:0:0:0:
192,192,21318,1,8,0:0:0:0:
64,192,21318,1,0,0:0:0:0:
320,192,21429,1,2,0:0:0:0:
448,192,21429,128,0,21651:0:0:0:0:
64,192,21651,128,0,21873:0:0:0:70:HHOpen.wav
320,192,21873,1,8,0:0:0:0:
448,192,21873,1,2,0:0:0:0:
192,192,22096,1,0,0:0:0:70:HHOpen.wav
64,192,22318,1,2,0:0:0:0:
448,192,22318,1,0,0:0:0:0:
320,192,22540,1,0,0:0:0:70:HHOpen.wav
192,192,22762,1,2,0:0:0:0:
448,192,22762,1,8,0:0:0:0:
64,192,22985,1,0,0:0:0:70:HHOpen.wav
192,192,23207,1,2,0:0:0:0:
448,192,23207,1,0,0:0:0:0:
320,192,23429,1,0,0:0:0:70:HHOpen.wav
64,192,23651,1,8,0:0:0:0:
448,192,23651,1,2,0:0:0:0:
320,192,23873,1,0,0:0:0:70:HHOpen.wav
64,192,24096,1,2,0:0:0:0:
192,192,24096,1,0,0:0:0:0:
320,192,24318,1,0,0:0:0:70:HHOpen.wav
64,192,24540,1,8,0:0:0:0:
448,192,24540,1,2,0:0:0:0:
192,192,24762,1,0,0:0:0:70:HHOpen.wav
320,192,24985,1,2,0:0:0:0:
448,192,24985,1,0,0:0:0:0:
64,192,25207,1,0,0:0:0:70:HHOpen.wav
192,192,25429,1,8,0:0:0:0:
320,192,25429,1,2,0:0:0:0:
448,192,25651,1,0,0:0:0:70:HHOpen.wav
64,192,25873,1,2,0:0:0:0:
192,192,25873,1,0,0:0:0:0:
320,192,26096,1,0,0:0:0:70:HHOpen.wav
64,192,26318,1,2,0:0:0:0:
192,192,26318,1,8,0:0:0:0:
320,192,26429,1,8,0:0:0:0:
448,192,26429,1,0,0:0:0:0:
64,192,26540,1,0,0:0:0:70:tom2.wav
192,192,26540,1,0,0:0:0:0:
320,192,26651,1,0,0:0:0:0:
64,192,26762,1,4,0:0:0:0:
192,192,26762,1,2,0:0:0:0:
448,192,26762,1,0,0:0:0:0:
320,192,26985,1,0,0:0:0:70:HHOpen.wav
64,192,27207,1,8,0:0:0:0:
192,192,27207,1,2,0:0:0:0:
192,192,27429,1,8,0:0:0:0:
320,192,27429,1,4,0:0:0:0:
448,192,27429,1,0,0:0:0:0:
64,192,27651,1,2,0:0:0:0:
192,192,27651,1,0,0:0:0:0:
320,192,27762,1,8,0:0:0:0:
448,192,27762,1,0,0:0:0:0:
64,192,27873,1,0,0:0:0:0:
320,192,28096,1,8,0:0:0:0:
448,192,28096,1,2,0:0:0:0:
192,192,28318,1,0,0:0:0:70:HHOpen.wav
64,192,28540,1,2,0:0:0:0:
192,192,28540,1,4,0:0:0:0:
448,192,28540,1,0,0:0:0:0:
320,192,28762,1,0,0:0:0:70:HHOpen.wav
64,192,28985,1,8,0:0:0:0:
448,192,28985,1,2,0:0:0:0:
192,192,29207,1,8,0:0:0:0:
320,192,29207,1,4,0:0:0:0:
448,192,29207,1,0,0:0:0:0:
64,192,29429,1,2,0:0:0:0:
320,192,29429,1,0,0:0:0:0:
448,192,29651,1,0,0:0:0:70:HHOpen.wav
64,192,29873,1,2,0:0:0:0:
192,192,29873,1,8,0:0:0:0:
448,192,30096,1,0,0:0:0:70:HHOpen.wav
192,192,30318,1,2,0:0:0:0:
320,192,30318,1,0,0:0:0:0:
64,192,30540,1,8,0:0:0:0:
448,192,30540,1,0,0:0:0:0:
192,192,30651,1,8,0:0:0:0:
320,192,30651,1,0,0:0:0:0:
64,192,30762,1,0,0:0:0:70:tom3.wav
448,192,30762,1,0,0:0:0:0:
64,192,30985,1,2,0:0:0:0:
320,192,30985,1,0,0:0:0:70:HHOpen.wav
448,192,30985,1,0,0:0:0:0:
64,192,31429,1,2,0:0:0:0:
320,192,31429,1,0,0:0:0:70:HHOpen.wav
448,192,31429,1,0,0:0:0:0:
64,192,31873,1,2,0:0:0:0:
192,192,31873,1,4,0:0:0:0:
320,192,31873,1,0,0:0:0:0:
64,192,32318,1,0,0:0:0:70:tom1.wav
192,192,32318,1,0,0:0:0:0:
320,192,32540,1,8,0:0:0:0:
448,192,32540,1,0,0:0:0:0:
64,192,32762,1,8,0:0:0:0:
192,192,32762,1,0,0:0:0:0:
320,192,32762,1,0,0:0:0:0:
192,192,32985,1,2,0:0:0:0:
320,192,32985,1,0,0:0:0:70:HHOpen.wav
448,192,32985,1,0,0:0:0:0:
448,192,33207,1,8,0:0:0:0:
64,192,33281,1,8,0:0:0:0:
192,192,33355,1,8,0:0:0:0:
320,192,33429,1,2,0:0:0:0:
448,192,33429,1,0,0:0:0:70:Cymbal_2.wav
64,192,33540,1,8,0:0:0:0:
192,192,33540,1,0,0:0:0:0:
320,192,33651,1,0,0:0:0:70:tom4.wav
448,192,33651,1,0,0:0:0:0:
64,192,33873,1,4,0:0:0:0:
192,192,33873,1,2,0:0:0:0:
448,192,33873,1,0,0:0:0:0:
320,192,34096,1,0,0:0:0:0:
192,192,34318,1,2,0:0:0:0:
448,192,34318,1,0,0:0:0:0:
64,192,34540,1,0,0:0:0:0:
320,192,34762,1,2,0:0:0:0:
448,192,34762,1,0,0:0:0:0:
192,192,34985,1,0,0:0:0:0:
64,192,35207,1,2,0:0:0:0:
448,192,35207,1,0,0:0:0:0:
320,192,35429,1,0,0:0:0:0:
64,192,35651,1,2,0:0:0:0:
192,192,35651,1,0,0:0:0:0:
448,192,35873,1,0,0:0:0:0:
64,192,36096,1,2,0:0:0:0:
320,192,36096,1,0,0:0:0:0:
192,192,36318,1,0,0:0:0:0:
320,192,36540,1,2,0:0:0:0:
448,192,36540,1,0,0:0:0:0:
320,192,36762,128,0,36873:0:0:0:0:
448,192,36873,128,0,36985:0:0:0:0:
64,192,36985,1,2,0:0:0:0:
192,192,36985,1,0,0:0:0:0:
64,192,37207,128,0,37429:0:0:0:70:HHOpen.wav
320,192,37429,1,2,0:0:0:0:
448,192,37429,1,0,0:0:0:0:
192,192,37651,1,0,0:0:0:0:
64,192,37873,1,2,0:0:0:0:
448,192,37873,1,0,0:0:0:0:
320,192,38096,1,0,0:0:0:0:
64,192,38318,1,2,0:0:0:0:
192,192,38318,1,0,0:0:0:0:
448,192,38540,1,0,0:0:0:0:
192,192,38762,1,2,0:0:0:0:
320,192,38762,1,0,0:0:0:0:
448,192,38985,128,0,39207:0:0:0:0:
192,192,39207,128,2,39429:0:0:0:0:
320,192,39207,1,0,0:0:0:0:
64,192,39429,128,0,39651:0:0:0:0:
320,192,39651,1,2,0:0:0:0:
448,192,39651,1,0,0:0:0:0:
64,192,39873,1,0,0:0:0:0:
192,192,40096,1,2,0:0:0:0:
320,192,40096,1,0,0:0:0:0:
448,192,40318,1,0,0:0:0:70:Cymbal_2.wav
64,192,40540,1,8,0:0:0:0:
192,192,40540,1,0,0:0:0:0:
320,192,40762,1,0,0:0:0:70:tom3.wav
448,192,40762,1,0,0:0:0:0:
64,192,40985,1,4,0:0:0:0:
192,192,40985,1,2,0:0:0:0:
448,192,40985,1,0,0:0:0:0:
320,192,41207,1,0,0:0:0:0:
64,192,41429,1,2,0:0:0:0:
448,192,41429,1,0,0:0:0:0:
192,192,41651,1,0,0:0:0:0:
320,192,41873,1,2,0:0:0:0:
448,192,41873,1,0,0:0:0:0:
64,192,42096,1,0,0:0:0:0:
192,192,42318,1,2,0:0:0:0:
448,192,42318,1,0,0:0:0:0:
320,192,42540,1,0,0:0:0:0:
64,192,42762,1,2,0:0:0:0:
192,192,42762,1,0,0:0:0:0:
64,192,42985,128,0,43207:0:0:0:0:
320,192,43207,128,2,43429:0:0:0:0:
448,192,43207,1,0,0:0:0:0:
192,192,43429,128,0,43651:0:0:0:0:
64,192,43651,1,2,0:0:0:0:
448,192,43651,1,0,0:0:0:0:
320,192,43873,1,0,0:0:0:0:
64,192,44096,1,2,0:0:0:0:
192,192,44096,1,0,0:0:0:0:
448,192,44318,1,0,0:0:0:0:
64,192,44540,1,2,0:0:0:0:
320,192,44540,1,0,0:0:0:0:
192,192,44762,1,0,0:0:0:0:
320,192,44985,1,2,0:0:0:0:
448,192,44985,1,0,0:0:0:0:
64,192,45207,1,0,0:0:0:0:
192,192,45429,1,2,0:0:0:0:
320,192,45429,1,0,0:0:0:70:HHOpen.wav
448,192,45651,1,0,0:0:0:70:HHOpen.wav
64,192,45873,1,2,0:0:0:0:
192,192,45873,1,0,0:0:0:70:HHOpen.wav
320,192,46096,1,0,0:0:0:70:HHOpen.wav
64,192,46318,1,2,0:0:0:0:
192,192,46318,1,4,0:0:0:0:
448,192,46318,1,0,0:0:0:0:
320,192,46540,1,2,0:0:0:0:
448,192,46540,1,0,0:0:0:70:HHOpen.wav
64,192,46762,1,8,0:0:0:0:
192,192,46762,1,0,0:0:0:0:
192,192,46985,1,2,0:0:0:0:
320,192,46985,1,4,0:0:0:0:
448,192,46985,1,0,0:0:0:0:
64,192,47429,1,0,0:0:0:70:tom1.wav
192,192,47429,1,0,0:0:0:0:
64,192,47651,1,8,0:0:0:0:
448,192,47651,1,0,0:0:0:0:
192,192,47762,1,8,0:0:0:0:
320,192,47762,1,0,0:0:0:0:
64,192,47873,1,0,0:0:0:70:tom2.wav
448,192,47873,1,0,0:0:0:0:
192,192,48096,1,4,0:0:0:0:
320,192,48096,1,2,0:0:0:0:
448,192,48096,1,0,0:0:0:0:
64,192,48318,1,2,0:0:0:0:
192,192,48318,1,0,0:0:0:0:
64,192,48540,1,8,0:0:0:0:
448,192,48540,1,0,0:0:0:0:
448,192,48762,128,0,48985:0:0:0:0:
192,192,48985,1,0,0:0:0:70:HHOpen.wav
320,192,49207,1,2,0:0:0:0:
448,192,49207,1,0,0:0:0:0:
64,192,49429,128,8,49873:0:0:0:0:
192,192,49429,1,0,0:0:0:0:
320,192,49873,1,2,0:0:0:0:
448,192,49873,1,0,0:0:0:70:HHOpen.wav
64,192,50096,1,2,0:0:0:0:
192,192,50096,1,0,0:0:0:0:
64,192,50318,1,8,0:0:0:0:
320,192,50318,1,0,0:0:0:0:
448,192,50318,1,0,0:0:0:0:
192,192,50540,1,0,0:0:0:0:
448,192,50762,1,0,0:0:0:70:HHOpen.wav
192,192,50985,128,2,51096:0:0:0:0:
64,192,51096,128,0,51207:0:0:0:0:
320,192,51207,1,8,0:0:0:0:
448,192,51207,1,0,0:0:0:0:
448,192,51429,128,0,51651:0:0:0:0:
64,192,51651,1,2,0:0:0:0:
192,192,51651,1,0,0:0:0:0:
320,192,51873,1,2,0:0:0:0:
448,192,51873,1,0,0:0:0:0:
64,192,52096,1,8,0:0:0:0:
192,192,52096,1,0,0:0:0:0:
448,192,52096,1,0,0:0:0:0:
320,192,52318,1,0,0:0:0:0:
64,192,52540,1,0,0:0:0:70:HHOpen.wav
320,192,52762,1,2,0:0:0:0:
448,192,52762,1,0,0:0:0:0:
64,192,52985,128,8,53429:0:0:0:0:
192,192,52985,1,0,0:0:0:0:
448,192,52985,1,0,0:0:0:0:
320,192,53429,1,2,0:0:0:0:
448,192,53429,1,0,0:0:0:0:
64,192,53651,1,2,0:0:0:0:
192,192,53651,1,0,0:0:0:0:
64,192,53873,1,8,0:0:0:0:
320,192,53873,1,0,0:0:0:0:
448,192,53873,1,0,0:0:0:0:
192,192,54096,1,0,0:0:0:0:
320,192,54318,1,0,0:0:0:70:HHOpen.wav
192,192,54540,1,2,0:0:0:0:
448,192,54540,1,0,0:0:0:70:HHOpen.wav
64,192,54762,1,8,0:0:0:0:
192,192,54762,1,0,0:0:0:70:Cymbal_2.wav
320,192,54762,1,0,0:0:0:0:
320,192,54985,1,8,0:0:0:0:
448,192,54985,1,0,0:0:0:0:
64,192,55096,1,8,0:0:0:0:
192,192,55096,1,0,0:0:0:0:
320,192,55207,1,2,0:0:0:0:
448,192,55207,1,4,0:0:0:0:
64,192,55429,1,2,0:0:0:0:
448,192,55429,128,0,55651:0:0:0:0:
192,192,55651,1,8,0:0:0:0:
320,192,55651,1,0,0:0:0:0:
64,192,55873,128,2,56318:0:0:0:0:
320,192,55873,1,0,0:0:0:70:HHOpen.wav
192,192,56096,1,0,0:0:0:0:
320,192,56318,1,2,0:0:0:0:
448,192,56318,1,0,0:0:0:0:
64,192,56540,1,8,0:0:0:0:
448,192,56540,1,0,0:0:0:0:
192,192,56762,1,0,0:0:0:70:tom3.wav
320,192,56873,1,0,0:0:0:70:tom4.wav
64,192,56985,1,4,0:0:0:0:
192,192,56985,1,2,0:0:0:0:
448,192,56985,1,0,0:0:0:0:
320,192,57207,1,8,0:0:0:0:
448,192,57207,1,0,0:0:0:0:
192,192,57318,1,8,0:0:0:0:
64,192,57429,1,8,0:0:0:0:
448,192,57429,1,0,0:0:0:0:
64,192,57651,1,2,0:0:0:0:
192,192,57651,1,4,0:0:0:0:
320,192,57651,1,0,0:0:0:0:
448,192,57873,1,0,0:0:0:70:HHOpen.wav
64,192,57985,1,8,0:0:0:0:
192,192,57985,1,0,0:0:0:0:
320,192,58096,1,2,0:0:0:0:
448,192,58096,1,0,0:0:0:70:HHOpen.wav
64,192,58318,1,8,0:0:0:0:
192,192,58318,1,0,0:0:0:0:
320,192,58540,1,8,0:0:0:0:
448,192,58540,1,0,0:0:0:0:
64,192,58651,1,8,0:0:0:0:
192,192,58651,1,0,0:0:0:0:
64,192,58762,1,2,0:0:0:0:
320,192,58762,1,4,0:0:0:0:
448,192,58762,1,0,0:0:0:0:
192,192,58985,1,2,0:0:0:0:
320,192,58985,1,0,0:0:0:0:
64,192,59207,1,8,0:0:0:0:
448,192,59207,1,0,0:0:0:0:
192,192,59429,1,0,0:0:0:0:
448,192,59651,1,0,0:0:0:70:HHOpen.wav
192,192,59873,1,2,0:0:0:0:
320,192,59873,1,0,0:0:0:0:
64,192,60096,1,8,0:0:0:0:
320,192,60096,1,0,0:0:0:0:
448,192,60096,1,0,0:0:0:0:
192,192,60318,1,0,0:0:0:0:
64,192,60540,1,2,0:0:0:0:
448,192,60540,1,0,0:0:0:70:HHOpen.wav
192,192,60762,1,2,0:0:0:0:
320,192,60762,1,0,0:0:0:70:HHOpen.wav
64,192,60985,1,8,0:0:0:0:
192,192,60985,1,0,0:0:0:70:HHOpen.wav
448,192,60985,1,0,0:0:0:0:
320,192,61207,1,0,0:0:0:70:Cymbal_2.wav
448,192,61207,1,0,0:0:0:0:
192,192,61318,1,8,0:0:0:0:
64,192,61429,1,2,0:0:0:0:
320,192,61429,1,4,0:0:0:0:
448,192,61429,1,0,0:0:0:0:
64,192,61651,1,8,0:0:0:0:
192,192,61651,1,0,0:0:0:0:
320,192,61762,1,8,0:0:0:0:
448,192,61762,1,0,0:0:0:0:
64,192,61873,1,0,0:0:0:70:tom1.wav
192,192,61873,1,0,0:0:0:0:
320,192,61985,1,0,0:0:0:70:tom2.wav
448,192,61985,1,0,0:0:0:0:
64,192,62096,1,0,0:0:0:70:tom3.wav
192,192,62096,1,0,0:0:0:0:
64,192,62318,1,4,0:0:0:0:
320,192,62318,1,2,0:0:0:0:
448,192,62318,1,0,0:0:0:0:
192,192,62540,1,0,0:0:0:65:Ride.wav
64,192,62762,1,0,0:0:0:65:Ride.wav
320,192,62985,1,2,0:0:0:0:
448,192,62985,1,0,0:0:0:0:
192,192,63207,1,0,0:0:0:65:Ride.wav
64,192,63429,1,2,0:0:0:0:
448,192,63429,1,0,0:0:0:0:
192,192,63651,1,8,0:0:0:0:
320,192,63651,1,0,0:0:0:0:
448,192,63873,1,0,0:0:0:0:
64,192,64096,1,2,0:0:0:0:
192,192,64096,1,0,0:0:0:0:
448,192,64318,1,0,0:0:0:65:Ride.wav
192,192,64429,1,2,0:0:0:0:
320,192,64429,1,0,0:0:0:0:
64,192,64540,1,0,0:0:0:65:Ride.wav
320,192,64762,1,2,0:0:0:0:
448,192,64762,1,0,0:0:0:0:
64,192,64985,1,0,0:0:0:65:Ride.wav
320,192,65207,1,2,0:0:0:0:
448,192,65207,1,0,0:0:0:0:
64,192,65429,1,8,0:0:0:0:
192,192,65429,1,0,0:0:0:0:
64,192,65651,1,0,0:0:0:70:tom2.wav
192,192,65762,1,0,0:0:0:0:
320,192,65873,1,2,0:0:0:0:
448,192,65873,1,0,0:0:0:0:
192,192,66096,1,0,0:0:0:65:Ride.wav
448,192,66318,1,0,0:0:0:65:Ride.wav
64,192,66540,1,2,0:0:0:0:
192,192,66540,1,0,0:0:0:0:
448,192,66762,1,0,0:0:0:0:
192,192,66985,1,2,0:0:0:0:
320,192,66985,1,0,0:0:0:0:
64,192,67207,1,8,0:0:0:0:
448,192,67207,1,0,0:0:0:0:
320,192,67651,1,2,0:0:0:0:
448,192,67651,1,0,0:0:0:0:
64,192,67873,1,0,0:0:0:65:Ride.wav
192,192,67985,1,2,0:0:0:0:
320,192,67985,1,0,0:0:0:0:
448,192,68096,128,0,68318:0:0:0:65:Ride.wav
64,192,68318,1,2,0:0:0:0:
192,192,68318,1,4,0:0:0:0:
320,192,68540,1,0,0:0:0:0:
64,192,68707,1,0,0:0:0:0:
192,192,68762,1,2,0:0:0:0:
320,192,68818,1,0,0:0:0:0:
448,192,68873,1,0,0:0:0:0:
64,192,68985,1,8,0:0:0:0:
192,192,68985,1,0,0:0:0:0:
320,192,69096,1,8,0:0:0:0:
448,192,69096,1,0,0:0:0:0:
192,192,69207,1,0,0:0:0:70:tom3.wav
64,192,69318,1,8,0:0:0:0:
448,192,69318,1,0,0:0:0:0:
192,192,69429,1,2,0:0:0:0:
320,192,69429,1,4,0:0:0:0:
64,192,69651,1,8,0:0:0:0:
448,192,69651,1,0,0:0:0:0:
64,192,69762,1,8,0:0:0:0:
448,192,69762,1,0,0:0:0:0:
192,192,69873,1,0,0:0:0:70:tom1.wav
64,192,70096,1,4,0:0:0:0:
320,192,70096,1,2,0:0:0:0:
448,192,70096,1,0,0:0:0:0:
192,192,70318,1,0,0:0:0:0:
64,192,70540,1,0,0:0:0:70:tom2.wav
192,192,70651,1,0,0:0:0:70:tom2.wav
320,192,70762,1,8,0:0:0:0:
448,192,70762,1,0,0:0:0:0:
64,192,70985,1,8,0:0:0:0:
192,192,70985,1,0,0:0:0:0:
320,192,71096,1,8,0:0:0:0:
64,192,71207,1,2,0:0:0:0:
192,192,71207,1,4,0:0:0:0:
448,192,71207,1,0,0:0:0:0:
64,192,71540,1,2,0:0:0:0:
320,192,71540,1,0,0:0:0:30:HHOpen.wav
448,192,71540,1,0,0:0:0:0:
192,192,71873,1,2,0:0:0:0:
320,192,71873,1,0,0:0:0:30:HHOpen.wav
64,192,72096,1,2,0:0:0:0:
320,192,72096,1,4,0:0:0:0:
448,192,72096,1,0,0:0:0:0:
192,192,72318,1,0,0:0:0:70:tom4.wav
320,192,72540,1,8,0:0:0:0:
448,192,72540,1,0,0:0:0:0:
64,192,72651,1,8,0:0:0:0:
192,192,72651,1,0,0:0:0:0:
320,192,72762,1,8,0:0:0:0:
448,192,72762,1,0,0:0:0:0:
64,192,72873,1,8,0:0:0:0:
192,192,72873,1,0,0:0:0:0:
320,192,72985,1,2,0:0:0:0:
448,192,72985,1,4,0:0:0:0:
64,192,73207,1,2,0:0:0:0:
192,192,73207,1,0,0:0:0:70:HHOpen.wav
64,192,73429,1,8,0:0:0:0:
448,192,73429,1,0,0:0:0:0:
64,192,73651,1,2,0:0:0:0:
192,192,73651,1,0,0:0:0:0:
320,192,73651,1,0,0:0:0:0:
320,192,74096,1,8,0:0:0:0:
448,192,74096,1,0,0:0:0:0:
64,192,74207,1,8,0:0:0:0:
192,192,74207,1,0,0:0:0:0:
448,192,74318,1,0,0:0:0:70:tom2.wav
64,192,74429,1,0,0:0:0:70:tom2.wav
192,192,74429,1,0,0:0:0:0:
320,192,74540,1,0,0:0:0:70:tom3.wav
448,192,74540,1,0,0:0:0:0:
192,192,74651,1,0,0:0:0:70:tom4.wav
64,192,74762,1,4,0:0:0:0:
320,192,74762,1,2,0:0:0:0:
448,192,74762,1,0,0:0:0:0:
448,192,74985,1,2,0:0:0:0:
320,192,75096,1,0,0:0:0:0:
64,192,75207,1,8,0:0:0:0:
192,192,75207,1,0,0:0:0:0:
320,192,75318,1,0,0:0:0:70:tom1.wav
448,192,75318,1,0,0:0:0:0:
64,192,75429,1,0,0:0:0:70:tom2.wav
192,192,75429,1,0,0:0:0:0:
320,192,75540,1,0,0:0:0:70:tom3.wav
64,192,75651,1,4,0:0:0:0:
192,192,75651,1,2,0:0:0:0:
448,192,75651,1,0,0:0:0:0:
192,192,75985,1,4,0:0:0:0:
320,192,75985,1,2,0:0:0:0:
448,192,75985,1,0,0:0:0:0:
64,192,76318,1,4,0:0:0:0:
192,192,76318,1,2,0:0:0:0:
320,192,76318,1,0,0:0:0:0:
64,192,76540,1,2,0:0:0:0:
320,192,76540,1,8,0:0:0:0:
448,192,76540,1,0,0:0:0:70:tom4.wav
64,192,76762,1,2,0:0:0:0:
320,192,76762,1,8,0:0:0:0:
448,192,76762,1,0,0:0:0:70:tom4.wav
64,192,76985,128,8,77207:0:0:0:0:
320,192,76985,128,2,77207:0:0:0:0:
448,192,76985,128,0,77207:0:0:0:70:tom4.wav
448,192,77429,1,0,0:0:0:0:
64,192,77651,1,2,0:0:0:0:
192,192,77651,1,0,0:0:0:0:
192,192,77873,1,8,0:0:0:0:
320,192,77873,1,4,0:0:0:0:
448,192,77873,1,0,0:0:0:0:
320,192,78096,1,8,0:0:0:0:
448,192,78096,1,0,0:0:0:0:
64,192,78207,1,8,0:0:0:0:
192,192,78207,1,0,0:0:0:0:
64,192,78318,1,2,0:0:0:0:
320,192,78318,1,4,0:0:0:0:
448,192,78318,1,0,0:0:0:0:
192,192,78540,1,0,0:0:0:70:HHOpen.wav
64,192,78762,1,2,0:0:0:0:
448,192,78762,1,8,0:0:0:0:
320,192,78985,1,0,0:0:0:70:HHOpen.wav
64,192,79207,1,2,0:0:0:0:
192,192,79207,1,0,0:0:0:0:
448,192,79429,1,0,0:0:0:70:HHOpen.wav
64,192,79651,1,8,0:0:0:0:
320,192,79651,1,2,0:0:0:0:
192,192,79873,1,0,0:0:0:70:HHOpen.wav
64,192,80096,1,2,0:0:0:0:
448,192,80096,1,0,0:0:0:0:
192,192,80318,1,0,0:0:0:70:HHOpen.wav
320,192,80540,1,2,0:0:0:0:
448,192,80540,1,8,0:0:0:0:
64,192,80762,1,0,0:0:0:70:HHOpen.wav
192,192,80985,1,2,0:0:0:0:
448,192,80985,1,0,0:0:0:0:
320,192,81207,1,0,0:0:0:70:HHOpen.wav
64,192,81429,1,8,0:0:0:0:
192,192,81429,1,2,0:0:0:0:
320,192,81651,1,0,0:0:0:70:HHOpen.wav
64,192,81873,1,2,0:0:0:0:
448,192,81873,1,0,0:0:0:0:
192,192,82096,1,0,0:0:0:70:HHOpen.wav
320,192,82318,1,8,0:0:0:0:
448,192,82318,1,2,0:0:0:0:
64,192,82540,1,0,0:0:0:70:HHOpen.wav
192,192,82762,1,2,0:0:0:0:
448,192,82762,1,0,0:0:0:0:
320,192,82985,1,0,0:0:0:70:HHOpen.wav
64,192,83207,1,2,0:0:0:0:
448,192,83207,1,8,0:0:0:0:
192,192,83429,1,0,0:0:0:70:HHOpen.wav
320,192,83651,1,2,0:0:0:0:
448,192,83651,1,0,0:0:0:0:
448,192,83873,1,0,0:0:0:70:HHOpen.wav
64,192,84096,1,8,0:0:0:0:
320,192,84096,1,2,0:0:0:0:
192,192,84318,1,0,0:0:0:70:HHOpen.wav
64,192,84540,1,2,0:0:0:0:
448,192,84540,1,0,0:0:0:0:
320,192,84762,1,0,0:0:0:70:HHOpen.wav
64,192,84985,1,2,0:0:0:0:
192,192,84985,1,8,0:0:0:0:
64,192,85207,1,8,0:0:0:0:
192,192,85207,1,0,0:0:0:70:HHOpen.wav
320,192,85318,1,8,0:0:0:0:
448,192,85318,1,0,0:0:0:0:
64,192,85429,1,2,0:0:0:0:
192,192,85429,1,4,0:0:0:0:
320,192,85651,1,0,0:0:0:70:HHOpen.wav
64,192,85873,1,8,0:0:0:0:
448,192,85873,1,2,0:0:0:0:
320,192,86096,128,0,86318:0:0:0:70:HHOpen.wav
64,192,86318,1,2,0:0:0:0:
192,192,86318,1,0,0:0:0:0:
448,192,86540,1,0,0:0:0:70:HHOpen.wav
192,192,86762,1,2,0:0:0:0:
320,192,86762,1,8,0:0:0:0:
64,192,86985,128,0,87207:0:0:0:70:HHOpen.wav
320,192,87207,1,2,0:0:0:0:
448,192,87207,1,0,0:0:0:0:
192,192,87429,1,0,0:0:0:70:HHOpen.wav
64,192,87651,1,8,0:0:0:0:
320,192,87651,1,2,0:0:0:0:
64,192,87873,128,0,88096:0:0:0:70:HHOpen.wav
192,192,88096,1,2,0:0:0:0:
448,192,88096,1,0,0:0:0:0:
320,192,88318,1,0,0:0:0:70:HHOpen.wav
64,192,88540,1,2,0:0:0:0:
192,192,88540,1,8,0:0:0:0:
320,192,88762,1,0,0:0:0:70:HHOpen.wav
64,192,88985,1,2,0:0:0:0:
448,192,88985,1,0,0:0:0:0:
192,192,89207,1,0,0:0:0:70:HHOpen.wav
64,192,89429,1,8,0:0:0:0:
320,192,89429,1,2,0:0:0:0:
448,192,89429,1,0,0:0:0:0:
320,192,89651,1,0,0:0:0:70:HHOpen.wav
64,192,89873,1,2,0:0:0:0:
192,192,89873,1,0,0:0:0:0:
448,192,90096,1,0,0:0:0:70:HHOpen.wav
64,192,90318,1,8,0:0:0:0:
320,192,90318,1,2,0:0:0:0:
192,192,90540,1,0,0:0:0:70:HHOpen.wav
64,192,90762,1,2,0:0:0:0:
448,192,90762,1,0,0:0:0:0:
192,192,90985,1,8,0:0:0:0:
320,192,90985,1,0,0:0:0:70:HHOpen.wav
64,192,91207,1,8,0:0:0:0:
320,192,91207,1,4,0:0:0:0:
448,192,91207,1,0,0:0:0:0:
192,192,91429,1,0,0:0:0:0:
320,192,91540,1,8,0:0:0:0:
64,192,91651,1,2,0:0:0:0:
448,192,91651,1,0,0:0:0:70:HHOpen.wav
320,192,91873,1,8,0:0:0:0:
448,192,91873,1,0,0:0:0:0:
64,192,91985,1,8,0:0:0:0:
192,192,91985,1,0,0:0:0:0:
320,192,92096,1,0,0:0:0:70:tom1.wav
448,192,92096,1,0,0:0:0:0:
192,192,92207,1,0,0:0:0:70:tom2.wav
64,192,92318,1,0,0:0:0:70:tom3.wav
448,192,92318,1,0,0:0:0:0:
320,192,92429,1,0,0:0:0:70:tom4.wav
64,192,92540,1,2,0:0:0:0:
192,192,92540,1,4,0:0:0:0:
448,192,92540,1,0,0:0:0:0:
192,192,92762,1,0,0:0:0:70:HHOpen.wav
64,192,92985,1,2,0:0:0:0:
320,192,92985,1,8,0:0:0:0:
448,192,92985,1,0,0:0:0:0:
192,192,93207,1,0,0:0:0:70:HHOpen.wav
64,192,93429,1,2,0:0:0:0:
448,192,93429,1,0,0:0:0:0:
320,192,93651,1,0,0:0:0:70:HHOpen.wav
64,192,93873,1,8,0:0:0:0:
192,192,93873,1,2,0:0:0:0:
448,192,94096,1,0,0:0:0:70:HHOpen.wav
64,192,94318,1,2,0:0:0:0:
320,192,94318,1,0,0:0:0:0:
192,192,94540,1,0,0:0:0:70:HHOpen.wav
320,192,94762,1,2,0:0:0:0:
448,192,94762,1,8,0:0:0:0:
64,192,94985,1,0,0:0:0:70:HHOpen.wav
192,192,95207,1,2,0:0:0:0:
448,192,95207,1,0,0:0:0:0:
320,192,95429,1,0,0:0:0:70:HHOpen.wav
64,192,95651,1,8,0:0:0:0:
192,192,95651,1,2,0:0:0:0:
320,192,95873,1,0,0:0:0:70:HHOpen.wav
64,192,96096,1,2,0:0:0:0:
448,192,96096,1,0,0:0:0:0:
192,192,96318,1,0,0:0:0:70:HHOpen.wav
320,192,96540,1,8,0:0:0:0:
448,192,96540,1,2,0:0:0:0:
192,192,96762,1,0,0:0:0:70:HHOpen.wav
64,192,96985,1,2,0:0:0:0:
448,192,96985,1,0,0:0:0:0:
320,192,97207,1,0,0:0:0:70:HHOpen.wav
64,192,97429,1,2,0:0:0:0:
192,192,97429,1,8,0:0:0:0:
448,192,97651,1,0,0:0:0:70:HHOpen.wav
192,192,97873,1,2,0:0:0:0:
320,192,97873,1,0,0:0:0:0:
64,192,98096,1,0,0:0:0:70:HHOpen.wav
320,192,98318,1,8,0:0:0:0:
448,192,98318,1,2,0:0:0:0:
192,192,98540,1,0,0:0:0:70:HHOpen.wav
64,192,98762,1,2,0:0:0:0:
448,192,98762,1,0,0:0:0:0:
192,192,98985,1,0,0:0:0:70:HHOpen.wav
320,192,99207,1,2,0:0:0:0:
448,192,99207,1,8,0:0:0:0:
64,192,99318,1,8,0:0:0:0:
192,192,99318,1,0,0:0:0:0:
320,192,99429,1,0,0:0:0:70:tom1.wav
448,192,99429,1,0,0:0:0:0:
192,192,99540,1,8,0:0:0:0:
64,192,99651,1,2,0:0:0:0:
320,192,99651,1,4,0:0:0:0:
448,192,99651,1,0,0:0:0:0:
320,192,99873,1,0,0:0:0:70:HHOpen.wav
64,192,100096,1,8,0:0:0:0:
192,192,100096,1,2,0:0:0:0:
448,192,100096,1,0,0:0:0:0:
64,192,100318,1,8,0:0:0:0:
320,192,100318,1,4,0:0:0:0:
448,192,100318,1,0,0:0:0:0:
192,192,100540,1,2,0:0:0:0:
320,192,100762,1,0,0:0:0:70:tom4.wav
448,192,100762,1,0,0:0:0:0:
64,192,100985,1,8,0:0:0:0:
192,192,100985,1,0,0:0:0:0:
448,192,100985,1,0,0:0:0:0:
320,192,101207,1,8,0:0:0:0:
448,192,101207,1,0,0:0:0:0:
64,192,101318,1,8,0:0:0:0:
192,192,101318,1,0,0:0:0:0:
320,192,101429,1,2,0:0:0:0:
448,192,101429,1,4,0:0:0:0:
448,192,101651,128,0,101873:0:0:0:70:HHOpen.wav
64,192,101873,1,8,0:0:0:0:
192,192,101873,128,0,102096:0:0:0:0:
320,192,102096,1,8,0:0:0:0:
448,192,102096,1,4,0:0:0:0:
64,192,102318,1,2,0:0:0:0:
448,192,102318,1,0,0:0:0:0:
320,192,102429,1,8,0:0:0:0:
64,192,102540,1,0,0:0:0:70:tom2.wav
192,192,102651,1,0,0:0:0:0:
320,192,102762,1,8,0:0:0:0:
448,192,102762,1,2,0:0:0:0:
64,192,102873,1,8,0:0:0:0:
192,192,102873,1,0,0:0:0:0:
320,192,102985,1,8,0:0:0:0:
448,192,102985,1,0,0:0:0:0:
64,192,103096,1,8,0:0:0:0:
192,192,103096,1,0,0:0:0:0:
320,192,103207,1,2,0:0:0:0:
448,192,103207,128,4,103651:0:0:0:0:
64,192,103429,1,0,0:0:0:70:HHOpen.wav
192,192,103540,1,0,0:0:0:0:
64,192,103651,1,8,0:0:0:0:
320,192,103651,1,2,0:0:0:0:
192,192,103873,128,0,104096:0:0:0:70:HHOpen.wav
320,192,104096,1,2,0:0:0:0:
448,192,104096,1,0,0:0:0:0:
448,192,104318,128,0,104540:0:0:0:70:HHOpen.wav
192,192,104540,1,8,0:0:0:0:
320,192,104540,1,2,0:0:0:0:
64,192,104762,128,0,104985:0:0:0:70:HHOpen.wav
320,192,104985,1,2,0:0:0:0:
448,192,104985,1,0,0:0:0:0:
192,192,105207,1,0,0:0:0:70:HHOpen.wav
64,192,105429,1,2,0:0:0:0:
320,192,105429,1,8,0:0:0:0:
448,192,105429,1,0,0:0:0:70:tom4.wav
64,192,105651,1,10,0:0:0:0:
192,192,105651,1,0,0:0:0:70:tom4.wav
320,192,105762,1,0,0:0:0:0:
448,192,105873,1,0,0:0:0:70:tom4.wav
192,192,105873,1,10,0:0:0:0:
320,192,106096,1,10,0:0:0:0:
64,192,106096,1,0,0:0:0:70:tom4.wav
192,192,106207,1,0,0:0:0:0:
448,192,106318,1,0,0:0:0:70:tom4.wav
320,192,106318,1,10,0:0:0:0:
192,192,106429,1,0,0:0:0:0:
64,192,106540,1,10,0:0:0:0:
448,192,106540,1,0,0:0:0:70:tom4.wav
320,192,106651,1,0,0:0:0:0:
192,192,106762,1,2,0:0:0:0:
448,192,106762,1,4,0:0:0:0:
64,192,106762,1,0,0:0:0:0:
448,192,106985,1,8,0:0:0:0:
320,192,106985,1,0,0:0:0:0:
192,192,107096,1,8,0:0:0:0:
64,192,107096,1,0,0:0:0:0:
448,192,107207,1,0,0:0:0:70:tom2.wav
320,192,107207,1,0,0:0:0:0:
64,192,107207,1,0,0:0:0:0:
64,192,107429,1,2,0:0:0:0:
320,192,107429,128,0,107651:0:0:0:70:HHOpen.wav
448,192,107429,1,0,0:0:0:0:
64,192,107873,128,2,108096:0:0:0:0:
192,192,107873,1,0,0:0:0:70:HHOpen.wav
448,192,107873,1,0,0:0:0:0:
192,192,108318,1,2,0:0:0:0:
448,192,108318,128,0,115651:0:0:0:0:
320,192,108318,128,4,113873:0:0:0:0:
