osu file format v14

[General]
AudioFilename: audio.ogg
AudioLeadIn: 0
PreviewTime: 73708
Countdown: 0
SampleSet: Normal
StackLeniency: 0.7
Mode: 1
LetterboxInBreaks: 0
WidescreenStoryboard: 1

[Editor]
DistanceSpacing: 0.9
BeatDivisor: 4
GridSize: 32
TimelineZoom: 1.600001

[Metadata]
Title:Dream with You (TV Size)
TitleUnicode:Dream with You (TV Size)
Artist:Uehara Ayumu (CV: Onishi Aguri)
ArtistUnicode:上原歩夢 (CV: 大西亜玖璃)
Creator:Sammu
Version:Oni
Source:ラブライブ!虹ヶ咲学園スクールアイドル同好会
Tags:love live! lovelive! Nijigasaki High School Idol Club ニジガク NijiGaku festival all stars sifas フェスティバル オールスターズ スクスタ japanese anime insert j-pop jpop pop Ayaka Miyake mitsuyuki Carlos K. Ōnishi Oonishi Ohnishi gakuen doukoukai dōkōkai pomu -maruko- maruko Ninym_ Ninym blackbn blackbq
BeatmapID:4438654
BeatmapSetID:2113940

[Difficulty]
HPDrainRate:5.5
CircleSize:2
OverallDifficulty:5.5
ApproachRate:10
SliderMultiplier:1.4
SliderTickRate:1

[Events]
//Background and Video events
0,0,"pomu.jpg",0,0
Video,512,"ayumuwu.mp4"
//Break Periods
//Storyboard Layer 0 (Background)
//Storyboard Layer 1 (Fail)
//Storyboard Layer 2 (Pass)
//Storyboard Layer 3 (Foreground)
//Storyboard Layer 4 (Overlay)
//Storyboard Sound Samples

[TimingPoints]
-4600,441.176470588235,4,1,0,60,1,0
694,-125,4,1,0,60,0,0
9517,-111.111111111111,4,1,0,60,0,0
13156,-110.542060173221,4,1,0,60,0,0
13266,-109.973667398993,4,1,0,61,0,0
13376,-109.411089925437,4,1,0,61,0,0
13487,-108.849202677277,4,1,0,62,0,0
13597,-108.298042103971,4,1,0,62,0,0
13707,-107.752435040151,4,1,0,63,0,0
13818,-107.20741247057,4,1,0,63,0,0
13928,-106.672712158996,4,1,0,64,0,0
14038,-106.143319046545,4,1,0,64,0,0
14148,-105.619154508043,4,1,0,65,0,0
14259,-105.095446558861,4,1,0,65,0,0
14369,-104.58155523945,4,1,0,66,0,0
14479,-104.072665074169,4,1,0,66,0,0
14590,-103.564144326569,4,1,0,67,0,0
14700,-103.065083745857,4,1,0,67,0,0
14810,-102.57080989958,4,1,0,67,0,0
15031,-101.591962460777,4,1,0,68,0,0
15251,-100.635925514016,4,1,0,69,0,0
15362,-100.160358749486,4,1,0,70,0,0
15417,-99.926378978367,4,1,0,70,0,0
15472,-99.69348983714,4,1,0,70,0,0
15582,-99.23095308392,4,1,0,71,0,0
15693,-98.76854184159,4,1,0,71,0,0
15803,-98.314528485862,4,1,0,72,0,0
16023,-97.418909592823,4,1,0,73,0,0
16134,-96.973194289875,4,1,0,73,0,0
16354,-96.101738763395,4,1,0,74,0,0
16465,-95.667967902841,4,1,0,75,0,0
16575,-95.24195071924,4,1,0,75,0,0
27384,-96.55431,4,1,0,75,0,0
27604,-97.901215,4,1,0,75,0,0
27825,-99.292595,4,1,0,75,0,0
28046,-100.72412,4,1,0,75,0,0
28156,-101.45214,4,1,0,75,0,0
28376,-102.9402,4,1,0,75,0,0
28487,-103.70769,4,1,0,75,0,0
28707,-105.26316,4,1,0,75,0,0
29148,-95.23809,4,1,0,75,0,0
29369,-96.55345,4,1,0,75,0,0
29590,-97.90564,4,1,0,75,0,0
29810,-99.28987,4,1,0,75,0,0
30031,-100.72036,4,1,0,75,0,0
30141,-101.44785,4,1,0,75,0,0
30251,-102.18592,4,1,0,75,0,0
30472,-103.70171,4,1,0,75,0,0
30582,-104.47308,4,1,0,75,0,0
30693,-105.26316,4,1,0,75,0,0
44148,-103.89916,4,1,0,75,0,0
44369,-102.5641,4,1,0,75,0,0
44590,-101.26292,4,1,0,75,0,0
44700,-100.62749,4,1,0,75,0,0
44810,-100,4,1,0,75,0,0
57385,-101.010101010101,4,1,0,75,0,0
57605,-102.040816326531,4,1,0,75,0,0
57826,-103.092783505155,4,1,0,75,0,0
58047,-104.166666666667,4,1,0,75,0,0
58266,-105.263157894737,4,1,0,75,0,0
58376,-106.382978723404,4,1,0,75,0,0
58487,-107.52688172043,4,1,0,75,0,0
58707,-108.695652173913,4,1,0,75,0,0
58818,-109.59245,4,1,0,75,0,0
58928,-100,4,1,0,75,0,0
59370,-105.263157894737,4,1,0,75,0,0
59591,-100,4,1,0,75,0,0
60032,-105.263157894737,4,1,0,75,0,0
60694,-100,4,1,0,75,0,0
61135,-105.263157894737,4,1,0,75,0,0
61354,-100,4,1,0,75,0,0
61796,-105.263157894737,4,1,0,75,0,0
62016,-103.092783505155,4,1,0,75,0,0
62237,-102.040816326531,4,1,0,75,0,0
62347,-101.010101010101,4,1,0,75,0,0
62457,-100,4,1,0,75,0,0
62899,-105.263157894737,4,1,0,75,0,0
63120,-100,4,1,0,75,0,0
63561,-105.263157894737,4,1,0,75,0,0
64223,-100,4,1,0,75,0,0
64664,-105.263157894737,4,1,0,75,0,0
64885,-100,4,1,0,75,0,0
65325,-105.263157894737,4,1,0,75,0,0
65546,-104.166666666667,4,1,0,75,0,0
65656,-103.092783505155,4,1,0,75,0,0
65766,-102.040816326531,4,1,0,75,0,0
65876,-101.010101010101,4,1,0,75,0,0
65987,-100,4,1,0,75,0,0
69737,-98.76336,4,1,0,75,0,0
69847,-98.15917,4,1,0,75,0,0
69957,-97.562325,4,1,0,75,0,0
70178,-96.38489,4,1,0,75,0,0
70398,-95.24067,4,1,0,75,0,0
70619,-94.11827,4,1,0,75,0,0
70840,-93.02203,4,1,0,75,0,0
70950,-92.48586,4,1,0,75,0,0
71060,-91.95582,4,1,0,75,0,0
71171,-91.427086,4,1,0,75,0,0
71281,-90.90909,4,1,0,75,0,0
71501,-89.8905,4,1,0,75,0,0
71722,-88.89001,4,1,0,75,0,0
71943,-87.91154,4,1,0,75,0,0
72163,-86.95866,4,1,0,75,0,0
72384,-86.02203,4,1,0,75,0,0
72604,-85.10946,4,1,0,75,0,0
72825,-84.212036,4,1,0,75,0,0
72935,-83.77237,4,1,0,75,0,0
73046,-83.333336,4,1,0,75,0,0
73487,-100,4,1,0,75,0,0
74369,-96.774185,4,1,0,75,0,0
74479,-95.24152,4,1,0,75,0,0
74590,-93.743355,4,1,0,75,0,0
74700,-92.30447,4,1,0,75,0,0
74811,441.176470588235,4,1,0,85,1,1
74811,-90.90909,4,1,0,85,0,1
87383,-89.88593,4,1,0,85,0,1
87604,-88.88553,4,1,0,85,0,1
87824,-87.91154,4,1,0,85,0,1
87935,-87.42818,4,1,0,85,0,1
88045,-86.95438,4,1,0,85,0,1
88265,-86.02203,4,1,0,85,0,1
88376,-85.559166,4,1,0,85,0,1
88486,-85.10536,4,1,0,85,0,1
88596,-84.656334,4,1,0,85,0,1
88707,-84.208015,4,1,0,85,0,1
88817,-83.768394,4,1,0,85,0,1
88927,-83.333336,4,1,0,85,0,1
89149,-90.909090909091,4,1,0,85,0,1
92458,-83.333333333333,4,1,0,85,0,1
92678,-90.909090909091,4,1,0,85,0,1
93119,-83.333333333333,4,1,0,85,0,1
93340,-90.909090909091,4,1,0,85,0,1
94002,-83.333333333333,4,1,0,85,0,1
94222,-90.909090909091,4,1,0,85,0,1
99516,-83.333333333333,4,1,0,85,0,1
99737,-90.909090909091,4,1,0,85,0,1
100178,-83.333333333333,4,1,0,85,0,1
100399,-90.909090909091,4,1,0,85,0,1
101060,-83.333333333333,4,1,0,85,0,1
101281,-90.909090909091,4,1,0,85,0,1
101501,-91.95582,4,1,0,85,0,1
101721,-93.022026,4,1,0,85,0,1
101942,-94.11827,4,1,0,85,0,1
102162,-95.23551,4,1,0,85,0,1
102273,-95.80935,4,1,0,85,0,1
102383,-96.38489,4,1,0,85,0,1
102604,-97.562325,4,1,0,85,0,1
102714,-98.15917,4,1,0,85,0,1
102824,-98.76336,4,1,0,85,0,1
102934,-99.37503,4,1,0,85,0,1
103046,-100,4,1,0,85,0,0
104810,-105.263157894737,4,1,0,85,0,0
106575,-111.111111111111,4,1,0,85,0,0

[HitObjects]
256,192,9517,5,0,0:0:0:0:
256,192,9738,1,0,0:0:0:0:
256,192,9958,1,0,0:0:0:0:
256,192,10179,1,8,0:0:0:0:
256,192,10620,1,8,0:0:0:0:
256,192,11282,1,0,0:0:0:0:
256,192,11502,1,0,0:0:0:0:
256,192,11723,1,8,0:0:0:0:
256,192,11944,1,0,0:0:0:0:
256,192,12385,1,8,0:0:0:0:
256,192,12605,1,8,0:0:0:0:
256,192,12826,1,0,0:0:0:0:
256,192,13047,1,8,0:0:0:0:
256,192,13157,1,8,0:0:0:0:
256,192,13267,1,8,0:0:0:0:
256,192,13377,1,8,0:0:0:0:
256,192,13488,1,0,0:0:0:0:
256,192,13708,1,8,0:0:0:0:
256,192,13929,1,0,0:0:0:0:
256,192,14149,1,0,0:0:0:0:
256,192,14370,1,8,0:0:0:0:
256,192,14591,1,0,0:0:0:0:
256,192,14701,1,0,0:0:0:0:
256,192,14811,1,0,0:0:0:0:
256,192,15032,1,0,0:0:0:0:
256,192,15252,1,8,0:0:0:0:
256,192,15473,1,8,0:0:0:0:
256,192,15583,1,0,0:0:0:0:
256,192,15694,1,8,0:0:0:0:
256,192,15804,1,0,0:0:0:0:
256,192,16024,1,0,0:0:0:0:
256,192,16135,1,8,0:0:0:0:
256,192,16355,1,0,0:0:0:0:
256,192,16466,1,0,0:0:0:0:
256,192,16576,1,12,0:0:0:0:
256,192,17017,1,0,0:0:0:0:
256,192,17238,1,8,0:0:0:0:
256,192,17458,1,0,0:0:0:0:
256,192,17679,1,0,0:0:0:0:
256,192,17899,1,8,0:0:0:0:
256,192,18120,1,0,0:0:0:0:
256,192,18561,1,0,0:0:0:0:
256,192,18782,1,8,0:0:0:0:
256,192,19002,1,0,0:0:0:0:
256,192,19113,1,8,0:0:0:0:
256,192,19223,1,0,0:0:0:0:
256,192,19444,1,0,0:0:0:0:
256,192,19664,1,8,0:0:0:0:
256,192,19885,1,0,0:0:0:0:
256,192,19995,1,0,0:0:0:0:
256,192,20105,1,0,0:0:0:0:
256,192,20547,1,8,0:0:0:0:
256,192,20767,1,0,0:0:0:0:
256,192,20988,1,0,0:0:0:0:
256,192,21208,1,0,0:0:0:0:
256,192,21429,1,8,0:0:0:0:
256,192,21649,1,0,0:0:0:0:
256,192,22091,1,0,0:0:0:0:
256,192,22311,1,8,0:0:0:0:
256,192,22532,1,0,0:0:0:0:
256,192,22752,1,8,0:0:0:0:
256,192,22973,1,8,0:0:0:0:
256,192,23194,1,0,0:0:0:0:
256,192,23414,1,8,0:0:0:0:
256,192,23524,1,8,0:0:0:0:
256,192,23635,1,4,0:0:0:0:
256,192,24076,1,8,0:0:0:0:
256,192,24297,1,8,0:0:0:0:
256,192,24517,1,0,0:0:0:0:
256,192,24738,1,0,0:0:0:0:
256,192,24848,1,0,0:0:0:0:
256,192,24958,1,8,0:0:0:0:
256,192,25179,1,4,0:0:0:0:
256,192,25620,1,0,0:0:0:0:
256,192,25841,1,8,0:0:0:0:
256,192,26061,1,8,0:0:0:0:
256,192,26282,1,0,0:0:0:0:
256,192,26502,1,8,0:0:0:0:
256,192,26723,1,0,0:0:0:0:
256,192,26944,1,8,0:0:0:0:
256,192,27054,1,8,0:0:0:0:
256,192,27164,1,4,0:0:0:0:
256,192,27605,1,0,0:0:0:0:
256,192,27826,1,0,0:0:0:0:
256,192,28047,1,8,0:0:0:0:
256,192,28157,1,0,0:0:0:0:
256,192,28377,1,0,0:0:0:0:
256,192,28488,1,8,0:0:0:0:
256,192,28708,1,0,0:0:0:0:
256,192,29149,1,12,0:0:0:0:
256,192,29370,1,0,0:0:0:0:
256,192,29591,1,0,0:0:0:0:
256,192,29811,1,12,0:0:0:0:
256,192,30032,1,0,0:0:0:0:
256,192,30252,1,12,0:0:0:0:
256,192,30473,1,8,0:0:0:0:
256,192,30583,1,8,0:0:0:0:
256,192,30694,1,0,0:0:0:0:
256,192,31135,1,8,0:0:0:0:
256,192,31576,1,8,0:0:0:0:
256,192,31797,1,0,0:0:0:0:
256,192,32017,1,0,0:0:0:0:
256,192,32238,1,8,0:0:0:0:
256,192,32679,1,0,0:0:0:0:
256,192,33120,1,8,0:0:0:0:
256,192,33341,1,0,0:0:0:0:
256,192,33561,1,0,0:0:0:0:
256,192,33782,1,8,0:0:0:0:
256,192,34002,1,8,0:0:0:0:
256,192,34223,1,0,0:0:0:0:
256,192,34664,1,8,0:0:0:0:
256,192,34885,1,0,0:0:0:0:
256,192,35105,1,8,0:0:0:0:
256,192,35326,1,0,0:0:0:0:
256,192,35547,1,0,0:0:0:0:
256,192,35767,1,8,0:0:0:0:
256,192,36208,1,0,0:0:0:0:
256,192,36429,1,8,0:0:0:0:
256,192,36649,1,8,0:0:0:0:
256,192,36870,1,0,0:0:0:0:
256,192,37091,1,8,0:0:0:0:
256,192,37201,1,8,0:0:0:0:
256,192,37311,1,0,0:0:0:0:
256,192,37532,1,8,0:0:0:0:
256,192,37752,1,4,0:0:0:0:
256,192,38194,1,8,0:0:0:0:
256,192,38414,1,0,0:0:0:0:
256,192,38635,1,0,0:0:0:0:
256,192,38855,1,8,0:0:0:0:
256,192,39076,1,0,0:0:0:0:
256,192,39297,1,8,0:0:0:0:
256,192,39738,1,0,0:0:0:0:
256,192,39958,1,0,0:0:0:0:
256,192,40179,1,8,0:0:0:0:
256,192,40399,1,8,0:0:0:0:
256,192,40620,1,0,0:0:0:0:
256,192,40841,1,8,0:0:0:0:
256,192,41061,1,8,0:0:0:0:
256,192,41282,1,0,0:0:0:0:
256,192,41723,1,0,0:0:0:0:
256,192,41944,1,8,0:0:0:0:
256,192,42385,1,8,0:0:0:0:
256,192,42605,1,0,0:0:0:0:
256,192,42826,1,0,0:0:0:0:
256,192,43047,1,8,0:0:0:0:
256,192,43488,1,8,0:0:0:0:
256,192,43708,1,0,0:0:0:0:
256,192,43929,1,8,0:0:0:0:
256,192,44149,1,8,0:0:0:0:
256,192,44370,1,0,0:0:0:0:
256,192,44591,1,8,0:0:0:0:
256,192,44701,1,8,0:0:0:0:
256,192,44811,1,4,0:0:0:0:
256,192,45252,1,8,0:0:0:0:
256,192,45473,1,8,0:0:0:0:
256,192,45694,1,0,0:0:0:0:
256,192,45914,1,0,0:0:0:0:
256,192,46135,1,8,0:0:0:0:
256,192,46355,1,0,0:0:0:0:
256,192,46797,1,0,0:0:0:0:
256,192,47017,1,8,0:0:0:0:
256,192,47238,1,8,0:0:0:0:
256,192,47348,1,8,0:0:0:0:
256,192,47458,1,0,0:0:0:0:
256,192,47679,1,0,0:0:0:0:
256,192,47899,1,8,0:0:0:0:
256,192,48120,1,0,0:0:0:0:
256,192,48341,1,0,0:0:0:0:
256,192,48782,1,8,0:0:0:0:
256,192,49002,1,0,0:0:0:0:
256,192,49223,1,8,0:0:0:0:
256,192,49444,1,8,0:0:0:0:
256,192,49664,1,0,0:0:0:0:
256,192,49885,1,8,0:0:0:0:
256,192,50326,1,0,0:0:0:0:
256,192,50547,1,8,0:0:0:0:
256,192,50767,1,0,0:0:0:0:
256,192,50988,1,8,0:0:0:0:
256,192,51208,1,8,0:0:0:0:
256,192,51429,1,0,0:0:0:0:
256,192,51649,1,8,0:0:0:0:
256,192,51760,1,8,0:0:0:0:
256,192,51870,1,4,0:0:0:0:
256,192,52311,1,0,0:0:0:0:
256,192,52532,1,8,0:0:0:0:
256,192,52752,1,8,0:0:0:0:
256,192,52973,1,0,0:0:0:0:
256,192,53194,1,0,0:0:0:0:
256,192,53414,1,8,0:0:0:0:
256,192,53855,1,0,0:0:0:0:
256,192,54076,1,8,0:0:0:0:
256,192,54297,1,8,0:0:0:0:
256,192,54517,1,0,0:0:0:0:
256,192,54738,1,8,0:0:0:0:
256,192,54848,1,8,0:0:0:0:
256,192,54958,1,8,0:0:0:0:
256,192,55179,1,0,0:0:0:0:
256,192,55399,1,12,0:0:0:0:
256,192,55841,1,0,0:0:0:0:
256,192,56061,1,8,0:0:0:0:
256,192,56282,1,8,0:0:0:0:
256,192,56502,1,0,0:0:0:0:
256,192,56723,1,0,0:0:0:0:
256,192,56944,1,12,0:0:0:0:
256,192,57385,1,0,0:0:0:0:
256,192,57605,1,8,0:0:0:0:
256,192,57826,1,0,0:0:0:0:
256,192,58047,1,8,0:0:0:0:
256,192,58267,1,0,0:0:0:0:
256,192,58377,1,0,0:0:0:0:
256,192,58488,1,0,0:0:0:0:
256,192,58708,1,8,0:0:0:0:
256,192,58819,1,8,0:0:0:0:
256,192,58929,1,4,0:0:0:0:
256,192,59370,1,0,0:0:0:0:
256,192,59591,1,12,0:0:0:0:
256,192,60032,1,0,0:0:0:0:
256,192,60252,1,8,0:0:0:0:
256,192,60473,1,8,0:0:0:0:
256,192,60694,1,4,0:0:0:0:
256,192,61135,1,0,0:0:0:0:
256,192,61355,1,12,0:0:0:0:
256,192,61797,1,0,0:0:0:0:
256,192,62017,1,8,0:0:0:0:
256,192,62238,1,8,0:0:0:0:
256,192,62348,1,8,0:0:0:0:
256,192,62458,1,4,0:0:0:0:
256,192,62899,1,0,0:0:0:0:
256,192,63120,1,12,0:0:0:0:
256,192,63561,1,0,0:0:0:0:
256,192,63782,1,0,0:0:0:0:
256,192,64002,1,0,0:0:0:0:
256,192,64223,1,12,0:0:0:0:
256,192,64664,1,0,0:0:0:0:
256,192,64885,1,12,0:0:0:0:
256,192,65326,1,0,0:0:0:0:
256,192,65547,1,8,0:0:0:0:
256,192,65657,1,8,0:0:0:0:
256,192,65767,1,8,0:0:0:0:
256,192,65877,1,8,0:0:0:0:
256,192,65988,1,0,0:0:0:0:
256,192,66429,1,8,0:0:0:0:
256,192,66649,1,0,0:0:0:0:
256,192,66870,1,8,0:0:0:0:
256,192,67311,1,0,0:0:0:0:
256,192,67532,1,8,0:0:0:0:
256,192,67752,1,0,0:0:0:0:
256,192,68194,1,8,0:0:0:0:
256,192,68414,1,0,0:0:0:0:
256,192,68635,1,8,0:0:0:0:
256,192,68855,1,8,0:0:0:0:
256,192,69076,1,0,0:0:0:0:
256,192,69297,1,0,0:0:0:0:
256,192,69407,1,0,0:0:0:0:
256,192,69517,1,8,0:0:0:0:
256,192,69958,1,8,0:0:0:0:
256,192,70179,1,0,0:0:0:0:
256,192,70399,1,8,0:0:0:0:
256,192,70620,1,0,0:0:0:0:
256,192,70841,1,8,0:0:0:0:
256,192,70951,1,8,0:0:0:0:
256,192,71061,1,0,0:0:0:0:
256,192,71172,1,0,0:0:0:0:
256,192,71282,1,12,0:0:0:0:
256,192,71723,1,0,0:0:0:0:
256,192,71944,1,0,0:0:0:0:
256,192,72164,1,8,0:0:0:0:
256,192,72385,1,8,0:0:0:0:
256,192,72605,1,0,0:0:0:0:
256,192,72826,1,8,0:0:0:0:
256,192,72936,1,8,0:0:0:0:
256,192,73047,1,8,0:0:0:0:
256,192,73488,1,0,0:0:0:0:
256,192,73708,1,8,0:0:0:0:
256,192,74149,1,0,0:0:0:0:
256,192,74370,1,8,0:0:0:0:
256,192,74480,1,8,0:0:0:0:
256,192,74591,1,8,0:0:0:0:
256,192,74701,1,8,0:0:0:0:
256,192,74811,1,4,0:0:0:0:
256,192,75252,1,0,0:0:0:0:
256,192,75472,1,8,0:0:0:0:
256,192,75583,1,8,0:0:0:0:
256,192,75693,1,0,0:0:0:0:
256,192,75913,1,0,0:0:0:0:
256,192,76134,1,8,0:0:0:0:
256,192,76355,1,0,0:0:0:0:
256,192,76796,1,0,0:0:0:0:
256,192,77016,1,8,0:0:0:0:
256,192,77237,1,0,0:0:0:0:
256,192,77347,1,8,0:0:0:0:
256,192,77458,1,0,0:0:0:0:
256,192,77678,1,0,0:0:0:0:
256,192,77899,1,8,0:0:0:0:
256,192,78119,1,0,0:0:0:0:
256,192,78230,1,0,0:0:0:0:
256,192,78340,1,0,0:0:0:0:
256,192,78781,1,8,0:0:0:0:
256,192,79002,1,0,0:0:0:0:
256,192,79112,1,8,0:0:0:0:
256,192,79222,1,0,0:0:0:0:
256,192,79443,1,0,0:0:0:0:
256,192,79663,1,8,0:0:0:0:
256,192,79884,1,0,0:0:0:0:
256,192,80325,1,0,0:0:0:0:
256,192,80546,1,8,0:0:0:0:
256,192,80766,1,8,0:0:0:0:
256,192,80877,1,0,0:0:0:0:
256,192,80987,1,8,0:0:0:0:
256,192,81208,1,0,0:0:0:0:
256,192,81428,1,8,0:0:0:0:
256,192,81538,1,8,0:0:0:0:
256,192,81649,1,0,0:0:0:0:
256,192,81759,1,0,0:0:0:0:
256,192,81869,1,12,0:0:0:0:
256,192,82311,1,8,0:0:0:0:
256,192,82531,1,0,0:0:0:0:
256,192,82641,1,0,0:0:0:0:
256,192,82752,1,8,0:0:0:0:
256,192,82972,1,0,0:0:0:0:
256,192,83193,1,8,0:0:0:0:
256,192,83413,1,8,0:0:0:0:
256,192,83634,1,0,0:0:0:0:
256,192,84075,1,8,0:0:0:0:
256,192,84296,1,0,0:0:0:0:
256,192,84406,1,0,0:0:0:0:
256,192,84516,1,0,0:0:0:0:
256,192,84737,1,0,0:0:0:0:
256,192,84958,1,8,0:0:0:0:
256,192,85178,1,8,0:0:0:0:
256,192,85399,1,4,0:0:0:0:
256,192,85840,1,0,0:0:0:0:
256,192,86061,1,8,0:0:0:0:
256,192,86171,1,0,0:0:0:0:
256,192,86281,1,8,0:0:0:0:
256,192,86502,1,0,0:0:0:0:
256,192,86722,1,8,0:0:0:0:
256,192,86943,1,8,0:0:0:0:
256,192,87163,1,4,0:0:0:0:
256,192,87605,1,8,0:0:0:0:
256,192,87825,1,0,0:0:0:0:
256,192,87936,1,8,0:0:0:0:
256,192,88046,1,0,0:0:0:0:
256,192,88266,1,8,0:0:0:0:
256,192,88487,1,0,0:0:0:0:
256,192,88597,1,0,0:0:0:0:
256,192,88708,1,0,0:0:0:0:
256,192,88818,1,0,0:0:0:0:
256,192,88928,1,12,0:0:0:0:
256,192,89369,1,8,0:0:0:0:
256,192,89590,1,0,0:0:0:0:
256,192,89700,1,0,0:0:0:0:
256,192,89810,1,0,0:0:0:0:
256,192,90031,1,0,0:0:0:0:
256,192,90252,1,8,0:0:0:0:
256,192,90472,1,0,0:0:0:0:
256,192,90913,1,0,0:0:0:0:
256,192,91134,1,8,0:0:0:0:
256,192,91355,1,0,0:0:0:0:
256,192,91465,1,8,0:0:0:0:
256,192,91575,1,0,0:0:0:0:
256,192,91796,1,0,0:0:0:0:
256,192,92016,1,8,0:0:0:0:
256,192,92237,1,0,0:0:0:0:
256,192,92458,1,12,0:0:0:0:
256,192,92678,1,0,0:0:0:0:
256,192,92899,1,0,0:0:0:0:
256,192,93119,1,12,0:0:0:0:
256,192,93560,1,8,0:0:0:0:
256,192,93781,1,0,0:0:0:0:
256,192,94002,1,12,0:0:0:0:
256,192,94443,1,0,0:0:0:0:
256,192,94663,1,8,0:0:0:0:
256,192,94884,1,8,0:0:0:0:
256,192,95105,1,0,0:0:0:0:
256,192,95325,1,0,0:0:0:0:
256,192,95435,1,0,0:0:0:0:
256,192,95546,1,8,0:0:0:0:
256,192,95766,1,8,0:0:0:0:
256,192,95877,1,8,0:0:0:0:
256,192,95987,1,4,0:0:0:0:
256,192,96428,1,8,0:0:0:0:
256,192,96649,1,0,0:0:0:0:
256,192,97090,1,0,0:0:0:0:
256,192,97310,1,8,0:0:0:0:
256,192,97531,1,0,0:0:0:0:
256,192,97972,1,0,0:0:0:0:
256,192,98193,1,8,0:0:0:0:
256,192,98413,1,8,0:0:0:0:
256,192,98634,1,0,0:0:0:0:
256,192,98855,1,0,0:0:0:0:
256,192,99075,1,8,0:0:0:0:
256,192,99296,1,0,0:0:0:0:
256,192,99406,1,0,0:0:0:0:
256,192,99516,1,12,0:0:0:0:
256,192,99737,1,0,0:0:0:0:
256,192,99958,1,0,0:0:0:0:
256,192,100178,1,12,0:0:0:0:
256,192,100619,1,0,0:0:0:0:
256,192,100840,1,0,0:0:0:0:
256,192,101060,1,12,0:0:0:0:
256,192,101502,1,0,0:0:0:0:
256,192,101722,1,8,0:0:0:0:
256,192,101943,1,8,0:0:0:0:
256,192,102163,1,0,0:0:0:0:
256,192,102384,1,0,0:0:0:0:
256,192,102605,1,8,0:0:0:0:
256,192,102715,1,8,0:0:0:0:
256,192,102825,1,0,0:0:0:0:
256,192,102935,1,0,0:0:0:0:
256,192,103046,1,12,0:0:0:0:
256,192,103266,12,0,106575,0:0:0:0:
