osu file format v14

[General]
AudioFilename: audio.ogg
AudioLeadIn: 0
PreviewTime: 73708
Countdown: 0
SampleSet: Normal
StackLeniency: 0.7
Mode: 1
LetterboxInBreaks: 0
WidescreenStoryboard: 1

[Editor]
DistanceSpacing: 0.9
BeatDivisor: 4
GridSize: 32
TimelineZoom: 0.9000005

[Metadata]
Title:Dream with You (TV Size)
TitleUnicode:Dream with You (TV Size)
Artist:Uehara Ayumu (CV: Onishi Aguri)
ArtistUnicode:上原歩夢 (CV: 大西亜玖璃)
Creator:Sammu
Version:Ninym's Muzukashii
Source:ラブライブ!虹ヶ咲学園スクールアイドル同好会
Tags:love live! lovelive! Nijigasaki High School Idol Club ニジガク NijiGaku festival all stars sifas フェスティバル オールスターズ スクスタ japanese anime insert j-pop jpop pop Ayaka Miyake mitsuyuki Carlos K. Ōnishi Oonishi Ohnishi gakuen doukoukai dōkōkai pomu -maruko- maruko Ninym_ Ninym blackbn blackbq
BeatmapID:4438653
BeatmapSetID:2113940

[Difficulty]
HPDrainRate:6
CircleSize:2
OverallDifficulty:5
ApproachRate:10
SliderMultiplier:1.4
SliderTickRate:1

[Events]
//Background and Video events
0,0,"pomu.jpg",0,0
Video,512,"ayumuwu.mp4"
//Break Periods
//Storyboard Layer 0 (Background)
//Storyboard Layer 1 (Fail)
//Storyboard Layer 2 (Pass)
//Storyboard Layer 3 (Foreground)
//Storyboard Layer 4 (Overlay)
//Storyboard Sound Samples

[TimingPoints]
-4600,441.176470588235,4,1,0,60,1,0
13047,-100,4,1,0,60,0,0
13267,-100,4,1,0,61,0,0
13488,-100,4,1,0,62,0,0
13708,-100,4,1,0,63,0,0
13929,-100,4,1,0,64,0,0
14370,-100,4,1,0,66,0,0
14591,-100,4,1,0,67,0,0
14811,-100,4,1,0,67,0,0
15032,-100,4,1,0,68,0,0
15252,-100,4,1,0,69,0,0
15363,-100,4,1,0,70,0,0
15473,-100,4,1,0,70,0,0
15694,-100,4,1,0,71,0,0
15804,-100,4,1,0,72,0,0
16135,-100,4,1,0,73,0,0
16355,-100,4,1,0,74,0,0
16576,-100,4,1,0,75,0,0
74811,441.176470588235,4,1,0,85,1,1
103046,-100,4,1,0,85,0,0

[HitObjects]
256,192,9517,5,0,0:0:0:0:
256,192,9738,1,0,0:0:0:0:
256,192,9958,1,0,0:0:0:0:
256,192,10179,1,8,0:0:0:0:
256,192,10620,1,8,0:0:0:0:
256,192,11282,1,0,0:0:0:0:
256,192,11502,1,0,0:0:0:0:
256,192,11723,1,8,0:0:0:0:
256,192,11944,1,0,0:0:0:0:
256,192,12385,1,8,0:0:0:0:
256,192,12605,1,8,0:0:0:0:
256,192,12826,1,0,0:0:0:0:
256,192,13047,1,8,0:0:0:0:
256,192,13157,1,8,0:0:0:0:
256,192,13267,1,8,0:0:0:0:
256,192,13488,1,0,0:0:0:0:
256,192,13708,1,8,0:0:0:0:
256,192,13929,1,0,0:0:0:0:
256,192,14370,1,0,0:0:0:0:
256,192,14591,1,8,0:0:0:0:
256,192,14811,1,8,0:0:0:0:
256,192,15032,1,0,0:0:0:0:
256,192,15252,1,8,0:0:0:0:
256,192,15363,1,8,0:0:0:0:
256,192,15473,1,8,0:0:0:0:
256,192,15694,1,8,0:0:0:0:
256,192,15804,1,8,0:0:0:0:
256,192,16135,1,8,0:0:0:0:
256,192,16355,1,0,0:0:0:0:
256,192,16576,1,4,0:0:0:0:
256,192,17238,1,0,0:0:0:0:
256,192,17458,1,0,0:0:0:0:
256,192,17679,1,0,0:0:0:0:
256,192,17899,1,8,0:0:0:0:
256,192,18120,1,0,0:0:0:0:
256,192,18781,1,0,0:0:0:0:
256,192,19002,1,8,0:0:0:0:
256,192,19223,1,8,0:0:0:0:
256,192,19444,1,0,0:0:0:0:
256,192,19664,1,8,0:0:0:0:
256,192,19885,1,0,0:0:0:0:
256,192,20105,1,0,0:0:0:0:
256,192,20547,1,8,0:0:0:0:
256,192,20767,1,0,0:0:0:0:
256,192,20988,1,0,0:0:0:0:
256,192,21208,1,8,0:0:0:0:
256,192,21429,1,0,0:0:0:0:
256,192,21649,1,8,0:0:0:0:
256,192,22311,1,0,0:0:0:0:
256,192,22532,1,8,0:0:0:0:
256,192,22752,1,8,0:0:0:0:
256,192,22973,1,0,0:0:0:0:
256,192,23194,1,8,0:0:0:0:
256,192,23414,1,0,0:0:0:0:
256,192,23635,1,4,0:0:0:0:
256,192,24076,1,0,0:0:0:0:
256,192,24297,1,8,0:0:0:0:
256,192,24517,1,0,0:0:0:0:
256,192,24738,1,8,0:0:0:0:
256,192,24958,1,8,0:0:0:0:
256,192,25179,1,4,0:0:0:0:
256,192,25841,1,0,0:0:0:0:
256,192,26061,1,8,0:0:0:0:
256,192,26282,1,0,0:0:0:0:
256,192,26502,1,8,0:0:0:0:
256,192,26723,1,8,0:0:0:0:
256,192,26944,1,8,0:0:0:0:
256,192,27164,1,4,0:0:0:0:
256,192,27605,1,0,0:0:0:0:
256,192,27826,1,0,0:0:0:0:
256,192,28047,1,8,0:0:0:0:
256,192,28157,1,8,0:0:0:0:
256,192,28267,1,8,0:0:0:0:
256,192,28488,1,0,0:0:0:0:
256,192,28708,1,8,0:0:0:0:
256,192,29149,1,12,0:0:0:0:
256,192,29370,1,8,0:0:0:0:
256,192,29591,1,0,0:0:0:0:
256,192,29811,1,12,0:0:0:0:
256,192,30032,1,0,0:0:0:0:
256,192,30252,1,8,0:0:0:0:
256,192,30473,1,0,0:0:0:0:
256,192,30694,1,0,0:0:0:0:
256,192,31135,1,8,0:0:0:0:
256,192,31576,1,8,0:0:0:0:
256,192,32017,1,0,0:0:0:0:
256,192,32238,1,8,0:0:0:0:
256,192,32679,1,0,0:0:0:0:
256,192,33120,1,8,0:0:0:0:
256,192,33561,1,0,0:0:0:0:
256,192,33782,1,8,0:0:0:0:
256,192,34002,1,0,0:0:0:0:
256,192,34223,1,0,0:0:0:0:
256,192,34664,1,8,0:0:0:0:
256,192,34885,1,0,0:0:0:0:
256,192,35105,1,0,0:0:0:0:
256,192,35547,1,8,0:0:0:0:
256,192,35767,1,0,0:0:0:0:
256,192,36208,1,8,0:0:0:0:
256,192,36870,1,8,0:0:0:0:
256,192,37311,1,0,0:0:0:0:
256,192,37532,1,0,0:0:0:0:
256,192,37752,1,12,0:0:0:0:
256,192,38194,1,8,0:0:0:0:
256,192,38414,1,0,0:0:0:0:
256,192,38855,1,8,0:0:0:0:
256,192,39297,1,8,0:0:0:0:
256,192,39738,1,0,0:0:0:0:
256,192,40179,1,8,0:0:0:0:
256,192,40399,1,8,0:0:0:0:
256,192,40620,1,0,0:0:0:0:
256,192,41061,1,0,0:0:0:0:
256,192,41282,1,8,0:0:0:0:
256,192,41723,1,0,0:0:0:0:
256,192,41944,1,8,0:0:0:0:
256,192,42164,1,0,0:0:0:0:
256,192,42385,1,8,0:0:0:0:
256,192,42826,1,0,0:0:0:0:
256,192,43488,1,0,0:0:0:0:
256,192,43708,1,8,0:0:0:0:
256,192,43929,1,0,0:0:0:0:
256,192,44039,1,0,0:0:0:0:
256,192,44149,1,0,0:0:0:0:
256,192,44370,1,8,0:0:0:0:
256,192,44811,1,4,0:0:0:0:
256,192,45252,1,8,0:0:0:0:
256,192,45473,1,0,0:0:0:0:
256,192,45694,1,8,0:0:0:0:
256,192,46135,1,0,0:0:0:0:
256,192,46355,1,8,0:0:0:0:
256,192,46797,1,0,0:0:0:0:
256,192,47017,1,0,0:0:0:0:
256,192,47238,1,8,0:0:0:0:
256,192,47679,1,0,0:0:0:0:
256,192,47899,1,8,0:0:0:0:
256,192,48120,1,0,0:0:0:0:
256,192,48341,1,0,0:0:0:0:
256,192,48782,1,8,0:0:0:0:
256,192,49002,1,0,0:0:0:0:
256,192,49223,1,8,0:0:0:0:
256,192,49664,1,0,0:0:0:0:
256,192,49885,1,8,0:0:0:0:
256,192,50326,1,8,0:0:0:0:
256,192,51208,1,8,0:0:0:0:
256,192,51429,1,8,0:0:0:0:
256,192,51649,1,0,0:0:0:0:
256,192,51870,1,12,0:0:0:0:
256,192,52311,1,0,0:0:0:0:
256,192,52532,1,8,0:0:0:0:
256,192,52973,1,8,0:0:0:0:
256,192,53194,1,0,0:0:0:0:
256,192,53414,1,8,0:0:0:0:
256,192,53855,1,0,0:0:0:0:
256,192,54076,1,8,0:0:0:0:
256,192,54297,1,0,0:0:0:0:
256,192,54517,1,0,0:0:0:0:
256,192,54738,1,8,0:0:0:0:
256,192,55179,1,0,0:0:0:0:
256,192,55399,1,12,0:0:0:0:
256,192,55841,1,0,0:0:0:0:
256,192,56061,1,8,0:0:0:0:
256,192,56282,1,0,0:0:0:0:
256,192,56502,1,8,0:0:0:0:
256,192,56723,1,8,0:0:0:0:
256,192,56944,1,4,0:0:0:0:
256,192,57605,1,0,0:0:0:0:
256,192,57826,1,0,0:0:0:0:
256,192,58047,1,8,0:0:0:0:
256,192,58267,1,0,0:0:0:0:
256,192,58377,1,0,0:0:0:0:
256,192,58488,1,0,0:0:0:0:
256,192,58708,1,8,0:0:0:0:
256,192,58929,1,4,0:0:0:0:
256,192,59370,1,0,0:0:0:0:
256,192,59591,1,12,0:0:0:0:
256,192,60032,1,0,0:0:0:0:
256,192,60252,1,8,0:0:0:0:
256,192,60473,1,8,0:0:0:0:
256,192,60694,1,4,0:0:0:0:
256,192,61135,1,0,0:0:0:0:
256,192,61355,1,12,0:0:0:0:
256,192,61797,1,0,0:0:0:0:
256,192,61907,1,0,0:0:0:0:
256,192,62017,1,0,0:0:0:0:
256,192,62238,1,8,0:0:0:0:
256,192,62458,1,4,0:0:0:0:
256,192,62899,1,0,0:0:0:0:
256,192,63120,1,12,0:0:0:0:
256,192,63561,1,0,0:0:0:0:
256,192,63782,1,0,0:0:0:0:
256,192,64002,1,8,0:0:0:0:
256,192,64223,1,4,0:0:0:0:
256,192,64664,1,0,0:0:0:0:
256,192,64885,1,12,0:0:0:0:
256,192,65547,1,0,0:0:0:0:
256,192,65767,1,0,0:0:0:0:
256,192,65988,1,8,0:0:0:0:
256,192,66429,1,8,0:0:0:0:
256,192,66649,1,0,0:0:0:0:
256,192,66870,1,8,0:0:0:0:
256,192,67311,1,0,0:0:0:0:
256,192,67532,1,8,0:0:0:0:
256,192,67752,1,0,0:0:0:0:
256,192,68194,1,8,0:0:0:0:
256,192,68414,1,0,0:0:0:0:
256,192,68635,1,0,0:0:0:0:
256,192,68855,1,8,0:0:0:0:
256,192,69076,1,0,0:0:0:0:
256,192,69517,1,0,0:0:0:0:
256,192,69738,1,8,0:0:0:0:
256,192,69958,1,8,0:0:0:0:
256,192,70179,1,0,0:0:0:0:
256,192,70399,1,8,0:0:0:0:
256,192,70841,1,0,0:0:0:0:
256,192,71061,1,8,0:0:0:0:
256,192,71282,1,4,0:0:0:0:
256,192,71723,1,0,0:0:0:0:
256,192,71944,1,0,0:0:0:0:
256,192,72164,1,8,0:0:0:0:
256,192,72385,1,8,0:0:0:0:
256,192,72605,1,0,0:0:0:0:
256,192,72826,1,8,0:0:0:0:
256,192,72936,1,8,0:0:0:0:
256,192,73047,1,8,0:0:0:0:
256,192,74370,1,8,0:0:0:0:
256,192,74591,1,0,0:0:0:0:
256,192,74811,1,12,0:0:0:0:
256,192,75252,1,0,0:0:0:0:
256,192,75472,1,8,0:0:0:0:
256,192,75693,1,8,0:0:0:0:
256,192,75913,1,0,0:0:0:0:
256,192,76134,1,8,0:0:0:0:
256,192,76355,1,0,0:0:0:0:
256,192,77016,1,0,0:0:0:0:
256,192,77237,1,8,0:0:0:0:
256,192,77347,1,8,0:0:0:0:
256,192,77458,1,8,0:0:0:0:
256,192,77678,1,0,0:0:0:0:
256,192,77899,1,0,0:0:0:0:
256,192,78119,1,8,0:0:0:0:
256,192,78340,1,0,0:0:0:0:
256,192,78781,1,0,0:0:0:0:
256,192,79002,1,0,0:0:0:0:
256,192,79222,1,8,0:0:0:0:
256,192,79443,1,8,0:0:0:0:
256,192,79553,1,8,0:0:0:0:
256,192,79663,1,8,0:0:0:0:
256,192,79884,1,0,0:0:0:0:
256,192,80325,1,8,0:0:0:0:
256,192,80546,1,0,0:0:0:0:
256,192,80766,1,8,0:0:0:0:
256,192,80987,1,8,0:0:0:0:
256,192,81208,1,0,0:0:0:0:
256,192,81428,1,8,0:0:0:0:
256,192,81649,1,0,0:0:0:0:
256,192,81759,1,0,0:0:0:0:
256,192,81869,1,0,0:0:0:0:
256,192,82531,1,8,0:0:0:0:
256,192,82752,1,0,0:0:0:0:
256,192,82972,1,8,0:0:0:0:
256,192,83193,1,0,0:0:0:0:
256,192,83413,1,8,0:0:0:0:
256,192,83524,1,8,0:0:0:0:
256,192,83634,1,8,0:0:0:0:
256,192,84075,1,0,0:0:0:0:
256,192,84296,1,8,0:0:0:0:
256,192,84516,1,0,0:0:0:0:
256,192,84737,1,8,0:0:0:0:
256,192,84958,1,8,0:0:0:0:
256,192,85178,1,0,0:0:0:0:
256,192,85399,1,12,0:0:0:0:
256,192,85840,1,0,0:0:0:0:
256,192,86061,1,8,0:0:0:0:
256,192,86171,1,8,0:0:0:0:
256,192,86281,1,8,0:0:0:0:
256,192,86502,1,8,0:0:0:0:
256,192,86722,1,0,0:0:0:0:
256,192,86943,1,8,0:0:0:0:
256,192,87163,1,12,0:0:0:0:
256,192,87605,1,0,0:0:0:0:
256,192,87825,1,8,0:0:0:0:
256,192,88266,1,0,0:0:0:0:
256,192,88487,1,8,0:0:0:0:
256,192,88708,1,8,0:0:0:0:
256,192,88928,1,4,0:0:0:0:
256,192,89369,1,8,0:0:0:0:
256,192,89590,1,0,0:0:0:0:
256,192,89700,1,0,0:0:0:0:
256,192,89810,1,0,0:0:0:0:
256,192,90031,1,8,0:0:0:0:
256,192,90252,1,8,0:0:0:0:
256,192,90472,1,0,0:0:0:0:
256,192,91134,1,0,0:0:0:0:
256,192,91355,1,8,0:0:0:0:
256,192,91575,1,8,0:0:0:0:
256,192,91796,1,0,0:0:0:0:
256,192,92016,1,8,0:0:0:0:
256,192,92237,1,0,0:0:0:0:
256,192,92458,1,12,0:0:0:0:
256,192,92899,1,8,0:0:0:0:
256,192,93119,1,4,0:0:0:0:
256,192,93560,1,0,0:0:0:0:
256,192,93671,1,0,0:0:0:0:
256,192,93781,1,0,0:0:0:0:
256,192,94002,1,12,0:0:0:0:
256,192,94443,1,0,0:0:0:0:
256,192,94663,1,8,0:0:0:0:
256,192,94884,1,0,0:0:0:0:
256,192,95105,1,8,0:0:0:0:
256,192,95325,1,8,0:0:0:0:
256,192,95546,1,0,0:0:0:0:
256,192,95766,1,8,0:0:0:0:
256,192,95987,1,4,0:0:0:0:
256,192,96428,1,8,0:0:0:0:
256,192,96649,1,0,0:0:0:0:
256,192,96759,1,0,0:0:0:0:
256,192,96869,1,0,0:0:0:0:
256,192,97090,1,8,0:0:0:0:
256,192,97310,1,0,0:0:0:0:
256,192,97531,1,8,0:0:0:0:
256,192,97972,1,8,0:0:0:0:
256,192,98413,1,0,0:0:0:0:
256,192,98855,1,8,0:0:0:0:
256,192,99075,1,0,0:0:0:0:
256,192,99296,1,0,0:0:0:0:
256,192,99516,1,12,0:0:0:0:
256,192,99737,1,8,0:0:0:0:
256,192,99958,1,0,0:0:0:0:
256,192,100178,1,12,0:0:0:0:
256,192,100619,1,0,0:0:0:0:
256,192,100840,1,0,0:0:0:0:
256,192,101060,1,12,0:0:0:0:
256,192,101502,1,8,0:0:0:0:
256,192,101722,1,0,0:0:0:0:
256,192,101943,1,8,0:0:0:0:
256,192,102163,1,0,0:0:0:0:
256,192,102384,1,0,0:0:0:0:
256,192,102605,1,8,0:0:0:0:
256,192,102715,1,8,0:0:0:0:
256,192,102825,1,8,0:0:0:0:
256,192,103046,1,4,0:0:0:0:
256,192,103266,12,0,106575,0:0:0:0:
