osu file format v14

[General]
AudioFilename: audio.ogg
AudioLeadIn: 0
PreviewTime: 73708
Countdown: 0
SampleSet: Normal
StackLeniency: 0.7
Mode: 1
LetterboxInBreaks: 0
WidescreenStoryboard: 1

[Editor]
Bookmarks: 9517,16576,30694,44811,58929,65988,74811,88928
DistanceSpacing: 0.9
BeatDivisor: 4
GridSize: 32
TimelineZoom: 0.7999998

[Metadata]
Title:Dream with You (TV Size)
TitleUnicode:Dream with You (TV Size)
Artist:Uehara Ayumu (CV: Onishi Aguri)
ArtistUnicode:上原歩夢 (CV: 大西亜玖璃)
Creator:Sammu
Version:Maruko's Kantan
Source:ラブライブ!虹ヶ咲学園スクールアイドル同好会
Tags:love live! lovelive! Nijigasaki High School Idol Club ニジガク NijiGaku festival all stars sifas フェスティバル オールスターズ スクスタ japanese anime insert j-pop jpop pop Ayaka Miyake mitsuyuki Carlos K. Ōnishi Oonishi Ohnishi gakuen doukoukai dōkōkai pomu -maruko- maruko Ninym_ Ninym blackbn blackbq
BeatmapID:4438652
BeatmapSetID:2113940

[Difficulty]
HPDrainRate:8
CircleSize:2
OverallDifficulty:3
ApproachRate:10
SliderMultiplier:1.4
SliderTickRate:1

[Events]
//Background and Video events
0,0,"pomu.jpg",0,0
Video,512,"ayumuwu.mp4"
//Break Periods
//Storyboard Layer 0 (Background)
//Storyboard Layer 1 (Fail)
//Storyboard Layer 2 (Pass)
//Storyboard Layer 3 (Foreground)
//Storyboard Layer 4 (Overlay)
//Storyboard Sound Samples

[TimingPoints]
-4600,441.176470588235,4,1,0,60,1,0
12936,-100,4,1,0,70,0,0
16576,-100,4,1,0,75,0,0
74811,441.176470588235,4,1,0,85,1,1
103046,-100,4,1,0,85,0,0

[HitObjects]
256,192,9517,5,0,0:0:0:0:
256,192,10179,1,8,0:0:0:0:
256,192,11282,1,0,0:0:0:0:
256,192,11944,1,8,0:0:0:0:
256,192,13047,1,0,0:0:0:0:
256,192,13708,1,0,0:0:0:0:
256,192,14370,1,0,0:0:0:0:
256,192,14811,1,8,0:0:0:0:
256,192,16135,1,8,0:0:0:0:
384,96,16576,1,4,0:0:0:0:
256,192,17238,1,0,0:0:0:0:
256,192,17899,1,8,0:0:0:0:
256,192,18341,1,0,0:0:0:0:
256,192,18782,1,8,0:0:0:0:
256,192,19223,1,8,0:0:0:0:
256,192,20105,1,8,0:0:0:0:
256,192,20767,1,0,0:0:0:0:
256,192,21429,1,8,0:0:0:0:
256,192,21870,1,0,0:0:0:0:
256,192,22311,1,0,0:0:0:0:
256,192,22752,1,8,0:0:0:0:
352,96,23635,1,4,0:0:0:0:
256,192,24297,1,8,0:0:0:0:
256,192,24738,1,0,0:0:0:0:
256,192,25179,1,8,0:0:0:0:
256,192,26061,1,0,0:0:0:0:
256,192,26723,1,8,0:0:0:0:
352,96,27164,1,4,0:0:0:0:
256,192,28047,1,8,0:0:0:0:
256,192,28708,1,0,0:0:0:0:
352,96,29149,1,12,0:0:0:0:
256,192,30694,1,4,0:0:0:0:
256,192,31576,1,8,0:0:0:0:
256,192,32238,1,0,0:0:0:0:
256,192,33120,1,0,0:0:0:0:
256,192,33782,1,8,0:0:0:0:
256,192,34664,1,8,0:0:0:0:
256,192,35105,1,0,0:0:0:0:
256,192,35767,1,8,0:0:0:0:
352,96,37752,1,4,0:0:0:0:
256,192,38414,1,8,0:0:0:0:
256,192,39297,1,8,0:0:0:0:
256,192,40179,1,0,0:0:0:0:
256,192,41282,1,0,0:0:0:0:
256,192,41944,1,8,0:0:0:0:
256,192,42826,1,8,0:0:0:0:
352,96,44811,1,4,0:0:0:0:
256,192,45694,1,8,0:0:0:0:
256,192,46355,1,0,0:0:0:0:
256,192,47238,1,0,0:0:0:0:
256,192,47899,1,8,0:0:0:0:
256,192,48782,1,0,0:0:0:0:
256,192,49223,1,0,0:0:0:0:
256,192,49885,1,0,0:0:0:0:
256,192,50326,1,8,0:0:0:0:
352,96,51870,1,4,0:0:0:0:
256,192,52532,1,0,0:0:0:0:
256,192,53414,1,8,0:0:0:0:
256,192,54297,1,0,0:0:0:0:
256,192,54738,1,8,0:0:0:0:
256,192,55399,1,0,0:0:0:0:
256,192,56061,1,0,0:0:0:0:
256,192,56944,1,8,0:0:0:0:
256,192,58047,1,0,0:0:0:0:
384,96,58929,1,12,0:0:0:0:
256,192,59591,1,12,0:0:0:0:
256,192,60694,1,4,0:0:0:0:
256,192,61355,1,4,0:0:0:0:
256,192,62458,1,12,0:0:0:0:
256,192,63120,1,12,0:0:0:0:
256,192,64223,1,4,0:0:0:0:
256,192,64885,1,4,0:0:0:0:
256,192,65988,1,8,0:0:0:0:
256,192,66870,1,0,0:0:0:0:
256,192,67752,1,0,0:0:0:0:
256,192,68635,1,8,0:0:0:0:
256,192,69076,1,0,0:0:0:0:
256,192,69517,1,8,0:0:0:0:
256,192,70841,1,0,0:0:0:0:
256,192,71282,1,8,0:0:0:0:
256,192,72164,1,0,0:0:0:0:
256,192,72605,1,0,0:0:0:0:
256,192,73047,1,8,0:0:0:0:
352,96,74811,5,4,0:0:0:0:
256,192,75252,1,8,0:0:0:0:
256,192,76134,1,0,0:0:0:0:
256,192,77237,1,8,0:0:0:0:
256,192,77899,1,0,0:0:0:0:
256,192,78340,1,0,0:0:0:0:
256,192,78781,1,8,0:0:0:0:
256,192,79663,1,8,0:0:0:0:
256,192,80766,1,8,0:0:0:0:
256,192,81428,1,0,0:0:0:0:
256,192,81869,1,8,0:0:0:0:
256,192,82752,1,0,0:0:0:0:
256,192,83193,1,0,0:0:0:0:
256,192,83634,1,8,0:0:0:0:
256,192,84516,1,0,0:0:0:0:
256,192,85399,1,8,0:0:0:0:
256,192,86061,1,0,0:0:0:0:
256,192,86722,1,0,0:0:0:0:
256,192,87163,1,8,0:0:0:0:
352,96,88928,1,4,0:0:0:0:
256,192,89369,1,8,0:0:0:0:
256,192,90252,1,0,0:0:0:0:
256,192,91355,1,0,0:0:0:0:
256,192,92016,1,8,0:0:0:0:
352,96,92458,1,4,0:0:0:0:
352,96,93119,1,4,0:0:0:0:
352,96,94002,1,12,0:0:0:0:
256,192,94884,1,0,0:0:0:0:
256,192,95546,1,8,0:0:0:0:
256,192,95987,1,8,0:0:0:0:
256,192,96428,1,0,0:0:0:0:
256,192,97090,1,0,0:0:0:0:
256,192,97531,1,8,0:0:0:0:
256,192,97972,1,0,0:0:0:0:
256,192,98413,1,0,0:0:0:0:
256,192,98855,1,8,0:0:0:0:
352,96,99516,1,12,0:0:0:0:
256,192,100178,1,0,0:0:0:0:
256,192,100619,1,0,0:0:0:0:
256,192,101060,1,0,0:0:0:0:
256,192,101502,1,8,0:0:0:0:
256,192,101943,1,0,0:0:0:0:
256,192,102605,1,8,0:0:0:0:
352,96,103046,1,4,0:0:0:0:
256,192,103266,12,0,106575,0:0:0:0:
