osu file format v14

[General]
AudioFilename: audio.mp3
AudioLeadIn: 0
PreviewTime: 49313
Countdown: 0
SampleSet: Soft
StackLeniency: 0.6
Mode: 0
LetterboxInBreaks: 0
WidescreenStoryboard: 1

[Editor]
Bookmarks: 564,8699,20902,33106,49377,65648,81919
DistanceSpacing: 1
BeatDivisor: 8
GridSize: 8
TimelineZoom: 1.5

[Metadata]
Title:Literature (TV Size)
TitleUnicode:リテラチュア (TV Size)
Artist:Ueda Reina
ArtistUnicode:上田麗奈
Creator:newton-
Version:Insane
Source:魔女の旅々
Tags:wandering witch: the journey of elaina majo no tabitabi anime jpop j-pop japanese pop イレイナ opening op ashen
BeatmapID:2786493
BeatmapSetID:1345462

[Difficulty]
HPDrainRate:5
CircleSize:3.5
OverallDifficulty:7.5
ApproachRate:8.5
SliderMultiplier:2
SliderTickRate:1

[Events]
//Background and Video events
0,0,"cute.jpg",0,0
Video,54,"video.mp4"
//Break Periods
//Storyboard Layer 0 (Background)
//Storyboard Layer 1 (Fail)
//Storyboard Layer 2 (Pass)
//Storyboard Layer 3 (Foreground)
//Storyboard Layer 4 (Overlay)
//Storyboard Sound Samples

[TimingPoints]
564,508.474576271186,4,2,6,50,1,0
564,-142.857142857143,4,2,6,50,0,0
8699,-100,4,2,6,40,0,0
20902,-83.3333333333333,4,2,6,60,0,0
33106,-125,4,2,6,50,0,0
41305,-125,4,2,6,5,0,0
41368,-125,4,2,6,50,0,0
43339,-125,4,2,6,5,0,0
43402,-125,4,2,6,50,0,0
44102,-125,4,2,6,5,0,0
44165,-125,4,2,6,50,0,0
44864,-125,4,2,6,5,0,0
44927,-125,4,2,6,50,0,0
45309,-83.3333333333333,4,2,6,60,0,0
45436,-83.3333333333333,4,2,6,5,0,0
45563,-83.3333333333333,4,2,6,60,0,0
45690,-83.3333333333333,4,2,6,5,0,0
45818,-83.3333333333333,4,2,6,70,0,0
45945,-83.3333333333333,4,2,6,5,0,0
46072,-83.3333333333333,4,2,6,70,0,0
46199,-83.3333333333333,4,2,6,5,0,0
46326,-83.3333333333333,4,2,6,80,0,0
46453,-83.3333333333333,4,2,6,5,0,0
46580,-83.3333333333333,4,2,6,80,0,0
46707,-83.3333333333333,4,2,6,5,0,0
46835,-83.3333333333333,4,2,6,80,0,0
46962,-83.3333333333333,4,2,6,5,0,0
47089,-83.3333333333333,4,2,6,80,0,0
47216,-83.3333333333333,4,2,6,5,0,0
47343,-66.6666666666667,4,2,6,70,0,0
49250,-66.6666666666667,4,2,6,5,0,0
49377,-66.6666666666667,4,2,6,80,0,1
65140,-66.6666666666667,4,2,6,80,0,0
65648,-66.6666666666667,4,2,6,80,0,1
79886,-100,4,2,6,50,0,0

[Colours]
Combo1 : 255,94,55
Combo2 : 173,255,95
Combo3 : 17,254,176
Combo4 : 255,88,100

[HitObjects]
126,182,564,6,0,P|122:130|127:78,2,104.999996795654,2|2|2,0:0|0:0|0:0,0:0:0:0:
93,287,1580,6,0,P|140:276|176:274,1,69.9999978637696,2|0,0:0|0:0,0:0:0:0:
188,253,1962,2,0,P|238:266|290:270,1,104.999996795654,2|2,0:0|0:0,0:0:0:0:
385,310,2597,6,0,L|378:240,1,69.9999978637696,2|0,0:0|0:0,0:0:0:0:
407,224,2979,2,0,L|416:119,1,104.999996795654,2|2,0:0|0:0,0:0:0:0:
344,63,3614,5,2,0:0:0:0:
344,63,3869,1,2,0:0:0:0:
258,154,4123,2,0,L|327:147,1,69.9999978637696,2|2,0:0|0:0,0:0:0:0:
224,72,4631,6,0,P|177:61|141:59,1,69.9999978637696,2|0,0:0|0:0,0:0:0:0:
129,38,5013,2,0,P|79:51|27:55,1,104.999996795654,2|2,0:0|0:0,0:0:0:0:
109,135,5648,6,0,L|95:245,2,104.999996795654,2|2|2,0:0|0:0|0:0,0:0:0:0:
13,179,6665,1,2,0:0:0:0:
256,192,6792,12,0,7682,0:0:0:0:
158,252,8445,5,2,0:0:0:0:
287,289,8699,2,0,P|249:257|241:209,1,100,2|2,0:0|0:0,0:0:0:0:
268,193,9080,2,0,P|276:144|314:114,1,100,2|2,0:0|0:0,0:0:0:0:
413,103,9462,2,0,L|189:83,1,200,2|2,0:0|0:0,0:0:0:0:
125,76,10225,1,2,0:0:0:0:
178,4,10479,1,2,0:0:0:0:
160,157,10733,6,0,P|156:222|164:281,1,100,2|0,0:0|0:0,0:0:0:0:
127,353,11114,2,0,P|130:303|126:253,1,100,2|0,0:0|0:0,0:0:0:0:
67,181,11496,1,2,0:0:0:0:
67,181,12513,1,2,0:0:0:0:
67,181,12767,6,0,P|98:143|146:135,1,100,2|2,0:0|0:0,0:0:0:0:
163,162,13148,2,0,P|211:170|241:208,1,100,2|2,0:0|0:0,0:0:0:0:
281,293,13530,2,0,P|272:193|278:93,1,200,2|2,0:0|0:0,0:0:0:0:
356,50,14292,1,2,0:0:0:0:
399,127,14547,1,2,0:0:0:0:
491,23,14801,6,0,P|486:72|490:122,1,100,2|0,0:0|0:0,0:0:0:0:
500,155,15182,2,0,P|504:204|500:254,1,100,2|0,0:0|0:0,0:0:0:0:
464,331,15563,1,2,0:0:0:0:
464,331,16326,2,0,L|352:321,1,100,2|2,0:0|0:0,0:0:0:0:
278,357,16835,6,0,P|252:314|261:267,1,100,2|2,0:0|0:0,0:0:0:0:
278,169,17216,2,0,P|303:211|294:258,1,100,2|2,0:0|0:0,0:0:0:0:
167,332,17597,1,0,0:0:0:0:
167,332,18614,2,0,L|117:327,1,50,2|2,0:0|0:0,0:0:0:0:
0,270,18869,6,0,P|48:261|79:224,1,100,2|2,0:0|0:0,0:0:0:0:
110,129,19250,2,0,P|106:178|110:228,1,100,2|2,0:0|0:0,0:0:0:0:
199,250,19631,2,0,L|248:245,1,50,0|2,0:0|0:0,0:0:0:0:
361,168,19886,1,2,0:0:0:0:
361,168,20902,5,0,3:2:0:0:
361,168,21157,2,0,L|355:108,1,59.9999981689454,2|0,0:0|0:0,0:0:0:0:
285,44,21411,2,0,P|248:88|190:86,1,119.999996337891,2|2,0:0|3:2,0:0:0:0:
123,31,21792,1,2,0:0:0:0:
123,31,21919,1,8,0:0:0:0:
0,161,22174,2,0,L|59:155,1,59.9999981689454,2|0,0:0|0:0,0:0:0:0:
153,166,22428,2,0,L|33:176,1,119.999996337891,2|2,0:0|0:0,0:0:0:0:
34,343,22936,6,0,P|70:298|128:300,1,119.999996337891,2|0,3:2|0:0,0:0:0:0:
199,245,23318,2,0,P|235:289|293:287,1,119.999996337891,2|0,0:0|0:0,0:0:0:0:
359,232,23699,1,2,3:2:0:0:
359,232,23953,1,2,0:3:0:0:
359,232,24970,6,0,L|349:112,1,119.999996337891,0|2,3:2|0:0,0:0:0:0:
444,71,25479,2,0,P|406:115|348:112,1,119.999996337891,2|2,0:0|3:2,0:0:0:0:
284,53,25860,1,2,0:0:0:0:
284,53,25987,1,8,0:0:0:0:
195,196,26241,2,0,L|201:137,1,59.9999981689454,2|0,0:0|0:0,0:0:0:0:
190,43,26495,2,0,L|180:163,1,119.999996337891,2|2,0:0|3:2,0:0:0:0:
106,208,26877,1,0,3:2:0:0:
106,208,27004,5,2,3:2:0:0:
231,303,27258,2,0,L|172:309,1,59.9999981689454,0|2,0:0|0:0,0:0:0:0:
78,298,27512,2,0,L|198:288,1,119.999996337891,0|2,0:0|3:2,0:0:0:0:
310,345,28021,1,2,0:3:0:0:
310,345,28530,2,0,P|367:347|405:303,1,119.999996337891,2|2,0:0|0:0,0:0:0:0:
428,215,28911,1,0,0:0:0:0:
428,215,29038,6,0,L|418:95,1,119.999996337891,2|2,3:2|0:0,0:0:0:0:
487,31,29419,1,2,0:0:0:0:
487,31,29547,1,0,3:2:0:0:
334,177,29801,2,0,L|275:171,1,59.9999981689454,0|2,0:0|0:0,0:0:0:0:
252,195,30055,2,0,L|132:185,2,119.999996337891,0|0|0,3:2|0:0|3:2,0:0:0:0:
291,299,30818,5,2,3:2:0:0:
291,299,30945,1,0,3:2:0:0:
291,299,31072,2,0,P|234:297|196:341,1,119.999996337891,2|2,3:2|0:0,0:0:0:0:
121,296,31453,2,0,L|62:290,1,59.9999981689454,2|0,0:0|3:2,0:0:0:0:
179,224,31835,1,2,0:0:0:0:
32,173,32089,2,0,L|42:53,1,119.999996337891,2|0,3:2|3:2,0:0:0:0:
122,132,32597,5,8,3:0:0:0:
144,130,32724,1,8,3:0:0:0:
166,128,32851,1,0,3:2:0:0:
189,126,32978,1,0,3:2:0:0:
211,124,33106,6,0,L|290:117,2,80,6|2|2,3:2|0:0|0:0,0:0:0:0:
245,31,33869,1,2,3:2:0:0:
379,98,34123,2,0,P|383:150|378:200,1,80,8|2,0:0|3:2,0:0:0:0:
328,246,34631,1,2,3:2:0:0:
387,330,34886,6,0,P|326:280|249:286,1,160,2|2,3:2|0:0,0:0:0:0:
190,349,35648,2,0,L|110:355,1,80,2|2,0:0|3:2,0:0:0:0:
81,271,36157,2,0,L|1:277,2,80,8|0|0,0:0|3:2|0:0,0:0:0:0:
171,157,36919,5,2,0:0:0:0:
171,157,37047,1,2,0:0:0:0:
171,157,37174,2,0,P|167:196|168:236,2,80,2|2|2,3:2|0:0|0:0,0:0:0:0:
80,184,37936,1,2,3:2:0:0:
262,190,38191,2,0,P|263:150|259:110,1,80,8|2,0:0|3:2,0:0:0:0:
176,68,38699,1,2,0:0:0:0:
321,41,38953,6,0,L|496:56,1,160,2|10,3:2|0:0,0:0:0:0:
425,138,39716,2,0,L|431:218,1,80,2|2,0:0|3:2,0:0:0:0:
363,257,40225,2,0,L|357:337,1,80,10|0,0:0|0:0,0:0:0:0:
330,357,40606,5,2,0:0:0:0:
308,355,40733,1,2,0:0:0:0:
286,353,40860,1,2,0:0:0:0:
263,351,40987,1,2,0:0:0:0:
128,296,41241,5,2,0:0:0:0:
384,88,43275,5,2,0:0:0:0:
256,136,44038,1,2,0:0:0:0:
128,88,44801,1,2,0:0:0:0:
256,136,45309,5,2,3:2:0:0:
256,136,45563,1,2,0:0:0:0:
167,210,45818,5,2,3:2:0:0:
167,210,46072,1,2,0:0:0:0:
240,289,46326,6,0,L|303:283,1,59.9999981689454,2|0,3:2|0:0,0:0:0:0:
393,305,46580,2,0,L|387:241,1,59.9999981689454,2|0,0:0|0:0,0:0:0:0:
409,152,46835,2,0,L|345:157,1,59.9999981689454,2|0,3:2|0:0,0:0:0:0:
256,136,47089,2,0,L|261:199,1,59.9999981689454,2|0,0:0|0:0,0:0:0:0:
280,372,47343,5,2,3:2:0:0:
256,192,47470,12,0,48869,0:0:0:0:
73,264,49377,6,0,P|126:203|194:220,1,150.000005722046,6|2,3:2|0:0,0:0:0:0:
202,305,49758,1,0,3:2:0:0:
202,305,49886,2,0,B|194:266|194:266|208:233,1,75.0000028610231,10|0,0:0|0:0,0:0:0:0:
298,238,50140,2,0,B|319:205|319:205|353:192,1,75.0000028610231,2|0,3:2|0:0,0:0:0:0:
476,178,50394,6,0,L|326:164,1,150.000005722046,2|0,0:0|3:2,0:0:0:0:
282,30,50902,2,0,P|255:56|219:65,1,75.0000028610231,8|0,0:0|0:0,0:0:0:0:
142,111,51157,2,0,P|106:101|80:74,1,75.0000028610231,2|0,0:0|0:0,0:0:0:0:
0,172,51411,6,0,P|68:194|83:264,1,150.000005722046,2|0,3:2|0:0,0:0:0:0:
55,347,51792,1,0,3:2:0:0:
55,347,51919,2,0,B|93:354|93:354|126:340,1,75.0000028610231,10|0,0:0|0:0,0:0:0:0:
212,367,52174,2,0,B|219:328|219:328|205:295,1,75.0000028610231,2|0,3:2|0:0,0:0:0:0:
323,190,52428,6,0,L|309:339,2,150.000005722046,2|2|8,0:0|3:2|0:0,0:0:0:0:
323,190,53191,2,0,P|290:208|253:207,1,75.0000028610231
170,116,53445,6,0,P|232:132|244:228,1,150.000005722046,2|2,3:2|0:0,0:0:0:0:
327,104,53826,1,0,3:2:0:0:
327,104,53953,2,0,B|360:90|360:90|399:98,1,75.0000028610231,10|0,0:0|0:0,0:0:0:0:
468,155,54207,2,0,B|482:188|482:188|474:227,1,75.0000028610231,2|0,3:2|0:0,0:0:0:0:
461,343,54462,6,0,L|447:193,1,150.000005722046,2|0,0:0|3:2,0:0:0:0:
327,104,54970,2,0,P|300:130|264:139,1,75.0000028610231,8|0,0:0|0:0,0:0:0:0:
195,84,55225,2,0,P|168:58|132:49,1,75.0000028610231,2|0,0:0|0:0,0:0:0:0:
0,173,55479,6,0,L|150:159,1,150.000005722046,2|0,3:2|0:0,0:0:0:0:
223,222,55860,1,0,3:2:0:0:
223,222,55987,2,0,B|237:255|237:255|229:294,1,75.0000028610231,10|0,0:0|0:0,0:0:0:0:
148,335,56241,2,0,B|134:302|134:302|142:263,1,75.0000028610231,2|0,3:2|0:0,0:0:0:0:
326,246,56496,5,2,0:0:0:0:
326,246,56623,2,0,P|341:316|409:338,1,150.000005722046,8|2,0:0|3:2,0:0:0:0:
466,272,57004,2,0,L|452:122,1,150.000005722046,8|0,0:0|0:0,0:0:0:0:
452,122,57513,6,0,L|302:136,1,150.000005722046,2|2,3:2|0:0,0:0:0:0:
243,71,57894,1,0,3:2:0:0:
243,71,58021,2,0,P|216:45|180:35,1,75.0000028610231,10|0,0:0|0:0,0:0:0:0:
118,98,58275,2,0,P|91:123|55:133,1,75.0000028610231,2|0,3:2|0:0,0:0:0:0:
0,221,58530,6,0,P|70:236|92:304,1,150.000005722046,2|0,0:0|3:2,0:0:0:0:
92,305,59038,2,0,B|125:291|125:291|164:299,1,75.0000028610231,8|0,0:0|0:0,0:0:0:0:
236,350,59292,2,0,B|275:358|275:358|308:344,1,75.0000028610231,2|0,0:0|0:0,0:0:0:0:
418,328,59547,6,0,L|268:314,1,150.000005722046,2|2,3:2|3:2,0:0:0:0:
225,231,59928,1,0,3:2:0:0:
225,231,60055,2,0,P|250:204|260:168,1,75.0000028610231,10|0,0:0|0:0,0:0:0:0:
189,124,60309,2,0,P|178:88|152:62,1,75.0000028610231,2|0,3:2|0:0,0:0:0:0:
33,58,60563,6,0,L|183:44,1,150.000005722046,2|2,0:0|3:2,0:0:0:0:
416,23,61072,2,0,B|430:56|430:56|422:95,1,75.0000028610231,8|0,0:0|0:0,0:0:0:0:
465,172,61326,2,0,B|451:205|451:205|418:227,1,75.0000028610231,2|0,0:0|0:0,0:0:0:0:
352,328,61580,6,0,P|329:259|259:244,1,150.000005722046,2|0,3:2|0:0,0:0:0:0:
195,304,61962,1,0,3:2:0:0:
195,304,62089,2,0,L|45:290,1,150.000005722046,10|0,0:0|3:2,0:0:0:0:
134,173,62597,6,0,P|156:104|226:89,1,150.000005722046,2|0,0:0|3:2,0:0:0:0:
291,149,62979,1,0,0:0:0:0:
291,149,63106,2,0,L|441:135,1,150.000005722046,8|0,0:0|0:0,0:0:0:0:
344,317,63614,6,0,L|194:303,1,150.000005722046,2|0,3:2|0:0,0:0:0:0:
99,366,63996,1,0,3:2:0:0:
99,366,64123,2,0,L|113:216,1,150.000005722046,8|2,0:0|3:2,0:0:0:0:
24,112,64504,1,2,0:0:0:0:
24,111,64631,6,0,B|16:150|16:150|30:183,1,75.0000028610231,2|0,0:0|0:0,0:0:0:0:
185,168,64886,2,0,B|193:129|193:129|179:96,1,75.0000028610231,0|0,3:2|0:0,0:0:0:0:
113,216,65140,2,0,L|263:202,1,150.000005722046,8|0,0:0|3:2,0:0:0:0:
262,202,65648,6,0,P|315:141|383:158,1,150.000005722046,6|0,3:2|0:0,0:0:0:0:
474,84,66030,1,0,3:2:0:0:
474,84,66157,2,0,L|460:234,1,150.000005722046,10|0,0:0|3:2,0:0:0:0:
268,314,66665,2,0,P|241:288|205:278,1,75.0000028610231,2|0,0:0|0:0,0:0:0:0:
143,341,66919,2,0,P|116:366|80:376,1,75.0000028610231,2|0,3:2|0:0,0:0:0:0:
21,304,67174,2,0,L|35:154,1,150.000005722046,10|2,0:0|0:0,0:0:0:0:
106,82,67555,1,0,0:0:0:0:
106,82,67682,6,0,P|159:143|227:126,1,150.000005722046,2|0,3:2|0:0,0:0:0:0:
256,221,68063,1,0,3:2:0:0:
256,221,68191,2,0,L|406:235,1,150.000005722046,10|2,0:0|3:2,0:0:0:0:
491,85,68699,2,0,B|499:46|499:46|485:13,1,75.0000028610231,2|0,0:0|0:0,0:0:0:0:
402,58,68953,2,0,B|363:50|363:50|330:64,1,75.0000028610231,2|0,3:2|0:0,0:0:0:0:
255,111,69208,2,0,P|183:118|140:61,1,150.000005722046,10|2,0:0|0:0,0:0:0:0:
22,141,69716,6,0,L|36:291,1,150.000005722046,2|0,3:2|0:0,0:0:0:0:
107,349,70097,1,0,3:2:0:0:
107,349,70225,2,0,P|138:330|176:329,1,75.0000028610231,10|0,0:0|0:0,0:0:0:0:
229,259,70479,2,0,P|260:278|298:279,1,75.0000028610231,2|0,3:2|0:0,0:0:0:0:
378,359,70733,6,0,L|392:209,1,150.000005722046,2|2,0:0|3:2,0:0:0:0:
471,92,71241,2,0,P|427:34|356:42,1,150.000005722046,10|0,0:0|0:0,0:0:0:0:
356,42,71750,6,0,B|323:56|323:56|284:48,1,75.0000028610231,2|0,3:2|0:0,0:0:0:0:
211,90,72004,2,0,B|172:82|172:82|139:96,1,75.0000028610231,2|0,0:0|3:2,0:0:0:0:
48,39,72258,2,0,L|62:189,1,150.000005722046,10|0,0:0|3:2,0:0:0:0:
166,277,72640,1,0,0:0:0:0:
166,277,72767,6,0,P|94:269|51:327,2,150.000005722046,2|0|10,0:0|3:2|0:0,0:0:0:0:
166,277,73530,2,0,P|197:296|235:297,1,75.0000028610231
294,369,73784,6,0,L|444:355,1,150.000005722046,6|0,3:2|0:0,0:0:0:0:
512,253,74165,1,0,3:2:0:0:
512,253,74292,2,0,P|440:260|397:203,1,150.000005722046,10|0,0:0|3:2,0:0:0:0:
445,74,74801,6,0,B|412:60|412:60|373:68,1,75.0000028610231,2|0,0:0|0:0,0:0:0:0:
288,86,75055,2,0,B|249:94|249:94|216:80,1,75.0000028610231,2|0,3:2|0:0,0:0:0:0:
106,70,75309,2,0,L|256:56,1,150.000005722046,10|2,0:0|0:0,0:0:0:0:
403,153,75818,6,0,P|410:224|353:267,1,150.000005722046,2|0,3:2|0:0,0:0:0:0:
266,281,76199,1,0,3:2:0:0:
266,281,76326,2,0,L|116:267,1,150.000005722046,10|2,0:0|3:2,0:0:0:0:
116,267,76835,6,0,B|130:234|130:234|122:195,1,75.0000028610231,2|0,0:0|0:0,0:0:0:0:
40,153,77089,2,0,B|26:186|26:186|34:225,1,75.0000028610231,2|0,3:2|0:0,0:0:0:0:
203,163,77343,2,0,P|210:91|153:48,1,150.000005722046,10|2,0:0|0:0,0:0:0:0:
307,149,77852,6,0,L|457:135,1,150.000005722046,2|0,3:2|0:0,0:0:0:0:
503,217,78233,1,0,3:2:0:0:
503,217,78360,2,0,P|502:254|482:285,1,75.0000028610231,10|0,0:0|0:0,0:0:0:0:
400,327,78614,2,0,P|362:326|331:306,1,75.0000028610231,2|0,3:2|0:0,0:0:0:0:
276,234,78869,6,0,L|126:220,2,150.000005722046,2|2|10,0:0|3:2|0:0,0:0:0:0:
276,234,79631,2,0,B|284:195|284:195|270:162,1,75.0000028610231
193,315,79886,5,6,3:2:0:0:
193,315,81411,2,0,L|188:362,6,25,2|0|0|0|0|0|0,0:0|0:0|0:0|0:0|0:0|0:0|0:0,0:0:0:0:
135,252,81919,1,2,0:0:0:0:
256,192,81983,12,0,88021,0:0:0:0:
