osu file format v14

[General]
AudioFilename: audio.mp3
AudioLeadIn: 0
PreviewTime: 49313
Countdown: 0
SampleSet: Soft
StackLeniency: 0.6
Mode: 0
LetterboxInBreaks: 0
WidescreenStoryboard: 1

[Editor]
Bookmarks: 564,8699,20902,33106,49377,65648,81919
DistanceSpacing: 1.1
BeatDivisor: 4
GridSize: 8
TimelineZoom: 1.5

[Metadata]
Title:Literature (TV Size)
TitleUnicode:リテラチュア (TV Size)
Artist:Ueda Reina
ArtistUnicode:上田麗奈
Creator:newton-
Version:Hard
Source:魔女の旅々
Tags:wandering witch: the journey of elaina majo no tabitabi anime jpop j-pop japanese pop イレイナ opening op ashen
BeatmapID:2786492
BeatmapSetID:1345462

[Difficulty]
HPDrainRate:4
CircleSize:3.5
OverallDifficulty:6.5
ApproachRate:7.5
SliderMultiplier:1.8
SliderTickRate:1

[Events]
//Background and Video events
0,0,"cute.jpg",0,0
Video,54,"video.mp4"
//Break Periods
//Storyboard Layer 0 (Background)
//Storyboard Layer 1 (Fail)
//Storyboard Layer 2 (Pass)
//Storyboard Layer 3 (Foreground)
//Storyboard Layer 4 (Overlay)
//Storyboard Sound Samples

[TimingPoints]
564,508.474576271186,4,2,6,50,1,0
564,-125,4,2,6,50,0,0
8699,-111.111111111111,4,2,6,40,0,0
20902,-100,4,2,6,60,0,0
33106,-125,4,2,6,50,0,0
41305,-125,4,2,6,5,0,0
41368,-125,4,2,6,50,0,0
43339,-125,4,2,6,5,0,0
43402,-125,4,2,6,50,0,0
44102,-125,4,2,6,5,0,0
44165,-125,4,2,6,50,0,0
44864,-125,4,2,6,5,0,0
44927,-125,4,2,6,50,0,0
45309,-100,4,2,6,60,0,0
45436,-100,4,2,6,5,0,0
45563,-100,4,2,6,60,0,0
45690,-100,4,2,6,5,0,0
45818,-100,4,2,6,70,0,0
45945,-100,4,2,6,5,0,0
46072,-100,4,2,6,70,0,0
46199,-100,4,2,6,5,0,0
46326,-100,4,2,6,80,0,0
46453,-100,4,2,6,5,0,0
46580,-100,4,2,6,80,0,0
46707,-100,4,2,6,5,0,0
46835,-100,4,2,6,80,0,0
46962,-100,4,2,6,5,0,0
47089,-100,4,2,6,80,0,0
47216,-100,4,2,6,5,0,0
47343,-100,4,2,6,70,0,0
49250,-100,4,2,6,5,0,0
49377,-83.3333333333333,4,2,6,80,0,1
65140,-83.3333333333333,4,2,6,80,0,0
65648,-83.3333333333333,4,2,6,80,0,1
79886,-83.3333333333333,4,2,6,50,0,1
81411,-100,4,2,6,50,0,0

[Colours]
Combo1 : 255,94,55
Combo2 : 173,255,95
Combo3 : 17,254,176
Combo4 : 255,88,100

[HitObjects]
63,45,564,6,0,P|66:91|63:125,1,72,2|0,0:0|0:0,0:0:0:0:
99,157,945,2,0,P|95:210|98:264,1,108,2|2,0:0|0:0,0:0:0:0:
159,353,1580,2,0,L|270:343,1,108,2|2,0:0|0:0,0:0:0:0:
320,335,2089,1,0,0:0:0:0:
368,238,2343,1,2,0:0:0:0:
267,195,2597,6,0,P|264:149|267:115,1,72,2|0,0:0|0:0,0:0:0:0:
313,96,2979,2,0,L|424:105,1,108,2|2,0:0|0:0,0:0:0:0:
474,203,3614,1,2,0:0:0:0:
474,203,3869,1,2,0:0:0:0:
408,289,4123,2,0,P|409:324|406:360,1,72,2|2,0:0|0:0,0:0:0:0:
298,354,4631,6,0,L|202:345,1,72,2|0,0:0|0:0,0:0:0:0:
200,299,5013,2,0,P|156:328|101:312,1,108,2|2,0:0|0:0,0:0:0:0:
61,216,5648,2,0,L|70:108,2,108,2|2|2,0:0|0:0|0:0,0:0:0:0:
2,307,6665,1,2,0:0:0:0:
256,192,6792,12,0,7682,0:0:0:0:
13,324,8445,5,2,0:0:0:0:
75,259,8699,2,0,P|130:266|166:281,1,80.9999975280762,2|2,0:0|0:0,0:0:0:0:
183,307,9080,2,0,P|238:300|274:285,1,80.9999975280762,2|2,0:0|0:0,0:0:0:0:
276,248,9462,2,0,L|261:86,1,161.999995056152,2|2,0:0|0:0,0:0:0:0:
340,41,10225,1,2,0:0:0:0:
340,41,10479,1,2,0:0:0:0:
416,124,10733,6,0,P|403:162|400:202,1,80.9999975280762,2|0,0:0|0:0,0:0:0:0:
371,236,11114,2,0,P|383:274|386:314,1,80.9999975280762,2|0,0:0|0:0,0:0:0:0:
364,354,11496,1,2,0:0:0:0:
364,354,12513,5,2,0:0:0:0:
280,277,12767,2,0,P|225:284|189:299,1,80.9999975280762,2|2,0:0|0:0,0:0:0:0:
178,254,13148,2,0,P|123:247|87:232,1,80.9999975280762,2|2,0:0|0:0,0:0:0:0:
64,265,13530,2,0,L|79:103,1,161.999995056152,2|2,0:0|0:0,0:0:0:0:
132,32,14292,1,2,0:0:0:0:
167,113,14547,1,2,0:0:0:0:
291,72,14801,6,0,P|329:59|369:56,1,80.9999975280762,2|0,0:0|0:0,0:0:0:0:
388,96,15182,2,0,P|418:122|440:155,1,80.9999975280762,2|0,0:0|0:0,0:0:0:0:
416,193,15563,1,2,0:0:0:0:
416,193,16326,5,2,0:0:0:0:
392,278,16580,1,2,0:0:0:0:
282,306,16835,6,0,P|241:308|203:321,1,80.9999975280762,2|2,0:0|0:0,0:0:0:0:
185,280,17216,2,0,P|124:275|67:256,1,121.499996292114,2|0,0:0|0:0,0:0:0:0:
19,180,17852,1,2,0:0:0:0:
268,78,18614,1,2,0:0:0:0:
268,78,18741,1,2,0:0:0:0:
268,78,18869,6,0,P|229:65|189:62,1,80.9999975280762,2|2,0:0|0:0,0:0:0:0:
167,100,19250,2,0,P|179:138|182:178,2,80.9999975280762,2|2|2,0:0|0:0|0:0,0:0:0:0:
122,100,19886,1,2,0:0:0:0:
122,100,20902,6,0,L|32:92,1,90,0|2,3:2|0:0,0:0:0:0:
1,177,21411,2,0,P|-1:233|1:274,1,90,2|2,0:0|3:2,0:0:0:0:
13,314,21792,1,2,0:0:0:0:
13,314,21919,1,8,0:0:0:0:
96,280,22174,1,2,0:0:0:0:
147,354,22428,2,0,L|236:346,1,90,2|2,0:0|0:0,0:0:0:0:
323,266,22936,6,0,P|405:256|461:344,1,180,2|0,3:2|0:0,0:0:0:0:
461,327,23699,1,2,3:2:0:0:
489,205,23953,1,2,0:3:0:0:
489,205,24970,6,0,L|496:115,1,90,0|2,3:2|0:0,0:0:0:0:
405,133,25479,2,0,L|397:43,1,90,2|2,0:0|3:2,0:0:0:0:
358,31,25860,1,2,0:0:0:0:
358,31,25987,2,0,L|268:38,1,90,8|2,0:0|0:0,0:0:0:0:
178,49,26496,2,0,P|176:105|178:146,1,90,2|2,0:0|3:2,0:0:0:0:
132,150,26877,1,0,3:2:0:0:
132,150,27004,6,0,P|134:206|132:247,2,90,2|0|0,3:2|0:0|0:0,0:0:0:0:
85,62,27767,1,2,3:2:0:0:
27,169,28021,1,2,0:3:0:0:
27,169,28530,2,0,P|25:213|27:258,1,90,2|2,0:0|0:0,0:0:0:0:
89,379,29038,6,0,L|178:371,1,90,2|2,3:2|0:0,0:0:0:0:
192,326,29419,1,2,0:0:0:0:
192,326,29547,2,0,L|281:333,1,90,0|0,3:2|0:0,0:0:0:0:
351,277,30055,2,0,L|440:269,2,90,0|0|0,3:2|0:0|3:2,0:0:0:0:
249,207,30818,2,0,L|245:162,1,45,2|0,3:2|3:2,0:0:0:0:
285,150,31072,6,0,P|287:94|285:53,1,90,2|2,3:2|0:0,0:0:0:0:
260,29,31453,1,0,0:0:0:0:
260,29,31580,1,0,3:2:0:0:
180,72,31835,1,2,0:0:0:0:
92,50,32089,2,0,L|84:139,1,90,2|0,3:2|3:2,0:0:0:0:
151,199,32597,2,0,L|195:195,1,45,8|8,3:0|3:0,0:0:0:0:
228,226,32852,2,0,L|272:222,1,45,0|0,3:2|3:2,0:0:0:0:
311,242,33106,6,0,P|246:265|221:330,1,144,6|2,3:2|0:0,0:0:0:0:
136,360,33869,1,2,3:2:0:0:
136,360,34123,2,0,L|129:288,1,72,8|2,0:0|3:2,0:0:0:0:
53,250,34631,1,2,3:2:0:0:
53,250,34886,6,0,L|65:106,1,144,2|2,3:2|0:0,0:0:0:0:
141,58,35648,2,0,P|198:77|226:79,1,72,2|2,0:0|3:2,0:0:0:0:
298,60,36157,2,0,P|331:46|366:39,1,72,8|0,0:0|3:2,0:0:0:0:
437,94,36665,1,0,0:0:0:0:
379,163,36919,2,0,L|383:218,1,36,2|2,0:0|0:0,0:0:0:0:
424,214,37174,6,0,L|411:357,1,144,2|2,3:2|0:0,0:0:0:0:
327,339,37936,1,2,3:2:0:0:
327,339,38190,2,0,L|255:345,1,72,8|2,0:0|3:2,0:0:0:0:
204,270,38699,1,2,0:0:0:0:
204,270,38953,6,0,P|134:264|86:314,1,144,2|10,3:2|0:0,0:0:0:0:
21,251,39716,2,0,L|14:179,1,72,2|2,0:0|3:2,0:0:0:0:
100,150,40225,2,0,L|106:78,1,72,10|0,0:0|0:0,0:0:0:0:
145,53,40606,1,2,0:0:0:0:
145,53,40733,2,0,L|141:17,2,36,2|2|2,0:0|0:0|0:0,0:0:0:0:
213,110,41241,1,2,0:0:0:0:
174,235,43275,5,2,0:0:0:0:
299,274,44038,1,2,0:0:0:0:
338,149,44801,1,2,0:0:0:0:
338,149,45309,6,0,P|339:104|337:59,1,90,2|2,3:2|0:0,0:0:0:0:
252,28,45818,2,0,P|250:72|252:117,1,90,2|2,3:2|0:0,0:0:0:0:
166,206,46326,1,2,3:2:0:0:
166,206,46580,1,2,0:0:0:0:
113,97,46835,1,2,3:2:0:0:
113,97,47089,1,2,0:0:0:0:
29,130,47343,1,2,3:2:0:0:
256,192,47470,12,0,48869,0:0:0:0:
120,90,49377,6,0,B|97:139|97:139|127:183,1,107.999996704102,6|2,3:2|0:0,0:0:0:0:
149,210,49758,1,0,3:2:0:0:
149,210,49886,1,10,0:0:0:0:
237,131,50140,1,2,3:2:0:0:
304,232,50394,2,0,P|349:202|403:197,1,107.999996704102,2|0,0:0|3:2,0:0:0:0:
507,250,50902,1,8,0:0:0:0:
445,352,51157,2,0,L|391:356,1,53.9999983520508,2|0,0:0|0:0,0:0:0:0:
366,318,51411,6,0,L|254:327,1,107.999996704102,2|0,3:2|0:0,0:0:0:0:
222,359,51792,1,0,3:2:0:0:
222,359,51920,1,10,0:0:0:0:
96,346,52174,1,2,3:2:0:0:
142,239,52428,2,0,B|164:189|164:189|134:145,1,107.999996704102,2|2,0:0|3:2,0:0:0:0:
101,129,52809,1,0,0:0:0:0:
101,129,52936,2,0,L|268:143,1,161.999995056153,8|0,0:0|0:0,0:0:0:0:
304,117,53445,6,0,B|348:87|348:87|397:109,1,107.999996704102,2|2,3:2|0:0,0:0:0:0:
444,137,53826,1,0,3:2:0:0:
444,137,53953,1,10,0:0:0:0:
396,222,54208,1,2,3:2:0:0:
415,317,54462,2,0,P|370:346|316:351,1,107.999996704102,2|0,0:0|3:2,0:0:0:0:
228,271,54970,1,8,0:0:0:0:
87,345,55225,2,0,L|83:291,1,53.9999983520508,2|0,0:0|0:0,0:0:0:0:
49,266,55479,6,0,L|39:154,1,107.999996704102,2|0,3:2|0:0,0:0:0:0:
35,110,55860,1,0,3:2:0:0:
35,110,55987,1,10,0:0:0:0:
141,162,56241,1,2,3:2:0:0:
192,56,56496,1,2,0:0:0:0:
192,56,56623,2,0,B|241:33|241:33|285:63,1,107.999996704102,8|2,0:0|3:2,0:0:0:0:
333,52,57004,2,0,B|377:81|377:81|426:59,1,107.999996704102,8|0,0:0|0:0,0:0:0:0:
472,191,57513,6,0,L|360:182,1,107.999996704102,2|2,3:2|0:0,0:0:0:0:
323,179,57894,1,0,3:2:0:0:
323,179,58021,1,10,0:0:0:0:
245,88,58275,1,2,3:2:0:0:
190,192,58530,2,0,P|136:186|91:157,1,107.999996704102,2|0,0:0|3:2,0:0:0:0:
43,60,59038,1,8,0:0:0:0:
43,60,59165,1,0,0:0:0:0:
43,60,59292,1,2,0:0:0:0:
7,196,59547,6,0,L|16:307,1,107.999996704102,2|2,3:2|3:2,0:0:0:0:
25,366,59928,1,0,3:2:0:0:
25,366,60055,1,10,0:0:0:0:
138,330,60309,2,0,L|192:326,1,53.9999983520508,2|0,3:2|0:0,0:0:0:0:
222,356,60563,2,0,B|271:378|271:378|315:348,1,107.999996704102,2|2,0:0|3:2,0:0:0:0:
392,287,61072,1,8,0:0:0:0:
392,287,61326,1,2,0:0:0:0:
491,370,61580,6,0,L|482:262,1,107.999996704102,2|0,3:2|0:0,0:0:0:0:
468,227,61962,1,0,3:2:0:0:
468,227,62089,2,0,L|477:119,1,107.999996704102,10|0,0:0|3:2,0:0:0:0:
382,44,62597,1,2,0:0:0:0:
284,111,62852,1,0,3:2:0:0:
284,111,62979,1,0,0:0:0:0:
284,111,63106,2,0,B|234:133|234:133|190:103,1,107.999996704102,8|0,0:0|0:0,0:0:0:0:
51,50,63614,6,0,P|61:101|49:153,1,107.999996704102,2|0,3:2|0:0,0:0:0:0:
19,175,63996,1,0,3:2:0:0:
19,175,64123,2,0,L|10:283,1,107.999996704102,8|2,0:0|3:2,0:0:0:0:
7,334,64504,1,2,0:0:0:0:
7,334,64631,1,2,0:0:0:0:
122,364,64886,1,0,3:2:0:0:
202,284,65140,2,0,L|265:289,1,53.9999983520508,8|0,0:0|0:0,0:0:0:0:
287,325,65394,2,0,L|350:330,1,53.9999983520508,0|0,3:2|0:0,0:0:0:0:
376,362,65648,6,0,P|371:308|377:254,1,107.999996704102,6|0,3:2|0:0,0:0:0:0:
402,214,66030,1,0,3:2:0:0:
402,214,66157,1,10,0:0:0:0:
488,132,66411,1,0,3:2:0:0:
386,69,66665,2,0,B|336:47|336:47|292:77,1,107.999996704102,2|2,0:0|3:2,0:0:0:0:
208,160,67174,1,10,0:0:0:0:
143,44,67428,2,0,L|80:39,1,53.9999983520508,2|0,0:0|0:0,0:0:0:0:
63,67,67682,6,0,L|54:175,1,107.999996704102,2|0,3:2|0:0,0:0:0:0:
76,212,68063,1,0,3:2:0:0:
76,212,68191,2,0,L|85:320,1,107.999996704102,10|2,0:0|3:2,0:0:0:0:
192,380,68699,1,2,0:0:0:0:
192,380,68953,1,2,3:2:0:0:
262,284,69208,2,0,B|312:262|312:262|356:292,1,107.999996704102,10|2,0:0|0:0,0:0:0:0:
478,374,69716,6,0,P|482:320|476:266,1,107.999996704102,2|0,3:2|0:0,0:0:0:0:
452,226,70098,1,0,3:2:0:0:
452,226,70225,2,0,P|447:172|453:118,1,107.999996704102,10|2,0:0|3:2,0:0:0:0:
354,62,70733,1,2,0:0:0:0:
354,62,70987,1,2,3:2:0:0:
244,113,71241,2,0,L|77:127,1,161.999995056153,10|0,0:0|0:0,0:0:0:0:
39,103,71750,5,2,3:2:0:0:
4,216,72004,1,2,0:0:0:0:
64,318,72258,2,0,B|114:296|114:296|158:326,1,107.999996704102,10|0,0:0|3:2,0:0:0:0:
275,349,72767,2,0,L|271:295,3,53.9999983520508,2|0|0|0,0:0|0:0|3:2|0:0,0:0:0:0:
308,274,73275,2,0,L|313:210,3,53.9999983520508,10|0|0|0,0:0|0:0|0:0|0:0,0:0:0:0:
349,197,73784,5,6,3:2:0:0:
308,96,74038,1,0,0:0:0:0:
308,96,74165,1,0,3:2:0:0:
308,96,74292,2,0,L|200:105,1,107.999996704102,10|0,0:0|3:2,0:0:0:0:
113,22,74801,2,0,L|5:31,2,107.999996704102,2|2|10,0:0|3:2|0:0,0:0:0:0:
71,138,75563,2,0,L|66:201,1,53.9999983520508,2|0,0:0|0:0,0:0:0:0:
42,221,75818,6,0,B|64:271|64:271|34:315,1,107.999996704102,2|0,3:2|0:0,0:0:0:0:
5,354,76199,1,0,3:2:0:0:
5,354,76326,2,0,L|113:345,1,107.999996704102,10|2,0:0|3:2,0:0:0:0:
230,363,76835,2,0,L|338:372,1,107.999996704102,2|2,0:0|3:2,0:0:0:0:
454,338,77343,1,10,0:0:0:0:
454,338,77597,1,2,0:0:0:0:
339,252,77852,6,0,P|335:198|341:144,1,107.999996704102,2|0,3:2|0:0,0:0:0:0:
363,103,78233,1,0,3:2:0:0:
363,103,78360,1,10,0:0:0:0:
278,19,78614,1,2,3:2:0:0:
224,124,78869,2,0,L|116:115,1,107.999996704102,2|2,0:0|3:2,0:0:0:0:
71,138,79250,1,0,0:0:0:0:
71,138,79377,2,0,L|66:201,1,53.9999983520508,10|0,0:0|0:0,0:0:0:0:
93,216,79631,2,0,L|98:279,1,53.9999983520508
101,318,79886,5,6,3:2:0:0:
101,318,80902,5,2,0:0:0:0:
220,208,81411,1,2,0:0:0:0:
255,366,81919,1,2,0:0:0:0:
256,192,82047,12,0,88021,0:0:0:0:
