osu file format v14

[General]
AudioFilename: audio.mp3
AudioLeadIn: 0
PreviewTime: 49313
Countdown: 0
SampleSet: Soft
StackLeniency: 0.6
Mode: 0
LetterboxInBreaks: 0
WidescreenStoryboard: 1

[Editor]
DistanceSpacing: 1.7
BeatDivisor: 4
GridSize: 32
TimelineZoom: 2.3

[Metadata]
Title:Literature (TV Size)
TitleUnicode:リテラチュア (TV Size)
Artist:Ueda Reina
ArtistUnicode:上田麗奈
Creator:Zawajiro
Version:Ecstatic
Source:魔女の旅々
Tags:wandering witch: the journey of elaina うえしゃま Ueshama れいちゃん reichan rei-chan majo no tabitabi anime jpop j-pop japanese pop イレイナ opening op
BeatmapID:3551243
BeatmapSetID:1737474

[Difficulty]
HPDrainRate:5.5
CircleSize:4
OverallDifficulty:8
ApproachRate:9
SliderMultiplier:2.44
SliderTickRate:0.5

[Events]
//Background and Video events
0,0,"bg.jpg",0,0
Video,-100,"vid.mp4"
//Break Periods
//Storyboard Layer 0 (Background)
//Storyboard Layer 1 (Fail)
//Storyboard Layer 2 (Pass)
//Storyboard Layer 3 (Foreground)
//Storyboard Layer 4 (Overlay)
//Storyboard Sound Samples

[TimingPoints]
540,508.474576271186,4,2,1,30,1,0
540,-166.666666666667,4,2,1,30,0,0
1556,-166.666666666667,4,2,1,35,0,0
2573,-166.666666666667,4,2,1,40,0,0
3590,-166.666666666667,4,2,1,45,0,0
4607,-333.333333333333,4,2,1,50,0,0
8675,-142.857142857143,4,2,1,40,0,0
19862,-666.666666666667,4,2,1,40,0,0
20370,-666.666666666667,4,2,1,40,0,0
20434,-666.666666666667,4,2,1,40,0,0
20878,-117.647058823529,4,2,2,50,0,0
21006,-117.647058823529,4,2,1,50,0,0
24438,-117.647058823529,4,2,1,30,0,0
24692,-117.647058823529,4,2,1,40,0,0
24946,-117.647058823529,4,2,2,50,0,0
25073,-117.647058823529,4,2,1,50,0,0
29014,-117.647058823529,4,2,1,55,0,0
33082,-166.666666666667,4,2,1,50,0,0
41217,-500,4,2,1,45,0,0
43124,-500,4,2,1,5,0,0
43251,-333.333333333333,4,2,1,45,0,0
43887,-333.333333333333,4,2,1,5,0,0
44014,-250,4,2,1,45,0,0
45285,-333.333333333333,4,2,1,60,0,0
46302,-250,4,2,1,65,0,0
47319,-80,4,2,1,70,0,0
47573,-80,4,2,1,5,0,0
47701,-71.4285714285714,4,2,1,70,0,0
47955,-71.4285714285714,4,2,1,5,0,0
48082,-100,4,2,1,55,0,0
48845,-66.6666666666667,4,2,1,75,0,0
49353,-58.8235294117647,4,2,1,80,0,1
49544,-58.8235294117647,4,2,1,5,0,1
49607,-58.8235294117647,4,2,1,80,0,1
50052,-58.8235294117647,4,2,1,5,0,1
50116,-58.8235294117647,4,2,1,80,0,1
51069,-58.8235294117647,4,2,1,5,0,1
51133,-58.8235294117647,4,2,1,80,0,1
52595,-57.1428571428571,4,2,1,5,0,1
52658,-58.8235294117647,4,2,1,80,0,1
53612,-58.8235294117647,4,2,1,5,0,1
53675,-58.8235294117647,4,2,1,80,0,1
54120,-58.8235294117647,4,2,1,5,0,1
54184,-58.8235294117647,4,2,1,80,0,1
55137,-58.8235294117647,4,2,1,5,0,1
55201,-58.8235294117647,4,2,1,80,0,1
56917,-58.8235294117647,4,2,1,5,0,1
56980,-58.8235294117647,4,2,1,80,0,1
58188,-58.8235294117647,4,2,1,5,0,1
58251,-58.8235294117647,4,2,1,80,0,1
59205,-58.8235294117647,4,2,1,5,0,1
59268,-58.8235294117647,4,2,1,80,0,1
59459,-58.8235294117647,4,2,1,5,0,1
59523,-58.8235294117647,4,2,1,80,0,1
60730,-58.8235294117647,4,2,1,5,0,1
60794,-58.8235294117647,4,2,1,80,0,1
61747,-58.8235294117647,4,2,1,5,0,1
61811,-58.8235294117647,4,2,1,80,0,1
63273,-58.8235294117647,4,2,1,5,0,1
63336,-58.8235294117647,4,2,1,80,0,1
63527,-58.8235294117647,4,2,1,5,0,1
63590,-58.8235294117647,4,2,1,80,0,1
63781,-58.8235294117647,4,2,1,5,0,1
63845,-58.8235294117647,4,2,1,80,0,1
64289,-58.8235294117647,4,2,1,5,0,1
64353,-58.8235294117647,4,2,1,80,0,1
64798,-58.8235294117647,4,2,1,5,0,1
64862,-58.8235294117647,4,2,1,80,0,1
65052,-58.8235294117647,4,2,1,5,0,1
65116,-58.8235294117647,4,2,1,80,0,0
65624,-57.1428571428571,4,2,1,80,0,1
66323,-58.8235294117647,4,2,1,5,0,1
66387,-57.1428571428571,4,2,1,80,0,1
66832,-58.8235294117647,4,2,1,5,0,1
66895,-57.1428571428571,4,2,1,80,0,1
67340,-58.8235294117647,4,2,1,5,0,1
67404,-57.1428571428571,4,2,1,80,0,1
67595,-57.1428571428571,4,2,1,5,0,1
67658,-57.1428571428571,4,2,1,80,0,1
68357,-57.1428571428571,4,2,1,5,0,1
68421,-57.1428571428571,4,2,1,80,0,1
69374,-57.1428571428571,4,2,1,5,0,1
69438,-57.1428571428571,4,2,1,80,0,1
70900,-57.1428571428571,4,2,1,5,0,1
70963,-57.1428571428571,4,2,1,80,0,1
71917,-57.1428571428571,4,2,1,5,0,1
71980,-57.1428571428571,4,2,1,80,0,1
72425,-57.1428571428571,4,2,1,5,0,1
72489,-57.1428571428571,4,2,1,80,0,1
74459,-57.1428571428571,4,2,1,5,0,1
74523,-57.1428571428571,4,2,1,80,0,1
74967,-57.1428571428571,4,2,1,5,0,1
75031,-57.1428571428571,4,2,1,80,0,1
75476,-57.1428571428571,4,2,1,5,0,1
75539,-57.1428571428571,4,2,1,80,0,1
76493,-57.1428571428571,4,2,1,5,0,1
76556,-57.1428571428571,4,2,1,80,0,1
77510,-57.1428571428571,4,2,1,5,0,1
77573,-57.1428571428571,4,2,1,80,0,1
78527,-57.1428571428571,4,2,1,5,0,1
78590,-57.1428571428571,4,2,1,80,0,1
79862,-166.666666666667,4,2,1,50,0,0
81895,-166.666666666667,4,2,1,40,0,0
85709,-277.777777777778,4,2,1,50,0,0
86726,-277.777777777778,4,2,1,55,0,0
86980,-277.777777777778,4,2,1,60,0,0
87997,-277.777777777778,4,2,1,20,0,0

[Colours]
Combo1 : 188,250,213
Combo2 : 219,219,219
Combo3 : 255,168,211

[HitObjects]
110,31,540,6,0,P|157:48|244:75,2,109.79999664917,2|2|2,0:0|0:0|0:0,0:0:0:0:
0,178,1556,2,0,P|36:141|110:153,1,109.79999664917,2|2,0:0|0:0,0:0:0:0:
91,141,2319,1,2,0:0:0:0:
219,239,2573,2,0,P|286:218|348:203,2,109.79999664917,2|2|2,0:0|0:0|0:0,0:0:0:0:
261,384,3590,6,0,P|272:349|283:315,1,73.1999977661134,2|2,0:0|0:0,0:0:0:0:
91,141,4099,2,0,P|80:175|70:211,1,73.1999977661134,2|2,0:0|0:0,0:0:0:0:
309,147,4607,6,0,B|348:137|355:103|355:103|341:65|341:65|344:38|359:24|359:24|455:1|455:1|432:11|426:32,1,292.799991064453,2|2,0:0|0:0,0:0:0:0:
428,29,8675,6,0,P|414:80|408:118,1,85.3999973937989,2|2,1:2|0:0,0:0:0:0:
475,154,9056,2,0,P|437:115|377:125,1,85.3999973937989,2|2,0:0|0:0,0:0:0:0:
352,162,9438,2,0,P|297:177|159:212,1,170.799994787598,2|2,0:0|1:2,0:0:0:0:
242,275,10201,1,2,0:0:0:0:
157,129,10455,1,2,0:0:0:0:
20,266,10709,6,0,P|42:205|52:169,1,85.3999973937989,2|0,1:2|0:0,0:0:0:0:
11,118,11090,1,2,0:0:0:0:
142,329,11472,2,0,P|224:308|307:285,1,170.799994787598,2|0,0:0|0:0,0:0:0:0:
220,220,12489,1,2,0:0:0:0:
408,353,12743,6,0,P|431:290|441:265,1,85.3999973937989,2|2,1:2|0:0,0:0:0:0:
390,211,13124,2,0,P|413:262|452:274,1,85.3999973937989,2|2,0:0|0:0,0:0:0:0:
512,141,13506,2,0,P|433:113|336:74,1,170.799994787598,2|2,0:0|0:0,0:0:0:0:
438,0,14268,1,2,1:2:0:0:
257,140,14523,1,2,0:0:0:0:
98,34,14777,6,0,P|157:12|192:-2,1,85.3999973937989,2|0,1:2|0:0,0:0:0:0:
245,34,15158,1,2,0:0:0:0:
67,179,15539,2,0,P|77:246|-17:294,1,170.799994787598,2|0,0:0|0:0,0:0:0:0:
153,318,16302,5,2,0:0:0:0:
215,369,16556,1,2,0:0:0:0:
329,351,16811,2,0,P|345:288|356:253,1,85.3999973937989,2|2,1:2|0:0,0:0:0:0:
290,149,17192,2,0,P|278:189|268:231,1,85.3999973937989,2|2,0:0|0:0,0:0:0:0:
268,231,17573,1,2,0:0:0:0:
460,314,17828,2,0,P|476:240|501:137,1,170.799994787598,2|0,0:0|0:0,0:0:0:0:
413,11,18590,1,2,0:0:0:0:
413,11,18717,1,2,0:0:0:0:
413,11,18845,6,0,P|359:34|325:46,1,85.3999973937989,2|2,1:2|0:0,0:0:0:0:
271,73,19226,2,0,P|316:74|334:38,1,85.3999973937989,2|2,0:0|0:0,0:0:0:0:
156,0,19607,1,2,0:0:0:0:
156,0,19734,1,2,0:0:0:0:
156,0,19862,6,0,P|152:20|148:42,1,41.1749987434388,2|2,1:2|0:0,0:0:0:0:
8,208,20878,6,0,P|99:190|223:173,1,207.400003955841,4|2,0:0|0:0,0:0:0:0:
212,174,21641,1,2,1:2:0:0:
216,345,21895,2,0,P|161:319|150:276,1,103.700001977921,8|2,0:0|0:0,0:0:0:0:
332,158,22404,2,0,P|317:219|309:270,1,103.700001977921,2|2,0:0|0:0,0:0:0:0:
460,378,22912,6,0,P|443:284|435:243,1,103.700001977921,10|0,0:0|0:0,0:0:0:0:
484,216,23294,1,2,0:0:0:0:
394,79,23675,2,0,P|443:67|494:54,1,103.700001977921,2|8,1:2|0:0,0:0:0:0:
289,20,24438,6,0,P|266:17|238:3,1,51.8500009889603,2|2,0:0|0:0,0:0:0:0:
180,54,24692,1,2,0:0:0:0:
154,59,24819,1,2,0:0:0:0:
139,79,24946,6,0,P|161:151|188:294,1,207.400003955841,4|2,0:0|0:0,0:0:0:0:
186,280,25709,1,2,1:2:0:0:
44,380,25963,2,0,P|62:325|85:251,1,103.700001977921,8|2,0:0|0:0,0:0:0:0:
218,384,26472,1,2,0:0:0:0:
320,282,26726,1,2,1:2:0:0:
320,282,26853,1,0,1:0:0:0:
320,282,26980,6,0,P|381:299|442:325,1,103.700001977921,2|0,1:2|1:0,0:0:0:0:
488,283,27362,1,2,0:0:0:0:
338,74,27743,2,0,P|351:128|358:182,1,103.700001977921,2|8,1:2|0:0,0:0:0:0:
28,46,28760,5,2,1:2:0:0:
28,46,28887,1,0,1:0:0:0:
28,46,29014,2,0,P|83:66|90:127,1,103.700001977921,2|2,1:2|0:0,0:0:0:0:
94,243,29523,2,0,P|39:223|32:162,1,103.700001977921,0|2,1:0|0:0,0:0:0:0:
216,120,30031,2,0,P|296:138|432:174,1,207.400003955841,2|0,1:2|1:0,0:0:0:0:
334,7,30794,1,10,1:2:0:0:
334,7,30921,1,8,1:2:0:0:
334,7,31048,6,0,P|311:73|287:129,1,103.700001977921,2|2,1:2|0:0,0:0:0:0:
175,202,31556,2,0,P|203:264|222:324,1,103.700001977921,0|2,1:0|1:2,0:0:0:0:
389,251,32065,1,2,1:2:0:0:
286,197,32319,1,0,1:0:0:0:
343,377,32573,1,0,1:0:0:0:
343,377,32701,1,0,1:0:0:0:
343,377,32828,1,0,1:0:0:0:
484,189,33082,6,0,P|494:118|515:38,1,146.399995532227,6|2,1:2|0:0,0:0:0:0:
512,45,33845,1,2,1:2:0:0:
394,0,34099,2,0,P|348:13|306:22,2,73.1999977661134,8|2|2,0:0|1:2|0:0,0:0:0:0:
300,144,34862,6,0,P|248:92|165:102,1,146.399995532227,2|2,1:2|0:0,0:0:0:0:
179,238,35624,2,0,P|201:188|213:170,1,73.1999977661134,2|2,0:0|1:2,0:0:0:0:
61,18,36133,2,0,P|79:49|93:83,2,73.1999977661134,8|0|0,0:0|1:0|0:0,0:0:0:0:
58,211,37150,6,0,P|37:267|1:357,1,146.399995532227,2|2,1:2|0:0,0:0:0:0:
4,347,37912,1,2,1:2:0:0:
124,384,38167,2,0,P|170:369|202:362,2,73.1999977661134,8|2|2,0:0|1:2|0:0,0:0:0:0:
226,254,38929,5,2,0:0:0:0:
226,254,39056,1,2,0:0:0:0:
230,258,39184,2,0,P|286:275|333:285,1,73.1999977661134,0|10,1:0|0:0,0:0:0:0:
466,243,39692,1,2,0:0:0:0:
396,364,39946,2,0,P|388:282|374:205,1,146.399995532227,2|0,1:2|1:0,0:0:0:0:
321,154,40582,5,0,1:0:0:0:
336,162,40709,2,0,P|366:151|399:140,1,36.5999988830567,0|0,1:0|1:0,0:0:0:0:
436,67,40963,1,0,1:0:0:0:
317,0,41217,6,0,P|290:49|170:58,1,183,2|0,1:2|0:0,0:0:0:0:
84,49,43251,6,0,B|66:29|74:6|74:6|91:24|88:48,1,91.4999972076417,2|0,0:2|0:0,0:0:0:0:
42,135,44014,6,0,B|-7:215|57:176|0:277,1,146.4,2|2,0:0|0:0,0:0:0:0:
2,272,45285,6,0,P|29:282|41:289,1,36.5999988830567,2|0,1:2|0:0,0:0:0:0:
167,369,45794,2,0,P|183:360|200:355,1,36.5999988830567,0|0,1:0|0:0,0:0:0:0:
320,158,46302,5,2,1:2:0:0:
292,233,46556,1,0,0:0:0:0:
0,384,46811,5,0,1:0:0:0:
35,285,47065,1,0,0:0:0:0:
194,215,47319,6,0,B|253:202|253:202|278:177|278:177|364:162,1,152.5,10|0,1:2|0:0,0:0:0:0:
512,337,47701,6,0,B|461:317|432:327|432:327|415:314|415:314|375:319|329:301,1,170.799994787598,10|0,1:2|0:0,0:0:0:0:
421,209,48082,5,0,1:0:0:0:
434,198,48167,2,0,P|443:179|448:160,1,40.6666666666667,2|2,0:0|0:0,0:0:0:0:
405,93,48336,6,0,P|396:74|391:55,5,40.6666666666667,2|2|2|2|2|2,0:0|0:0|0:0|0:0|0:0|0:0,0:0:0:0:
387,108,48845,6,0,P|378:89|372:44,4,61.0000023269654,2|2|2|2|2,0:0|0:0|0:0|0:0|0:0,0:0:0:0:
72,20,49353,6,0,B|132:-4|161:46|161:46|159:78|199:97,1,155.550002966881,6|0,1:2|0:0,0:0:0:0:
185,89,49607,2,0,P|239:78|293:67,1,103.700001977921,2|2,1:2|1:2,0:0:0:0:
512,162,49862,2,0,P|428:160|405:92,1,155.550002966881,10|0,0:0|0:0,0:0:0:0:
403,102,50116,2,0,P|418:40|431:-3,1,103.700001977921,2|0,1:2|0:0,0:0:0:0:
279,179,50370,6,0,P|301:273|323:402,1,207.400003955841,2|0,1:2|1:0,0:0:0:0:
123,344,50751,1,0,1:0:0:0:
170,280,50878,2,0,B|233:268|247:307|241:312|256:353|335:341,1,155.550002966881,10|0,0:0|0:0,0:0:0:0:
301,342,51133,2,0,P|370:322|421:313,1,103.700001977921,2|0,1:2|0:0,0:0:0:0:
140,172,51387,6,0,P|78:205|-2:102,1,207.400003955841,2|0,1:2|1:0,0:0:0:0:
144,26,51768,1,0,1:0:0:0:
65,9,51895,2,0,P|75:66|84:137,1,103.700001977921,10|0,0:0|0:0,0:0:0:0:
233,228,52150,2,0,P|240:176|249:125,1,103.700001977921,2|0,1:2|0:0,0:0:0:0:
512,91,52404,6,0,P|437:91|395:15,1,155.550002966881,2|0,1:2|0:0,0:0:0:0:
395,29,52658,1,2,1:2:0:0:
346,92,52785,1,0,1:0:0:0:
368,168,52912,2,0,P|419:187|475:211,1,103.700001977921,10|0,0:0|0:0,0:0:0:0:
236,133,53167,2,0,P|185:152|129:176,1,103.700001977921,0|0,1:0|0:0,0:0:0:0:
46,369,53421,6,0,P|130:339|123:271,1,155.550002966881,2|0,1:2|0:0,0:0:0:0:
131,284,53675,2,0,P|71:258|20:235,1,103.700001977921,2|0,1:2|1:0,0:0:0:0:
278,361,53929,2,0,B|353:346|353:346|368:338|368:338|440:327,1,155.550002966881,10|0,0:0|0:0,0:0:0:0:
429,328,54184,2,0,P|412:370|350:360,1,103.700001977921,2|0,1:2|0:0,0:0:0:0:
317,208,54438,6,0,B|291:152|341:115|347:120|353:125|408:85|377:23,1,207.400003955841,2|0,1:2|1:0,0:0:0:0:
462,102,54819,1,0,1:0:0:0:
262,48,54946,2,0,P|200:63|101:81,1,155.550002966881,10|0,0:0|0:0,0:0:0:0:
109,79,55201,2,0,P|78:50|115:-3,1,103.700001977921,2|0,1:2|0:0,0:0:0:0:
163,177,55455,6,0,P|135:260|101:388,1,207.400003955841,2|0,1:2|1:0,0:0:0:0:
20,258,55836,1,0,1:0:0:0:
92,287,55963,2,0,P|149:316|208:338,1,103.700001977921,10|0,0:0|0:0,0:0:0:0:
355,214,56217,2,0,P|307:233|261:257,1,103.700001977921,2|0,1:2|0:0,0:0:0:0:
422,354,56472,5,2,1:2:0:0:
473,295,56599,1,0,1:0:0:0:
447,228,56726,2,0,P|433:167|419:67,1,155.550002966881,0|0,1:0|0:0,0:0:0:0:
419,75,56980,6,0,B|405:55|377:43|377:43|466:30|509:87|437:145,1,207.400003955841,8|0,0:0|1:0,0:0:0:0:
245,129,57489,6,0,P|174:104|89:75,1,155.550002966881,2|0,1:2|0:0,0:0:0:0:
98,78,57743,2,0,P|73:40|115:0,1,103.700001977921,2|0,1:2|1:0,0:0:0:0:
0,324,57997,2,0,P|78:289|65:211,1,155.550002966881,10|0,0:0|0:0,0:0:0:0:
77,228,58251,2,0,P|132:247|182:273,1,103.700001977921,2|0,1:2|0:0,0:0:0:0:
276,360,58506,6,0,P|350:340|485:315,1,207.400003955841,2|0,1:2|1:0,0:0:0:0:
512,384,58887,1,0,1:0:0:0:
351,256,59014,2,0,P|352:189|450:163,1,155.550002966881,10|0,0:0|0:0,0:0:0:0:
424,153,59268,2,0,B|387:134|347:153|347:153|352:112|319:86,1,155.550002966881,2|0,1:2|0:0,0:0:0:0:
320,87,59523,6,0,P|254:103|92:152,1,207.400003955841,2|0,1:2|1:0,0:0:0:0:
0,0,59904,1,0,1:0:0:0:
57,50,60031,2,0,P|39:116|-1:126,1,103.700001977921,10|0,0:0|0:0,0:0:0:0:
177,251,60285,2,0,P|167:202|150:151,1,103.700001977921,2|0,1:2|0:0,0:0:0:0:
0,307,60539,6,0,P|64:293|113:360,1,155.550002966881,2|0,1:2|0:0,0:0:0:0:
112,358,60794,2,0,P|178:342|240:334,1,103.700001977921,2|0,1:2|1:0,0:0:0:0:
471,384,61048,5,10,0:2:0:0:
458,310,61175,1,0,1:0:0:0:
386,275,61302,1,2,1:2:0:0:
310,300,61429,1,0,1:0:0:0:
298,309,61556,6,0,P|277:231|251:136,1,155.550002966881,2|0,1:2|0:0,0:0:0:0:
257,158,61811,2,0,B|239:145|229:133|229:133|196:145|151:157,1,103.700001977921,0|0,1:0|1:0,0:0:0:0:
332,17,62065,2,0,P|433:55|536:89,1,207.400003955841,10|0,0:0|1:0,0:0:0:0:
140,81,62446,5,0,1:0:0:0:
90,141,62573,2,0,P|15:117|6:-7,1,207.400003955841,2|0,1:2|1:0,0:0:0:0:
83,262,62955,1,0,1:0:0:0:
141,213,63082,6,0,B|164:176|195:171|228:187|228:187|193:186|168:215,1,155.550002966881,10|0,0:0|0:0,0:0:0:0:
83,262,63336,6,0,B|60:299|29:304|-4:288|-4:288|31:289|56:260,1,155.550002966881,0|0,1:0|0:0,0:0:0:0:
157,290,63590,6,0,B|220:278|234:317|228:322|243:363|322:351,1,155.550002966881,2|0,1:2|0:0,0:0:0:0:
288,352,63845,1,0,1:0:0:0:
352,309,63972,1,0,1:0:0:0:
314,244,64099,2,0,P|379:262|508:306,1,155.550002966881,8|0,0:0|0:0,0:0:0:0:
462,289,64353,2,0,P|426:276|427:214,1,103.700001977921,2|2,1:2|1:2,0:0:0:0:
512,56,64607,6,0,P|446:93|390:29,1,155.550002966881,2|0,1:2|0:0,0:0:0:0:
392,47,64862,2,0,P|268:82|214:102,1,155.550002966881,0|0,1:0|0:0,0:0:0:0:
242,90,65116,5,8,0:0:0:0:
190,151,65243,5,2,0:0:0:0:
111,141,65370,5,2,0:0:0:0:
75,70,65497,5,2,0:0:0:0:
137,15,65624,6,0,P|98:107|53:233,1,213.500002036095,6|0,0:0|1:0,0:0:0:0:
174,384,66006,1,0,1:0:0:0:
96,362,66133,2,0,P|140:312|232:323,1,160.125001527071,10|0,0:0|0:0,0:0:0:0:
227,319,66387,2,0,P|279:318|322:266,1,106.750001018047,0|0,1:0|0:0,0:0:0:0:
512,141,66641,6,0,P|437:142|417:243,1,160.125001527071,2|0,1:2|0:0,0:0:0:0:
404,211,66895,2,0,P|419:269|439:346,1,106.750001018047,2|0,1:2|1:0,0:0:0:0:
250,155,67150,2,0,P|263:103|291:-16,1,160.125001527071,10|0,0:0|0:0,0:0:0:0:
298,6,67404,2,0,P|279:83|260:161,1,160.125001527071,2|0,1:2|0:0,0:0:0:0:
187,208,67658,6,0,B|121:215|91:178|49:175|49:175|116:160|134:195,1,213.500002036095,2|0,1:2|1:0,0:0:0:0:
102,376,68039,1,0,1:0:0:0:
40,341,68167,2,0,P|130:322|202:299,1,160.125001527071,10|0,0:0|0:0,0:0:0:0:
194,301,68421,2,0,P|233:332|214:386,1,106.750001018047,2|0,1:2|0:0,0:0:0:0:
487,383,68675,6,0,P|441:355|392:334,1,106.750001018047,2|0,1:2|0:0,0:0:0:0:
228,158,68929,2,0,P|273:185|322:206,1,106.750001018047,2|0,1:2|1:0,0:0:0:0:
509,22,69184,2,0,B|498:53|483:81|483:81|484:110|484:110|470:136|457:171,1,160.125001527071,10|0,0:0|0:0,0:0:0:0:
457,170,69438,2,0,P|489:177|510:112,1,106.750001018047,2|0,1:2|0:0,0:0:0:0:
336,12,69692,6,0,P|237:43|124:69,1,213.500002036095,2|0,1:2|1:0,0:0:0:0:
7,217,70073,1,0,1:0:0:0:
73,261,70201,2,0,P|119:196|89:159,1,106.750001018047,10|0,0:0|0:0,0:0:0:0:
43,20,70455,2,0,P|-3:85|27:122,1,106.750001018047,2|0,1:2|0:0,0:0:0:0:
228,158,70709,6,0,P|291:138|414:108,1,160.125001527071,2|0,1:2|0:0,0:0:0:0:
382,114,70963,2,0,P|423:70|399:18,1,106.750001018047,2|0,1:2|1:0,0:0:0:0:
288,235,71217,1,10,0:0:0:0:
293,255,71345,1,2,0:0:0:0:
298,276,71472,1,2,0:0:0:0:
303,297,71599,1,2,0:0:0:0:
311,322,71726,6,0,P|380:339|471:364,1,160.125001527071,2|0,1:2|0:0,0:0:0:0:
465,362,71980,2,0,P|385:378|351:386,1,106.750001018047,2|0,1:2|1:0,0:0:0:0:
137,211,72234,2,0,P|151:259|61:300,1,160.125001527071,10|0,0:0|0:0,0:0:0:0:
68,303,72489,2,0,P|125:329|171:354,1,106.750001018047,0|0,1:0|0:0,0:0:0:0:
0,138,72743,5,2,1:2:0:0:
72,121,72870,1,2,1:2:0:0:
144,101,72997,1,2,1:2:0:0:
216,79,73124,1,2,1:2:0:0:
286,51,73251,6,0,P|323:46|344:22,3,53.3750005090237,10|2|2|2,0:0|0:0|0:0|0:0,0:0:0:0:
301,72,73506,2,0,P|327:72|349:86,3,53.3750005090237,2|2|2|2,0:0|0:0|0:0|0:0,0:0:0:0:
362,100,73760,6,0,B|385:136|400:150|400:150|377:180|306:322,1,213.500002036095,2|0,1:2|1:0,0:0:0:0:
87,339,74141,1,0,1:0:0:0:
159,301,74268,2,0,P|227:334|312:383,1,160.125001527071,10|0,0:0|0:0,0:0:0:0:
300,375,74523,2,0,P|370:373|395:316,1,106.750001018047,0|0,1:0|0:0,0:0:0:0:
203,124,74777,6,0,B|162:106|129:140|134:146|109:191|51:167,1,160.125001527071,2|0,1:2|0:0,0:0:0:0:
60,170,75031,2,0,P|17:134|28:81,1,106.750001018047,2|0,1:2|1:0,0:0:0:0:
218,19,75285,2,0,B|284:38|284:38|301:37|301:37|375:58,1,160.125001527071,10|0,0:2|0:0,0:0:0:0:
372,57,75539,2,0,P|442:32|494:16,1,106.750001018047,2|0,1:2|0:0,0:0:0:0:
475,283,75794,6,0,P|417:215|290:248,1,213.500002036095,2|0,1:2|1:0,0:0:0:0:
121,368,76175,1,0,1:0:0:0:
181,324,76302,2,0,P|256:353|330:384,1,160.125001527071,10|0,0:0|0:0,0:0:0:0:
329,384,76556,2,0,P|377:333|365:281,1,106.750001018047,2|0,1:2|0:0,0:0:0:0:
473,42,76811,6,0,P|487:101|499:149,1,106.750001018047,2|0,1:2|0:0,0:0:0:0:
303,232,77065,2,0,P|315:180|328:128,1,106.750001018047,2|0,1:2|1:0,0:0:0:0:
218,27,77319,2,0,B|178:38|165:82|165:82|133:42|80:49,1,160.125001527071,10|0,0:0|0:0,0:0:0:0:
96,49,77573,2,0,P|45:97|62:166,1,106.750001018047,2|0,1:2|0:0,0:0:0:0:
20,338,77828,6,0,P|123:290|90:175,1,213.500002036095,2|0,1:2|1:0,0:0:0:0:
43,210,78209,1,0,1:0:0:0:
162,332,78336,2,0,P|216:347|333:393,1,160.125001527071,10|0,0:0|0:0,0:0:0:0:
313,383,78590,2,0,B|403:368|333:356|431:339,1,106.750001018047,2|0,1:2|0:0,0:0:0:0:
313,157,78845,2,0,P|333:226|340:261,1,106.750001018047,2|0,1:2|0:0,0:0:0:0:
487,383,79099,2,0,P|498:330|513:279,1,106.750001018047,2|0,1:2|1:0,0:0:0:0:
334,47,79353,6,0,B|264:23|218:79|228:117|228:117|248:75|306:68,1,213.500002036095,10|0,0:0|1:0,0:0:0:0:
313,157,79862,5,2,1:2:0:0:
256,192,79989,12,2,81641,0:0:0:0:
79,18,81895,5,2,0:0:0:0:
31,74,82150,1,2,0:0:0:0:
65,140,82404,1,2,0:0:0:0:
141,122,82658,1,2,0:0:0:0:
156,42,82912,5,2,0:0:0:0:
163,33,83167,1,2,0:0:0:0:
226,82,83421,1,2,0:0:0:0:
291,46,83675,1,2,0:0:0:0:
329,111,83929,1,2,0:0:0:0:
299,180,84184,1,2,0:0:0:0:
228,159,84438,1,2,0:0:0:0:
314,186,84692,1,2,0:0:0:0:
419,211,84946,5,2,0:0:0:0:
494,283,85201,1,2,0:0:0:0:
329,384,85455,1,2,0:0:0:0:
314,186,85709,6,0,B|305:143|262:119|166:156|175:239|243:310|319:287|323:276|326:266|397:259|423:348,1,395.280009650391,2|0,2:0|0:0,0:0:0:0:
