osu file format v14

[General]
AudioFilename: audio.mp3
AudioLeadIn: 0
PreviewTime: 49313
Countdown: 0
SampleSet: Soft
StackLeniency: 0.6
Mode: 0
LetterboxInBreaks: 0
WidescreenStoryboard: 1

[Editor]
DistanceSpacing: 1.1
BeatDivisor: 2
GridSize: 32
TimelineZoom: 1.5

[Metadata]
Title:Literature (TV Size)
TitleUnicode:リテラチュア (TV Size)
Artist:Ueda Reina
ArtistUnicode:上田麗奈
Creator:Zawajiro
Version:Easy
Source:魔女の旅々
Tags:wandering witch: the journey of elaina うえしゃま Ueshama れいちゃん reichan rei-chan majo no tabitabi anime jpop j-pop japanese pop イレイナ opening op
BeatmapID:3551242
BeatmapSetID:1737474

[Difficulty]
HPDrainRate:3
CircleSize:3
OverallDifficulty:3
ApproachRate:4
SliderMultiplier:1.5
SliderTickRate:1

[Events]
//Background and Video events
0,0,"bg.jpg",0,0
Video,-100,"vid.mp4"
//Break Periods
2,41217,43965
//Storyboard Layer 0 (Background)
//Storyboard Layer 1 (Fail)
//Storyboard Layer 2 (Pass)
//Storyboard Layer 3 (Foreground)
//Storyboard Layer 4 (Overlay)
//Storyboard Sound Samples

[TimingPoints]
540,508.474576271186,4,2,1,30,1,0
540,-200,4,2,1,30,0,0
1556,-200,4,2,1,35,0,0
2573,-200,4,2,1,40,0,0
3590,-200,4,2,1,45,0,0
4607,-200,4,2,1,50,0,0
8675,-200,4,2,1,40,0,0
20878,-153.846153846154,4,2,2,50,0,0
21006,-153.846153846154,4,2,1,50,0,0
24946,-153.846153846154,4,2,2,50,0,0
25073,-153.846153846154,4,2,1,50,0,0
29014,-153.846153846154,4,2,1,55,0,0
33082,-200,4,2,1,50,0,0
41217,-153.846153846154,4,2,1,45,0,0
43315,-153.846153846154,4,2,1,45,0,0
43378,-153.846153846154,4,2,1,45,0,0
45285,-153.846153846154,4,2,1,60,0,0
46302,-153.846153846154,4,2,1,65,0,0
47319,-153.846153846154,4,2,1,70,0,0
48082,-153.846153846154,4,2,1,55,0,0
48845,-153.846153846154,4,2,1,75,0,0
49353,-142.857142857143,4,2,1,80,0,1
65116,-142.857142857143,4,2,1,80,0,0
65624,-142.857142857143,4,2,1,80,0,1
79862,-142.857142857143,4,2,1,50,0,0
81895,-142.857142857143,4,2,1,40,0,0
85709,-142.857142857143,4,2,1,50,0,0
86726,-142.857142857143,4,2,1,55,0,0
86980,-142.857142857143,4,2,1,60,0,0
87997,-142.857142857143,4,2,1,20,0,0

[Colours]
Combo1 : 188,250,213
Combo2 : 219,219,219
Combo3 : 255,168,211

[HitObjects]
137,13,540,6,0,P|148:75|165:170,2,150,2|2|2,0:0|0:0|0:0,0:0:0:0:
273,105,3590,1,2,0:0:0:0:
256,192,4607,12,2,6641,0:0:0:0:
468,341,8675,6,0,P|379:323|308:314,1,150,2|0,1:2|0:0,0:0:0:0:
248,355,10201,1,2,0:0:0:0:
194,292,10709,1,2,1:2:0:0:
196,0,12743,6,0,P|147:51|65:48,1,150,2|0,1:2|0:0,0:0:0:0:
15,111,14268,1,2,1:2:0:0:
67,175,14777,1,2,1:2:0:0:
369,43,16811,6,0,P|383:80|398:124,1,75,2|0,1:2|0:0,0:0:0:0:
365,190,17828,1,2,0:0:0:0:
271,54,18845,6,0,P|228:69|184:83,1,75,2|0,1:2|0:0,0:0:0:0:
123,46,19862,1,2,1:2:0:0:
68,272,20878,6,0,P|117:291|170:315,1,97.4999955368044,4|2,0:0|0:0,0:0:0:0:
246,370,21895,2,0,P|295:358|359:340,1,97.4999955368044,8|2,0:0|0:0,0:0:0:0:
439,303,22912,1,10,0:0:0:0:
322,191,23675,1,2,1:2:0:0:
99,20,24946,6,0,P|150:47|151:97,1,97.4999955368044,4|2,0:0|0:0,0:0:0:0:
84,162,25963,2,0,P|60:221|49:262,1,97.4999955368044,8|2,0:0|0:0,0:0:0:0:
10,353,26980,2,0,P|64:337|112:328,1,97.4999955368044,2|0,1:2|0:0,0:0:0:0:
157,321,27743,2,0,P|190:337|209:346,1,48.7499977684022,2|8,1:2|0:0,0:0:0:0:
285,145,29014,6,0,P|303:86|317:37,1,97.4999955368044,2|0,1:2|1:0,0:0:0:0:
408,100,30031,2,0,P|417:156|428:215,1,97.4999955368044,2|0,1:2|1:0,0:0:0:0:
396,299,31048,2,0,P|337:305|305:265,1,97.4999955368044,2|0,1:2|1:0,0:0:0:0:
251,192,32065,2,0,P|196:180|150:208,1,97.4999955368044,2|0,1:2|1:0,0:0:0:0:
92,280,33082,6,0,P|105:318|113:359,1,75,6|2,1:2|0:0,0:0:0:0:
189,381,34099,1,8,0:0:0:0:
259,335,34607,1,2,0:0:0:0:
259,335,34862,2,0,P|314:319|344:315,1,75,2|2,1:2|0:0,0:0:0:0:
400,362,35878,2,0,P|441:335|439:257,1,112.5,2|0,1:2|1:0,0:0:0:0:
486,201,37150,6,0,P|471:158|459:123,1,75,2|2,1:2|0:0,0:0:0:0:
412,63,38167,1,8,0:0:0:0:
333,63,38675,1,2,0:0:0:0:
333,63,38929,2,0,P|297:78|256:92,1,75,2|10,0:0|0:0,0:0:0:0:
183,68,39946,2,0,P|126:62|95:14,1,112.5,2|0,1:2|1:0,0:0:0:0:
256,192,45285,12,0,48082,1:0:0:0:
416,360,49353,6,0,P|430:291|439:249,1,104.999996795654,6|10,1:2|0:0,0:0:0:0:
505,163,50370,2,0,P|453:165|416:116,1,104.999996795654,2|10,1:2|0:0,0:0:0:0:
385,88,51133,1,2,1:2:0:0:
385,88,51387,2,0,P|326:107|265:122,1,104.999996795654,2|10,1:2|0:0,0:0:0:0:
172,89,52404,2,0,P|197:135|215:203,1,104.999996795654,2|10,1:2|0:0,0:0:0:0:
100,216,53421,6,0,P|92:259|54:341,1,104.999996795654,2|10,1:2|0:0,0:0:0:0:
163,384,54438,2,0,P|203:352|279:367,1,104.999996795654,2|10,1:2|0:0,0:0:0:0:
311,333,55201,1,2,1:2:0:0:
311,333,55455,2,0,P|365:353|434:374,1,104.999996795654,2|10,1:2|0:0,0:0:0:0:
492,285,56472,2,0,P|439:271|418:210,1,104.999996795654,2|8,1:2|0:0,0:0:0:0:
462,122,57489,6,0,P|410:137|347:156,1,104.999996795654,2|10,1:2|0:0,0:0:0:0:
289,61,58506,2,0,P|232:65|201:109,1,104.999996795654,2|10,1:2|0:0,0:0:0:0:
195,160,59268,1,2,1:2:0:0:
195,160,59523,2,0,P|160:194|102:185,1,104.999996795654,2|10,1:2|0:0,0:0:0:0:
98,303,60539,2,0,P|50:281|-1:271,2,104.999996795654,2|10|2,1:2|0:2|1:2,0:0:0:0:
183,381,62065,5,10,0:0:0:0:
282,322,62573,1,2,1:2:0:0:
388,367,63082,2,0,P|398:336|418:305,1,52.4999983978272,10|0,0:0|1:0,0:0:0:0:
460,295,63590,2,0,P|446:225|430:181,1,104.999996795654,2|8,1:2|0:0,0:0:0:0:
504,100,64607,2,0,P|455:81|406:60,1,104.999996795654,2|8,1:2|0:0,0:0:0:0:
305,4,65624,6,0,P|260:18|191:46,1,104.999996795654,6|10,0:0|0:0,0:0:0:0:
99,22,66641,1,2,1:2:0:0:
99,22,66895,2,0,P|65:3|32:-6,1,52.4999983978272,2|10,1:2|0:0,0:0:0:0:
56,114,67658,6,0,P|64:164|14:198,1,104.999996795654,2|10,1:2|0:0,0:0:0:0:
92,298,68675,1,2,1:2:0:0:
92,298,68929,2,0,P|143:287|167:285,1,52.4999983978272,2|10,1:2|0:0,0:0:0:0:
237,354,69692,6,0,P|305:371|359:396,1,104.999996795654,2|10,1:2|0:0,0:0:0:0:
444,336,70709,1,2,1:2:0:0:
444,336,70963,2,0,P|417:295|420:271,1,52.4999983978272,2|10,1:2|0:0,0:0:0:0:
472,191,71726,5,2,1:2:0:0:
505,81,72234,1,10,0:0:0:0:
408,16,72743,2,0,P|360:41|308:53,1,104.999996795654,2|10,1:2|0:0,0:0:0:0:
213,115,73760,6,0,P|264:157|258:203,1,104.999996795654,2|10,1:2|0:0,0:0:0:0:
175,266,74777,1,2,1:2:0:0:
175,266,75031,2,0,P|167:217|166:199,2,52.4999983978272,2|10|2,1:2|0:2|1:2,0:0:0:0:
180,323,75794,6,0,P|128:334|79:351,1,104.999996795654,2|10,1:2|0:0,0:0:0:0:
47,245,76811,1,2,1:2:0:0:
47,245,77065,2,0,P|9:227|-14:220,2,52.4999983978272,2|10|2,1:2|0:0|1:2,0:0:0:0:
103,231,77828,6,0,P|164:206|174:152,1,104.999996795654,2|10,1:2|0:0,0:0:0:0:
187,61,78845,1,2,1:2:0:0:
187,61,79099,2,0,P|234:42|257:37,2,52.4999983978272,2|10|0,1:2|0:0|1:0,0:0:0:0:
131,78,79862,5,2,1:2:0:0:
256,192,81895,12,0,87997,0:0:0:0:
