osu file format v14

[General]
AudioFilename: audio.mp3
AudioLeadIn: 0
PreviewTime: 49579
Countdown: 0
SampleSet: Soft
StackLeniency: 0.7
Mode: 3
LetterboxInBreaks: 0
SpecialStyle: 0
WidescreenStoryboard: 1

[Editor]
Bookmarks: 8901,21104,49579,57715,65850,73986,82121
DistanceSpacing: 0.9
BeatDivisor: 4
GridSize: 4
TimelineZoom: 0.9999999

[Metadata]
Title:Literature (TV Size)
TitleUnicode:リテラチュア (TV Size)
Artist:Ueda Reina
ArtistUnicode:上田麗奈
Creator:Touru0711
Version:DH's Easy
Source:魔女の旅々
Tags:RIRIKO deta5859 _Rokii Dudehacker Drum-Hitnormal Majo no Tabitabi anime japanese opening op jpop LACM-24029 wandering witch: the journey of elaina pop j-pop
BeatmapID:2652079
BeatmapSetID:1274961

[Difficulty]
HPDrainRate:7
CircleSize:4
OverallDifficulty:7
ApproachRate:5
SliderMultiplier:1.4
SliderTickRate:1

[Events]
//Background and Video events
0,0,"BG_Easy.jpg",0,0
//Break Periods
//Storyboard Layer 0 (Background)
//Storyboard Layer 1 (Fail)
//Storyboard Layer 2 (Pass)
//Storyboard Layer 3 (Foreground)
//Storyboard Layer 4 (Overlay)
//Storyboard Sound Samples
Sample,2820,0,"E7S_s.wav",70
Sample,3837,0,"F#6S_Gb6S_s.wav",70
Sample,33329,0,"E5S_s.wav",70
Sample,34092,0,"B4S_s.wav",70
Sample,34092,0,"D#5S_Eb5S_s.wav",70
Sample,34600,0,"G#4S_Ab4S_s.wav",70
Sample,35109,0,"C#5S_Db5S_s.wav",70
Sample,36125,0,"G#4S_Ab4S_s.wav",70
Sample,36888,0,"B3S_s.wav",70
Sample,37397,0,"E4S_s.wav",70
Sample,38159,0,"B5S_s.wav",70
Sample,38922,0,"B5S_s.wav",70
Sample,39176,0,"F#5S_Gb5S_s.wav",70
Sample,39685,0,"A5S_s.wav",70
Sample,40193,0,"B4S_s.wav",70
Sample,40702,0,"F#4S_Gb4S_s.wav",70
Sample,45532,0,"B3S_s.wav",70
Sample,45532,0,"B5S_s.wav",70
Sample,46041,0,"B5S_s.wav",70
Sample,46549,0,"B3S_s.wav",70
Sample,46549,0,"B5S_s.wav",70
Sample,47058,0,"B5S_s.wav",70
Sample,47058,0,"E6S_s.wav",70
Sample,47566,0,"B5S_s.wav",70
Sample,47566,0,"D#6S_Eb6S_s.wav",70
Sample,47948,0,"B5S_s.wav",70
Sample,47948,0,"D#6S_Eb6S_s.wav",70
Sample,48329,0,"B3S_s.wav",70
Sample,48329,0,"B5S_s.wav",70
Sample,82142,0,"E6S_s.wav",70

[TimingPoints]
787,508.474576271186,4,2,1,60,1,0
49600,-100.0,4,2,1,60,0,1
82142,-100.0,4,2,1,30,0,0

[HitObjects]
64,192,787,128,0,1803:0:0:0:70:F#6S_Gb6S_s.wav
320,192,1803,128,0,2820:0:0:0:70:F#6S_Gb6S_s.wav
448,192,2820,128,0,3837:0:0:0:70:B6S_s.wav
192,192,3837,128,0,4854:0:0:0:70:B5S_s.wav
64,192,4854,128,0,5871:0:0:0:70:C#6S_Db6S_s.wav
448,192,5871,128,0,6380:0:0:0:70:B6S_s.wav
192,192,6380,128,0,6888:0:0:0:0:
320,192,6888,128,0,7905:0:0:0:70:B7S_s.wav
448,192,8668,1,0,0:0:0:0:
192,192,8922,1,0,0:0:0:0:
320,192,9303,1,0,0:0:0:0:
64,192,9685,1,0,0:0:0:0:
448,192,10193,1,0,0:0:0:0:
192,192,10448,1,0,0:0:0:0:
320,192,10702,1,0,0:0:0:0:
64,192,10956,1,0,0:0:0:0:
192,192,11337,1,0,0:0:0:0:
320,192,11719,1,0,0:0:0:0:
448,192,12736,1,0,0:0:0:0:
192,192,12990,1,0,0:0:0:0:
320,192,13371,1,0,0:0:0:0:
64,192,13753,1,0,0:0:0:0:
448,192,14261,1,0,0:0:0:0:
192,192,14515,1,0,0:0:0:0:
320,192,14770,1,0,0:0:0:0:
64,192,15024,1,0,0:0:0:0:
192,192,15405,1,0,0:0:0:0:
320,192,15786,1,0,0:0:0:0:
192,192,16549,1,0,0:0:0:0:
448,192,16867,1,0,0:0:0:0:
64,192,17058,1,0,0:0:0:0:
320,192,17503,1,0,0:0:0:0:
192,192,17757,1,0,0:0:0:0:
448,192,18075,1,0,0:0:0:0:
64,192,18837,1,0,0:0:0:0:
320,192,19092,1,0,0:0:0:0:
192,192,19473,1,0,0:0:0:0:
448,192,19727,1,0,0:0:0:0:
64,192,19981,128,0,20681:0:0:0:0:
192,192,20681,1,0,0:0:0:0:
320,192,21125,1,2,0:0:0:0:
448,192,21125,128,0,21888:0:0:0:0:
192,192,21888,1,2,0:0:0:0:
320,192,22142,128,0,22651:0:0:0:0:
192,192,22651,128,0,23159:0:0:0:0:
64,192,23159,1,8,0:0:0:0:
320,192,23541,1,0,0:0:0:0:
448,192,23922,1,2,0:0:0:0:
320,192,25193,1,2,0:0:0:0:
448,192,25193,128,0,25956:0:0:0:0:
64,192,25956,1,2,0:0:0:0:
320,192,26210,128,8,26719:0:0:0:0:
192,192,26719,128,0,27227:0:0:0:0:
448,192,27227,1,0,0:0:0:0:
320,192,27609,1,0,0:0:0:0:
64,192,27990,1,2,0:0:0:0:
192,192,28753,1,0,0:0:0:0:
320,192,29007,1,0,0:0:0:0:
64,192,29261,1,2,0:0:0:0:
448,192,29261,1,0,0:0:0:0:
192,192,29770,1,2,0:0:0:0:
320,192,30278,1,2,0:0:0:0:
64,192,30786,1,2,0:0:0:0:
448,192,31041,1,8,0:0:0:0:
320,192,31295,1,2,0:0:0:0:
192,192,31803,1,2,0:0:0:0:
448,192,32312,1,2,0:0:0:0:
64,192,32566,1,2,0:0:0:0:
192,192,32820,1,2,0:0:0:0:
320,192,33075,1,2,0:0:0:0:
64,192,33329,1,6,0:0:0:0:
448,192,33329,1,0,0:0:0:70:B4S_s.wav
192,192,33837,1,0,0:0:0:0:
448,192,34092,128,2,34600:0:0:0:0:
320,192,34600,1,2,0:0:0:0:
192,192,34854,1,0,0:0:0:70:B4S_s.wav
64,192,35109,128,2,35617:0:0:0:0:
192,192,35617,1,0,0:0:0:70:B4S_s.wav
320,192,35871,1,0,0:0:0:70:A4S_s.wav
448,192,36125,128,2,36634:0:0:0:0:
64,192,36634,1,2,0:0:0:0:
320,192,36888,128,0,37397:0:0:0:70:G#3S_Ab3S_s.wav
192,192,37397,1,2,0:0:0:0:
320,192,37651,1,0,0:0:0:70:F#4S_Gb4S_s.wav
448,192,37905,1,0,0:0:0:70:G#4S_Ab4S_s.wav
64,192,38159,128,0,38668:0:0:0:70:G#5S_Ab5S_s.wav
448,192,38668,1,0,0:0:0:70:A5S_s.wav
320,192,38922,1,0,0:0:0:70:G#4S_Ab4S_s.wav
192,192,39176,128,0,39685:0:0:0:70:G#4S_Ab4S_s.wav
64,192,39685,1,0,0:0:0:70:LR_Snare_Soft_Fast.wav
192,192,39939,1,0,0:0:0:70:A4S_s.wav
448,192,40193,128,0,40702:0:0:0:70:F#4S_Gb4S_s.wav
320,192,40702,1,2,0:0:0:0:
64,192,40956,1,0,0:0:0:70:B4S_s.wav
192,192,41210,1,0,0:0:0:70:F#4S_Gb4S_s.wav
320,192,41464,128,0,43498:0:0:0:70:F#5S_Gb5S_s.wav
64,192,43498,128,0,44261:0:0:0:70:A5S_s.wav
448,192,44261,128,0,45024:0:0:0:70:E6S_s.wav
192,192,45024,128,0,45532:0:0:0:70:B5S_s.wav
320,192,45532,1,2,0:0:0:0:
320,192,46041,1,2,0:0:0:0:
64,192,46549,1,2,0:0:0:0:
64,192,47058,1,2,0:0:0:0:
448,192,47566,1,2,0:0:0:0:
320,192,47948,1,2,0:0:0:0:
64,192,48329,128,2,49092:0:0:0:0:
192,192,49092,128,0,49600:0:0:0:0:
320,192,49600,1,4,0:0:0:0:
448,192,49600,1,2,0:0:0:0:
64,192,50109,1,8,0:0:0:0:
192,192,50109,1,0,0:0:0:0:
448,192,50617,1,2,0:0:0:0:
64,192,51125,1,8,0:0:0:0:
320,192,51125,1,0,0:0:0:0:
192,192,51380,1,0,0:0:0:0:
448,192,51634,1,2,0:0:0:0:
64,192,52142,1,8,0:0:0:0:
192,192,52142,1,0,0:0:0:0:
320,192,52651,1,2,0:0:0:0:
64,192,53159,1,8,0:0:0:0:
448,192,53159,128,0,53668:0:0:0:0:
192,192,53668,1,2,0:0:0:0:
320,192,54176,1,8,0:0:0:0:
448,192,54176,1,0,0:0:0:0:
64,192,54685,1,2,0:0:0:0:
192,192,55193,1,8,0:0:0:0:
448,192,55193,1,0,0:0:0:0:
320,192,55448,1,0,0:0:0:0:
64,192,55702,1,2,0:0:0:0:
192,192,56210,1,8,0:0:0:0:
320,192,56464,1,0,0:0:0:0:
448,192,56719,1,2,0:0:0:0:
64,192,57227,128,2,57736:0:0:0:0:
192,192,57227,1,8,0:0:0:0:
320,192,57736,1,2,0:0:0:0:
192,192,58244,1,8,0:0:0:0:
448,192,58244,1,0,0:0:0:0:
64,192,58753,1,2,0:0:0:0:
320,192,59261,1,8,0:0:0:0:
448,192,59261,1,0,0:0:0:0:
192,192,59515,1,0,0:0:0:0:
64,192,59770,1,2,0:0:0:0:
192,192,60278,1,8,0:0:0:0:
448,192,60278,1,0,0:0:0:0:
64,192,60786,1,2,0:0:0:0:
192,192,61041,1,0,0:0:0:0:
320,192,61295,1,8,0:0:0:0:
448,192,61295,1,0,0:0:0:0:
64,192,61549,1,0,0:0:0:0:
192,192,61803,1,2,0:0:0:0:
320,192,62312,1,8,0:0:0:0:
448,192,62820,1,2,0:0:0:0:
64,192,63329,1,8,0:0:0:0:
192,192,63837,128,2,64346:0:0:0:0:
320,192,64346,128,8,64854:0:0:0:0:
448,192,64854,128,2,65363:0:0:0:0:
64,192,65363,128,8,65871:0:0:0:0:
320,192,65871,128,4,66380:0:0:0:0:
448,192,65871,1,2,0:0:0:0:
192,192,66380,128,8,66888:0:0:0:0:
448,192,66888,1,2,0:0:0:0:
320,192,67142,1,0,0:0:0:0:
64,192,67397,1,8,0:0:0:0:
192,192,67651,1,0,0:0:0:0:
448,192,67905,1,2,0:0:0:0:
64,192,68414,1,8,0:0:0:0:
320,192,68668,1,0,0:0:0:0:
192,192,68922,1,2,0:0:0:0:
448,192,69176,1,0,0:0:0:0:
320,192,69431,1,8,0:0:0:0:
192,192,69685,1,0,0:0:0:0:
64,192,69939,1,2,0:0:0:0:
192,192,70448,1,8,0:0:0:0:
320,192,70702,1,0,0:0:0:0:
448,192,70956,1,2,0:0:0:0:
64,192,71210,1,0,0:0:0:0:
192,192,71464,128,8,71973:0:0:0:0:
448,192,71973,1,2,0:0:0:0:
320,192,72227,1,0,0:0:0:0:
64,192,72481,128,8,72990:0:0:0:0:
448,192,72990,128,2,73498:0:0:0:0:
192,192,73498,128,8,74007:0:0:0:0:
320,192,74007,128,2,74515:0:0:0:0:
64,192,74515,128,8,75024:0:0:0:0:
448,192,75024,1,2,0:0:0:0:
320,192,75278,1,0,0:0:0:0:
192,192,75532,1,8,0:0:0:0:
64,192,75786,1,0,0:0:0:0:
448,192,76041,1,2,0:0:0:0:
64,192,76549,1,8,0:0:0:0:
192,192,76803,1,0,0:0:0:0:
320,192,77058,1,2,0:0:0:0:
448,192,77312,1,0,0:0:0:0:
192,192,77566,1,8,0:0:0:0:
320,192,77820,1,0,0:0:0:0:
64,192,78075,1,2,0:0:0:0:
448,192,78583,1,8,0:0:0:0:
192,192,78837,1,0,0:0:0:0:
320,192,79092,1,2,0:0:0:0:
448,192,79346,1,0,0:0:0:0:
64,192,79600,1,8,0:0:0:0:
192,192,79854,1,0,0:0:0:0:
320,192,80109,128,2,81125:0:0:0:0:
64,192,81125,128,0,81634:0:0:0:0:
448,192,81634,128,0,82142:0:0:0:0:
192,192,82142,1,4,0:0:0:0:
64,192,82397,1,0,0:0:0:70:D#6S_Eb6S_s.wav
192,192,82651,1,0,0:0:0:70:E6S_s.wav
448,192,82905,1,0,0:0:0:70:B6S_s.wav
64,192,83159,1,0,0:0:0:70:D#6S_Eb6S_s.wav
192,192,83414,1,0,0:0:0:70:E6S_s.wav
448,192,83668,1,0,0:0:0:70:B6S_s.wav
64,192,83922,1,0,0:0:0:70:D#6S_Eb6S_s.wav
192,192,84176,1,0,0:0:0:70:E6S_s.wav
448,192,84431,1,0,0:0:0:70:B6S_s.wav
64,192,84685,1,0,0:0:0:70:D#6S_Eb6S_s.wav
192,192,84939,1,0,0:0:0:70:E6S_s.wav
320,192,85193,1,0,0:0:0:70:B6S_s.wav
448,192,85448,1,0,0:0:0:70:D#7S_Eb7S_s.wav
64,192,85702,1,0,0:0:0:70:E7S_s.wav
192,192,85956,128,0,88244:0:0:0:70:B6S_s.wav
