osu file format v14

[General]
AudioFilename: audio.mp3
AudioLeadIn: 0
PreviewTime: 114903
Countdown: 0
SampleSet: Soft
StackLeniency: 0.4
Mode: 0
LetterboxInBreaks: 0
EpilepsyWarning: 1
WidescreenStoryboard: 1

[Editor]
Bookmarks: 21471,33674,49945,82488,98759,115030,147572,163843,180115,196386,214691,226894,237064
DistanceSpacing: 0.3
BeatDivisor: 4
GridSize: 16
TimelineZoom: 2

[Metadata]
Title:Literature
TitleUnicode:リテラチュア
Artist:Ueda Reina
ArtistUnicode:上田麗奈
Creator:-Hitomi
Version:KoldNoodl's Hard
Source:魔女の旅々
Tags:Wandering Witch: The Journey of Elaina Japanese Anime Pop JPop J-Pop Majo no Tabitabi matsuyuki ame matsuyuki_ame rk657 kanui koldnoodl euryalle うえしゃま Ueshama れいちゃん Reichan Rei-chan イレイナ Ashen Opening OP
BeatmapID:3609437
BeatmapSetID:1749893

[Difficulty]
HPDrainRate:5
CircleSize:3.8
OverallDifficulty:6
ApproachRate:8
SliderMultiplier:2.2
SliderTickRate:1

[Events]
//Background and Video events
0,0,"1.jpg",0,0
//Break Periods
2,42010,43092
2,44043,45126
2,82688,85804
2,107094,108178
2,109128,110212
//Storyboard Layer 0 (Background)
//Storyboard Layer 1 (Fail)
//Storyboard Layer 2 (Pass)
//Storyboard Layer 3 (Foreground)
//Storyboard Layer 4 (Overlay)
//Storyboard Sound Samples

[TimingPoints]
1056,550.45871559633,4,2,10,35,1,0
1193,428.571428571429,4,2,25,40,1,0
1193,-142.857142857143,4,2,25,40,0,0
1219,-142.857142857143,4,2,1,5,0,0
1514,508.474576271186,4,2,23,50,1,0
1895,-100,4,2,25,50,0,0
2149,-142.857142857143,4,2,24,50,0,0
2181,-142.857142857143,4,2,1,5,0,0
2530,-142.857142857143,4,2,26,50,0,0
2562,-142.857142857143,4,2,1,5,0,0
2911,-142.857142857143,4,2,27,50,0,0
3166,508.474576271186,4,2,28,40,1,0
3166,-142.857142857143,4,2,28,40,0,0
3197,-142.857142857143,4,2,1,5,0,0
3420,-142.857142857143,4,2,1,40,0,0
3547,-142.857142857143,4,2,27,40,0,0
3579,-142.857142857143,4,2,1,5,0,0
3928,-142.857142857143,4,2,25,40,0,0
4182,-142.857142857143,4,2,24,40,0,0
4214,-142.857142857143,4,2,1,5,0,0
4436,-142.857142857143,4,2,23,40,0,0
4723,-142.857142857143,4,2,1,5,0,0
4945,-142.857142857143,4,2,29,40,0,0
5199,-142.857142857143,4,2,30,40,0,0
7233,-142.857142857143,4,2,32,40,0,0
9267,508.474576271186,4,2,1,30,1,0
9267,-142.857142857143,4,2,1,30,0,0
21470,508.474576271186,4,2,1,45,1,0
21470,-142.857142857143,4,2,1,45,0,0
21724,-142.857142857143,4,2,4,45,0,0
21851,-142.857142857143,4,2,4,40,0,0
21978,-142.857142857143,4,2,4,45,0,0
23757,-142.857142857143,4,2,4,40,0,0
23885,-142.857142857143,4,2,4,45,0,0
24139,-142.857142857143,4,2,4,40,0,0
24266,-142.857142857143,4,2,4,45,0,0
25919,-142.857142857143,4,2,4,40,0,0
26046,-142.857142857143,4,2,4,45,0,0
32529,-142.857142857143,4,2,4,40,0,0
32656,-142.857142857143,4,2,4,45,0,0
33673,508.474576271186,4,2,1,45,1,0
33673,-142.857142857143,4,2,1,45,0,0
34563,-142.857142857143,4,2,1,40,0,0
34690,-142.857142857143,4,2,4,45,0,0
35834,-142.857142857143,4,2,4,40,0,0
35961,-142.857142857143,4,2,4,45,0,0
37486,-142.857142857143,4,2,4,40,0,0
37614,-142.857142857143,4,2,4,45,0,0
38630,-142.857142857143,4,2,4,40,0,0
39012,-142.857142857143,4,2,4,45,0,0
41173,-142.857142857143,4,2,4,40,0,0
41300,-142.857142857143,4,2,4,45,0,0
41427,-142.857142857143,4,2,4,40,0,0
41554,-142.857142857143,4,2,4,45,0,0
41808,-142.857142857143,4,2,4,40,0,0
43842,-142.857142857143,4,2,68,40,0,0
45876,-142.857142857143,4,2,1,45,0,0
46893,-142.857142857143,4,2,1,50,0,0
48673,-142.857142857143,4,2,1,60,0,0
49690,-142.857142857143,4,2,11,60,0,0
49944,-100,4,2,3,70,0,0
50198,-100,4,2,21,70,0,0
50325,-100,4,2,1,70,0,0
50453,-100,4,2,11,70,0,0
50707,-100,4,2,10,70,0,0
50961,-100,4,2,11,70,0,0
51215,-100,4,2,15,70,0,0
51342,-100,4,2,1,70,0,0
51469,-100,4,2,10,70,0,0
51724,-100,4,2,21,70,0,0
51978,-100,4,2,11,70,0,0
52232,-100,4,2,18,70,0,0
52486,-100,4,2,10,70,0,0
52740,-100,4,2,21,70,0,0
52995,-100,4,2,11,70,0,0
53249,-100,4,2,10,70,0,0
53376,-100,4,2,1,70,0,0
53503,-100,4,2,10,70,0,0
53884,-100,4,2,10,40,0,0
54012,-100,4,2,12,70,0,0
54266,-100,4,2,21,70,0,0
54520,-100,4,2,11,70,0,0
54775,-100,4,2,10,70,0,0
55029,-100,4,2,11,70,0,0
55283,-100,4,2,15,70,0,0
55410,-100,4,2,1,70,0,0
55537,-100,4,2,10,70,0,0
55792,-100,4,2,21,70,0,0
56046,-100,4,2,11,70,0,0
56300,-100,4,2,1,70,0,0
56427,-100,4,2,11,70,0,0
56554,-100,4,2,10,70,0,0
56808,-100,4,2,12,70,0,0
57063,-100,4,2,21,70,0,0
57190,-100,4,2,12,70,0,0
58334,-100,4,2,21,70,0,0
58588,-100,4,2,11,70,0,0
58842,-100,4,2,10,70,0,0
59097,-100,4,2,11,70,0,0
59351,-100,4,2,15,70,0,0
59478,-100,4,2,1,70,0,0
59605,-100,4,2,10,70,0,0
59859,-100,4,2,21,70,0,0
60114,-100,4,2,11,70,0,0
60622,-100,4,2,10,70,0,0
60876,-100,4,2,21,70,0,0
61131,-100,4,2,11,70,0,0
61385,-100,4,2,10,70,0,0
61639,-100,4,2,20,70,0,0
61893,-100,4,2,17,70,0,0
62656,-100,4,2,20,70,0,0
62910,-100,4,2,1,70,0,0
63164,-100,4,2,10,70,0,0
63291,-100,4,2,1,70,0,0
63673,-100,4,2,12,70,0,0
64054,-100,4,2,12,40,0,0
64181,-100,4,2,12,70,0,0
64435,-100,4,2,1,70,0,0
64944,-100,4,2,22,70,0,0
65071,-100,4,2,21,70,0,0
65198,-100,4,2,11,70,0,0
65707,-100,4,2,16,70,0,0
66088,-100,4,2,20,70,0,0
66215,-100,4,2,10,70,0,0
66469,-100,4,2,1,70,0,0
66724,-100,4,2,10,70,0,0
66978,-100,4,2,1,70,0,0
67232,-100,4,2,10,70,0,0
67486,-100,4,2,17,70,0,0
67613,-100,4,2,1,70,0,0
67741,-100,4,2,10,70,0,0
67995,-100,4,2,11,70,0,0
68503,-100,4,2,1,70,0,0
68758,-100,4,2,11,70,0,0
69012,-100,4,2,10,70,0,0
69266,-100,4,2,11,70,0,0
69520,-100,4,2,10,70,0,0
69775,-100,4,2,11,70,0,0
70029,-100,4,2,21,70,0,0
70664,-100,4,2,1,70,0,0
70792,-100,4,2,21,70,0,0
71046,-100,4,2,13,70,0,0
71300,-100,4,2,12,70,0,0
71554,-100,4,2,21,70,0,0
72189,-100,4,2,21,40,0,0
72317,-100,4,2,11,70,0,0
72571,-100,4,2,10,70,0,0
72825,-100,4,2,21,70,0,0
72952,-100,4,2,21,40,0,0
73080,-100,4,2,21,70,0,0
73334,-100,4,2,15,70,0,0
73588,-100,4,2,17,70,0,0
73715,-100,4,2,15,70,0,0
73842,-100,4,2,19,70,0,0
74351,-100,4,2,10,70,0,0
74605,-100,4,2,1,70,0,0
74859,-100,4,2,10,70,0,0
75114,-100,4,2,1,70,0,0
75368,-100,4,2,10,70,0,0
75622,-100,4,2,17,70,0,0
75749,-100,4,2,1,70,0,0
75876,-100,4,2,10,70,0,0
76131,-100,4,2,11,70,0,0
76639,-100,4,2,1,70,0,0
76893,-100,4,2,11,70,0,0
77147,-100,4,2,10,70,0,0
77402,-100,4,2,11,70,0,0
77656,-100,4,2,10,70,0,0
77910,-100,4,2,11,70,0,0
78164,-100,4,2,21,70,0,0
78673,-100,4,2,1,70,0,0
78927,-100,4,2,21,70,0,0
79181,-100,4,2,13,70,0,0
79436,-100,4,2,12,70,0,0
79563,-100,4,2,1,70,0,0
79690,-100,4,2,21,70,0,0
80071,-100,4,2,21,40,0,0
80198,-100,4,2,21,70,0,0
80325,-100,4,2,1,70,0,0
80452,-100,4,2,69,60,0,0
82486,-100,4,2,69,50,0,0
86554,508.474576271186,4,2,1,40,1,0
87062,-142.857142857143,4,2,1,40,0,0
98759,508.474576271186,4,2,1,40,1,0
98759,-142.857142857143,4,2,1,40,0,0
99521,-142.857142857143,4,2,4,40,0,0
101046,-142.857142857143,4,2,68,40,0,0
101809,-142.857142857143,4,2,4,40,0,0
102318,-142.857142857143,4,2,68,40,0,0
102572,-142.857142857143,4,2,4,40,0,0
103589,-142.857142857143,4,2,68,40,0,0
104097,-142.857142857143,4,2,4,40,0,0
105623,-142.857142857143,4,2,68,40,0,0
106131,-142.857142857143,4,2,4,40,0,0
106386,-142.857142857143,4,2,68,40,0,0
106894,-142.857142857143,4,2,68,30,0,0
110962,-142.857142857143,4,2,1,45,0,0
111979,-142.857142857143,4,2,1,50,0,0
112996,-142.857142857143,4,2,1,55,0,0
114775,-142.857142857143,4,2,11,60,0,0
115030,-100,4,2,3,70,0,0
115284,-100,4,2,21,70,0,0
115411,-100,4,2,1,70,0,0
115538,-100,4,2,11,70,0,0
115792,-100,4,2,10,70,0,0
116047,-100,4,2,11,70,0,0
116301,-100,4,2,11,40,0,0
116428,-100,4,2,11,70,0,0
116555,-100,4,2,10,70,0,0
116809,-100,4,2,21,70,0,0
117064,-100,4,2,11,70,0,0
117318,-100,4,2,11,40,0,0
117445,-100,4,2,11,70,0,0
117572,-100,4,2,10,70,0,0
117826,-100,4,2,21,70,0,0
118081,-100,4,2,11,70,0,0
118335,-100,4,2,10,70,0,0
118462,-100,4,2,1,70,0,0
118589,-100,4,2,10,70,0,0
118970,-100,4,2,10,40,0,0
119097,-100,4,2,12,70,0,0
119351,-100,4,2,21,70,0,0
119606,-100,4,2,11,70,0,0
119860,-100,4,2,10,70,0,0
120114,-100,4,2,11,70,0,0
120368,-100,4,2,15,70,0,0
120496,-100,4,2,1,70,0,0
120623,-100,4,2,10,70,0,0
120877,-100,4,2,21,70,0,0
121131,-100,4,2,11,70,0,0
121640,-100,4,2,10,70,0,0
121894,-100,4,2,12,70,0,0
122148,-100,4,2,21,70,0,0
122275,-100,4,2,12,40,0,0
122529,-100,4,2,1,70,0,0
122657,-100,4,2,12,70,0,0
123419,-100,4,2,21,70,0,0
123547,-100,4,2,1,70,0,0
123674,-100,4,2,11,70,0,0
123928,-100,4,2,10,70,0,0
124182,-100,4,2,11,70,0,0
124436,-100,4,2,15,70,0,0
124564,-100,4,2,1,70,0,0
124691,-100,4,2,10,70,0,0
124945,-100,4,2,21,70,0,0
125199,-100,4,2,11,70,0,0
125708,-100,4,2,10,70,0,0
125962,-100,4,2,21,70,0,0
126216,-100,4,2,11,70,0,0
126470,-100,4,2,10,70,0,0
126725,-100,4,2,20,70,0,0
126979,-100,4,2,17,70,0,0
127614,-100,4,2,1,70,0,0
127742,-100,4,2,20,70,0,0
127996,-100,4,2,1,70,0,0
128250,-100,4,2,10,70,0,0
128377,-100,4,2,1,70,0,0
128758,-100,4,2,12,70,0,0
129012,-100,4,2,1,70,0,0
129267,-100,4,2,12,70,0,0
129521,-100,4,2,12,40,0,0
129648,-100,4,2,12,70,0,0
130029,-100,4,2,22,70,0,0
130157,-100,4,2,21,70,0,0
130284,-100,4,2,11,70,0,0
130538,-100,4,2,1,70,0,0
130792,-100,4,2,16,70,0,0
131130,-100,4,2,16,40,0,0
131301,-100,4,2,10,70,0,0
131555,-100,4,2,1,70,0,0
131809,-100,4,2,10,70,0,0
132572,-100,4,2,17,70,0,0
132826,-100,4,2,10,70,0,0
133080,-100,4,2,11,70,0,0
133589,-100,4,2,1,70,0,0
133843,-100,4,2,11,70,0,0
134097,-100,4,2,10,70,0,0
134352,-100,4,2,11,70,0,0
134606,-100,4,2,10,70,0,0
134860,-100,4,2,11,70,0,0
135114,-100,4,2,21,70,0,0
135241,-100,4,2,1,70,0,0
135369,-100,4,2,21,70,0,0
136131,-100,4,2,13,70,0,0
136386,-100,4,2,12,70,0,0
136640,-100,4,2,21,70,0,0
137403,-100,4,2,11,70,0,0
137657,-100,4,2,10,70,0,0
137911,-100,4,2,21,70,0,0
138038,-100,4,2,21,40,0,0
138165,-100,4,2,1,70,0,0
138420,-100,4,2,15,70,0,0
138547,-100,4,2,1,70,0,0
138674,-100,4,2,15,70,0,0
138928,-100,4,2,19,70,0,0
139436,-100,4,2,10,70,0,0
139690,-100,4,2,1,70,0,0
139945,-100,4,2,10,70,0,0
140072,-100,4,2,10,40,0,0
140199,-100,4,2,1,70,0,0
140453,-100,4,2,10,70,0,0
140707,-100,4,2,17,70,0,0
140962,-100,4,2,10,70,0,0
141089,-100,4,2,1,70,0,0
141216,-100,4,2,11,70,0,0
141343,-100,4,2,11,40,0,0
141470,-100,4,2,11,70,0,0
141724,-100,4,2,1,70,0,0
141979,-100,4,2,11,70,0,0
142233,-100,4,2,10,70,0,0
142487,-100,4,2,11,70,0,0
142742,-100,4,2,10,70,0,0
142996,-100,4,2,11,70,0,0
143250,-100,4,2,21,70,0,0
143758,-100,4,2,1,70,0,0
144013,-100,4,2,21,70,0,0
144267,-100,4,2,13,70,0,0
144521,-100,4,2,12,70,0,0
144775,-100,4,2,21,70,0,0
145157,-100,4,2,21,40,0,0
145411,-100,4,2,1,70,0,0
145538,-142.857142857143,4,2,1,70,0,0
146300,-142.857142857143,4,2,1,40,0,0
146555,-142.857142857143,4,2,1,60,0,0
147064,-100,4,2,1,60,0,0
147445,-100,4,2,1,40,0,0
147572,-100,4,2,2,60,0,0
147826,-100,4,2,1,60,0,0
157360,-100,4,2,1,40,0,0
157487,-100,4,2,1,60,0,0
161809,-100,4,2,2,60,0,0
163843,-100,4,2,2,30,0,0
163868,508.474576271186,4,2,2,30,1,0
164376,-200,4,2,1,30,0,0
178081,508.474576271186,4,2,1,30,1,0
180114,508.474576271186,4,2,3,70,1,0
180242,-100,4,2,1,70,0,0
180368,-100,4,2,21,70,0,0
180495,-100,4,2,1,70,0,0
180622,-100,4,2,11,70,0,0
180876,-100,4,2,10,70,0,0
181130,-100,4,2,11,70,0,0
181384,-100,4,2,15,70,0,0
181512,-100,4,2,1,70,0,0
181639,-100,4,2,10,70,0,0
181893,-100,4,2,21,70,0,0
182147,-100,4,2,11,70,0,0
182401,-100,4,2,18,70,0,0
182656,-100,4,2,10,70,0,0
182910,-100,4,2,21,70,0,0
183164,-100,4,2,11,70,0,0
183419,-100,4,2,10,70,0,0
183546,-100,4,2,1,70,0,0
183673,-100,4,2,10,70,0,0
184054,-100,4,2,10,40,0,0
184181,-100,4,2,12,70,0,0
184435,-100,4,2,21,70,0,0
184690,-100,4,2,11,70,0,0
184944,-100,4,2,10,70,0,0
185198,-100,4,2,11,70,0,0
185452,-100,4,2,15,70,0,0
185580,-100,4,2,1,70,0,0
185707,-100,4,2,10,70,0,0
185961,-100,4,2,21,70,0,0
186215,-100,4,2,11,70,0,0
186724,-100,4,2,10,70,0,0
186978,-100,4,2,12,70,0,0
187232,-100,4,2,21,70,0,0
187359,-100,4,2,12,70,0,0
188503,-100,4,2,21,70,0,0
188758,-100,4,2,11,70,0,0
189012,-100,4,2,10,70,0,0
189266,-100,4,2,11,70,0,0
189520,-100,4,2,15,70,0,0
189647,-100,4,2,1,70,0,0
189775,-100,4,2,10,70,0,0
190029,-100,4,2,21,70,0,0
190283,-100,4,2,11,70,0,0
190791,-100,4,2,10,70,0,0
191045,-100,4,2,21,70,0,0
191300,-100,4,2,11,70,0,0
191554,-100,4,2,10,70,0,0
191808,-100,4,2,20,70,0,0
192063,-100,4,2,17,70,0,0
192825,-100,4,2,20,70,0,0
193080,-100,4,2,1,70,0,0
193334,-100,4,2,10,70,0,0
193461,-100,4,2,1,70,0,0
193842,-100,4,2,12,70,0,0
194096,-100,4,2,1,70,0,0
194351,-100,4,2,12,70,0,0
195113,-100,4,2,22,70,0,0
195241,-100,4,2,21,70,0,0
195368,-100,4,2,11,70,0,0
195876,-100,4,2,16,70,0,0
196257,-100,4,2,20,70,0,0
196385,-100,4,2,10,70,0,0
196766,-100,4,2,1,70,0,0
196893,-100,4,2,10,70,0,0
197147,-100,4,2,1,70,0,0
197402,-100,4,2,10,70,0,0
197656,-100,4,2,17,70,0,0
197783,-100,4,2,1,70,0,0
197910,-100,4,2,10,70,0,0
198164,-100,4,2,11,70,0,0
199181,-100,4,2,10,70,0,0
199436,-100,4,2,11,70,0,0
199690,-100,4,2,10,70,0,0
199944,-100,4,2,11,70,0,0
200198,-100,4,2,21,70,0,0
200325,-100,4,2,1,70,0,0
200452,-100,4,2,21,70,0,0
201215,-100,4,2,13,70,0,0
201469,-100,4,2,12,70,0,0
201724,-100,4,2,21,70,0,0
201978,-100,4,2,1,70,0,0
202486,-100,4,2,11,70,0,0
202740,-100,4,2,10,70,0,0
202995,-100,4,2,21,70,0,0
203122,-100,4,2,21,40,0,0
203249,-100,4,2,21,70,0,0
203503,-100,4,2,15,70,0,0
203630,-100,4,2,1,70,0,0
203757,-100,4,2,15,70,0,0
204012,-100,4,2,19,70,0,0
204520,-100,4,2,10,70,0,0
204902,-100,4,2,1,70,0,0
205029,-100,4,2,10,70,0,0
205283,-100,4,2,1,70,0,0
205537,-100,4,2,10,70,0,0
205791,-100,4,2,17,70,0,0
206046,-100,4,2,10,70,0,0
206173,-100,4,2,1,70,0,0
206300,-100,4,2,11,70,0,0
206427,-100,4,2,1,70,0,0
206554,-100,4,2,11,70,0,0
206936,-100,4,2,1,70,0,0
207063,-100,4,2,11,70,0,0
207317,-100,4,2,10,70,0,0
207571,-100,4,2,11,70,0,0
207825,-100,4,2,10,70,0,0
208080,-100,4,2,11,70,0,0
208334,-100,4,2,21,70,0,0
208969,-100,4,2,1,70,0,0
209097,-100,4,2,21,70,0,0
209351,-100,4,2,13,70,0,0
209605,-100,4,2,12,70,0,0
209859,-100,4,2,21,70,0,0
210240,-100,4,2,21,40,0,0
210495,-100,4,2,21,70,0,0
210622,-100,4,2,69,60,0,0
212656,-100,4,2,2,50,0,0
214690,508.474576271186,4,2,3,60,1,0
214944,-100,4,2,1,60,0,0
222655,-100,4,2,1,40,0,0
222825,-100,4,2,1,60,0,0
223969,-100,4,2,1,40,0,0
224096,-100,4,2,1,60,0,0
228037,-100,4,2,1,40,0,0
228164,-100,4,2,1,60,0,0
230961,-100,4,2,2,50,0,0

[Colours]
Combo1 : 255,155,195
Combo2 : 245,255,155
Combo3 : 155,255,215
Combo4 : 165,155,255

[HitObjects]
63,246,1193,6,0,P|49:296|47:385,1,115.49999647522,2|2,2:0|2:0,2:0:0:0:
235,283,1895,1,2,2:0:0:0:
320,354,2149,2,0,P|363:338|460:332,2,115.5,2|2|2,2:0|2:0|2:0,2:0:0:0:
352,256,3166,6,0,P|364:196|361:162,1,76.9999999999999,2|0,2:0|2:0,2:0:0:0:
408,116,3547,2,0,P|399:78|353:1,1,115.5,2|2,2:0|2:0,2:0:0:0:
234,93,4182,2,0,P|192:78|144:73,1,76.9999999999999,2|2,2:0|2:0,2:0:0:0:
85,198,4691,2,0,P|127:183|175:178,1,76.9999999999999,2|2,2:0|2:0,2:0:0:0:
248,253,5199,1,2,3:2:0:0:
256,192,5327,12,2,7233,2:0:0:0:
412,159,9267,6,0,P|422:113|437:42,2,115.5,2|2|2,2:0|2:0|2:0,2:0:0:0:
463,348,10538,2,0,P|409:328|359:324,1,76.9999999999999,2|2,2:0|2:0,2:0:0:0:
287,260,11046,1,2,2:0:0:0:
211,351,11300,2,0,P|179:315|177:227,2,115.5,2|2|2,2:0|2:0|2:0,2:0:0:0:
31,48,13080,5,2,2:0:0:0:
107,150,13334,2,0,P|88:203|72:283,2,115.5,2|2|2,3:2|2:0|2:0,2:0:0:0:
255,46,14605,2,0,P|301:62|344:57,1,76.9999999999999,0|2,2:0|2:0,2:0:0:0:
435,0,15114,1,2,2:0:0:0:
508,99,15368,2,0,P|496:155|486:206,1,76.9999999999999,2|0,2:0|2:0,2:0:0:0:
432,225,15750,2,0,P|444:281|454:332,1,76.9999999999999,2|0,2:0|2:0,2:0:0:0:
506,351,16131,1,2,2:0:0:0:
333,288,16894,2,0,P|294:308|256:313,1,76.9999999999999,2|2,2:0|2:0,2:0:0:0:
106,237,17402,5,2,3:2:0:0:
169,345,17656,1,0,2:0:0:0:
169,345,17783,2,0,P|176:293|193:245,1,76.9999999999999,2|0,2:0|2:0,2:0:0:0:
174,197,18165,1,2,2:0:0:0:
227,82,18419,1,2,2:0:0:0:
434,132,19182,5,2,2:0:0:0:
434,132,19309,1,2,2:0:0:0:
434,132,19436,2,0,P|391:123|346:120,1,76.9999999999999,2|0,2:0|2:0,2:0:0:0:
302,67,19817,2,0,P|259:76|214:79,1,76.9999999999999,2|0,2:0|2:0,2:0:0:0:
158,128,20199,1,2,2:0:0:0:
158,128,20326,2,0,P|145:53|225:94,1,192.5,2|0,2:0|2:0,2:0:0:0:
225,78,21470,6,0,P|271:86|321:94,1,76.9999999999999,4|0,1:0|3:0,2:0:0:0:
377,73,21851,1,2,2:0:0:0:
377,73,21978,2,0,P|393:117|398:164,1,76.9999999999999,2|2,2:0|1:2,2:0:0:0:
444,208,22359,1,2,2:0:0:0:
335,353,22741,2,0,P|390:335|438:328,2,76.9999999999999,0|2|2,2:0|2:0|2:0,2:0:0:0:
215,297,23503,6,0,P|177:263|135:266,1,76.9999999999999,2|0,3:2|2:0,2:0:0:0:
75,273,23885,2,0,P|91:317|95:363,1,76.9999999999999,0|0,2:0|2:0,2:0:0:0:
15,329,24266,1,0,1:0:0:0:
105,193,24520,1,8,2:0:0:0:
105,193,25537,6,0,P|79:149|103:104,1,76.9999999999999,4|0,1:2|2:0,2:0:0:0:
134,65,25919,1,0,2:0:0:0:
134,65,26046,2,0,P|182:75|234:83,1,76.9999999999999,2|2,2:0|1:2,2:0:0:0:
275,47,26427,1,2,2:0:0:0:
393,149,26808,2,0,P|404:96|415:52,2,76.9999999999999,0|2|2,2:0|2:0|2:0,2:0:0:0:
336,206,27444,5,2,2:0:0:0:
336,206,27571,2,0,P|354:255|346:302,1,76.9999999999999,2|0,3:2|1:0,2:0:0:0:
308,342,27953,2,0,P|254:326|219:319,1,76.9999999999999,2|0,3:2|2:0,2:0:0:0:
180,263,28334,1,2,1:2:0:0:
58,342,28588,1,8,2:0:0:0:
58,342,29097,2,0,P|67:299|73:255,1,76.9999999999999,2|2,2:0|2:0,2:0:0:0:
23,130,29605,6,0,P|80:165|122:158,1,76.9999999999999,4|0,1:2|2:0,2:0:0:0:
160,133,29986,1,2,2:0:0:0:
160,133,30114,2,0,P|150:88|137:27,1,76.9999999999999,2|0,1:2|1:0,2:0:0:0:
273,115,30622,2,0,P|263:158|255:200,1,76.9999999999999,8|0,2:0|2:0,2:0:0:0:
368,160,31131,1,0,1:0:0:0:
454,244,31385,5,2,3:2:0:0:
454,244,31512,1,2,3:2:0:0:
454,244,31639,2,0,P|465:295|433:335,1,76.9999999999999,4|0,1:2|2:0,2:0:0:0:
390,361,32020,1,2,2:0:0:0:
390,361,32147,2,0,P|339:342|301:339,1,76.9999999999999,2|0,1:2|1:0,2:0:0:0:
256,291,32529,5,0,2:0:0:0:
256,291,32656,1,8,2:0:0:0:
160,344,32910,1,0,1:0:0:0:
72,283,33164,2,0,P|78:248|81:213,1,38.5,2|2,1:2|1:2,2:0:0:0:
129,191,33419,2,0,P|123:156|120:120,1,38.5,2|2,1:2|1:2,2:0:0:0:
88,75,33673,6,0,P|141:73|185:106,1,76.9999999999999,4|0,1:0|2:0,2:0:0:0:
226,190,34181,1,2,2:0:0:0:
322,129,34436,2,0,P|316:103|313:78,2,38.5,2|0|8,1:2|2:0|2:0,2:0:0:0:
428,181,34944,2,0,P|475:165|531:162,1,76.9999999999999,2|2,1:2|2:0,2:0:0:0:
403,284,35453,2,0,B|334:268|345:323|271:299,1,115.5,2|0,1:2|2:0,2:0:0:0:
220,273,35961,2,0,P|208:296|211:368,1,76.9999999999999,2|2,2:0|2:0,2:0:0:0:
86,272,36469,1,0,1:0:0:0:
170,183,36724,2,0,P|219:176|273:163,1,76.9999999999999,8|0,2:0|1:0,2:0:0:0:
374,198,37232,2,0,P|376:140|348:104,1,76.9999999999999,2|0,2:0|2:0,2:0:0:0:
384,41,37614,5,0,2:0:0:0:
384,41,37741,2,0,P|329:53|285:63,1,76.9999999999999,2|2,1:2|2:0,2:0:0:0:
212,142,38249,1,2,2:0:0:0:
114,65,38503,2,0,P|111:100|108:136,1,38.5,2|0,1:2|2:0,2:0:0:0:
104,180,38758,1,8,2:0:0:0:
32,290,39012,2,0,P|86:279|124:273,1,76.9999999999999,0|2,1:0|2:0,2:0:0:0:
249,235,39520,2,0,P|240:274|237:305,1,38.5,2|2,2:0|2:0,2:0:0:0:
287,331,39775,6,0,P|339:307|383:321,1,76.9999999999999,2|8,1:2|2:0,2:0:0:0:
454,252,40283,1,2,2:0:0:0:
392,173,40537,1,2,1:2:0:0:
303,221,40792,2,0,P|286:168|301:132,1,76.9999999999999,0|2,3:0|1:2,2:0:0:0:
350,93,41173,1,0,2:0:0:0:
350,93,41300,2,0,P|398:80|418:77,2,38.5,2|0|2,3:2|2:0|2:0,2:0:0:0:
218,126,41808,5,2,3:2:0:0:
218,126,43842,5,2,2:0:0:0:
211,136,45876,6,0,P|172:124|108:107,1,76.9999999999999,2|2,1:0|3:2,2:0:0:0:
284,66,46385,2,0,P|323:55|387:38,1,76.9999999999999,2|2,1:2|3:2,2:0:0:0:
451,123,46893,2,0,P|456:177|434:223,1,76.9999999999999,2|2,1:2|1:2,2:0:0:0:
319,253,47402,2,0,P|314:199|336:152,1,76.9999999999999,2|2,3:2|3:2,2:0:0:0:
444,314,47910,5,2,1:0:0:0:
236,204,48292,1,2,1:0:0:0:
77,357,48673,1,4,1:0:0:0:
256,192,48800,12,2,49690,2:0:0:0:
94,41,49944,6,0,P|61:104|86:161,1,110,4|2,1:2|2:0,2:0:0:0:
114,203,50325,1,2,1:2:0:0:
114,203,50453,2,0,P|159:190|198:184,1,55,10|0,2:0|2:0,2:0:0:0:
214,127,50707,1,2,3:2:0:0:
335,54,50961,2,0,P|391:98|375:178,1,110,2|2,1:2|2:0,2:0:0:0:
356,202,51342,1,2,2:0:0:0:
356,202,51469,2,0,P|366:242|372:282,1,55,10|0,2:0|2:0,2:0:0:0:
430,297,51724,2,0,P|413:335|409:362,1,55,2|0,1:2|2:0,2:0:0:0:
336,378,51978,6,0,B|288:350|288:350|200:372,1,110,2|2,1:2|2:0,2:0:0:0:
170,318,52359,1,0,1:0:0:0:
170,318,52486,2,0,P|151:250|185:220,1,110,10|2,2:0|3:2,2:0:0:0:
287,162,52995,1,2,1:2:0:0:
322,279,53249,2,0,P|372:269|404:270,1,55,2|2,1:2|1:2,2:0:0:0:
425,209,53503,2,0,P|451:152|408:66,1,165,10|0,2:0|2:0,2:0:0:0:
338,22,54012,6,0,P|277:37|216:46,1,110,6|2,1:2|2:0,2:0:0:0:
158,7,54393,1,0,1:0:0:0:
158,7,54520,2,0,P|149:56|135:95,1,55,10|0,2:0|2:0,2:0:0:0:
194,127,54775,1,2,3:2:0:0:
170,254,55029,2,0,P|113:238|58:233,1,110,2|2,1:2|2:0,2:0:0:0:
7,284,55410,1,2,2:0:0:0:
7,284,55537,2,0,P|18:325|19:357,1,55,10|0,2:0|2:0,2:0:0:0:
82,383,55792,2,0,P|127:360|150:365,1,55,2|0,1:2|2:0,2:0:0:0:
207,329,56046,6,0,P|264:345|319:350,1,110,2|2,1:2|2:0,2:0:0:0:
389,384,56427,1,2,1:2:0:0:
389,384,56554,2,0,P|423:348|460:335,1,55,10|0,2:0|2:0,2:0:0:0:
500,318,56808,1,2,3:2:0:0:
512,177,57063,1,2,1:2:0:0:
512,177,57190,2,0,P|445:200|388:190,1,110,2|0,2:0|2:0,2:0:0:0:
332,168,57571,2,0,P|397:131|395:205,1,165,10|0,2:0|2:0,2:0:0:0:
341,249,58080,6,0,P|282:255|235:281,1,110,6|2,1:2|2:0,2:0:0:0:
153,257,58461,1,0,1:0:0:0:
153,257,58588,2,0,P|164:301|167:339,1,55,10|0,2:0|2:0,2:0:0:0:
103,363,58842,1,2,3:2:0:0:
35,219,59097,2,0,P|13:144|52:120,1,110,2|2,1:2|2:0,2:0:0:0:
64,62,59478,1,2,2:0:0:0:
64,62,59605,2,0,P|103:68|150:75,1,55,10|0,2:0|2:0,2:0:0:0:
185,117,59859,2,0,P|227:106|264:102,1,55,2|0,1:2|2:0,2:0:0:0:
290,36,60114,6,0,P|344:78|445:58,1,165,2|2,1:2|1:2,2:0:0:0:
502,105,60622,2,0,P|509:167|473:208,1,110,10|2,2:0|3:2,2:0:0:0:
407,178,61003,1,0,2:0:0:0:
407,178,61131,1,2,1:2:0:0:
300,247,61385,1,2,2:0:0:0:
372,357,61639,1,10,2:0:0:0:
486,316,61893,2,0,P|480:279|475:247,1,55,2|0,1:2|2:0,2:0:0:0:
490,181,62147,6,0,P|413:206|394:283,1,165,6|0,1:2|1:0,2:0:0:0:
341,342,62656,2,0,P|271:325|237:318,1,55,10|0,2:0|2:0,2:0:0:0:
214,313,62910,1,2,3:2:0:0:
77,379,63164,2,0,P|87:343|97:299,1,55,2|2,1:2|2:0,2:0:0:0:
139,260,63419,2,0,P|129:224|119:180,1,55,2|0,2:0|2:0,2:0:0:0:
44,154,63673,2,0,P|139:155|145:96,1,165,10|0,2:0|2:0,2:0:0:0:
111,30,64181,6,0,P|181:51|240:68,1,110,6|2,1:2|2:0,2:0:0:0:
286,17,64563,1,0,1:0:0:0:
286,17,64690,2,0,P|317:81|341:128,1,110,8|2,2:0|2:0,2:0:0:0:
415,116,65071,1,2,1:2:0:0:
415,116,65198,2,0,P|401:179|393:220,1,55,6|0,1:2|2:0,2:0:0:0:
441,238,65453,1,8,2:0:0:0:
355,350,65707,2,0,P|281:298|211:327,1,165,10|10,2:0|2:0,2:0:0:0:
162,383,66215,6,0,P|160:313|151:262,1,110,6|2,1:2|2:0,2:0:0:0:
206,216,66597,1,0,1:0:0:0:
206,216,66724,2,0,P|206:161|214:106,1,110,10|2,2:0|3:2,2:0:0:0:
81,21,67232,2,0,P|75:69|66:112,1,55,2|0,1:2|2:0,2:0:0:0:
11,125,67486,2,0,P|24:175|31:206,1,55,2|2,2:0|2:0,2:0:0:0:
5,255,67741,2,0,P|69:246|98:201,1,110,10|2,2:0|1:2,2:0:0:0:
213,106,68249,6,0,P|275:117|307:196,1,110,2|2,1:2|2:0,2:0:0:0:
362,211,68631,1,0,1:0:0:0:
362,211,68758,2,0,P|411:195|437:195,1,55,10|0,2:0|2:0,2:0:0:0:
486,226,69012,1,2,3:2:0:0:
436,351,69266,2,0,P|401:340|360:338,1,55,2|0,1:2|2:0,2:0:0:0:
313,372,69520,1,2,2:0:0:0:
197,260,69775,2,0,P|213:306|218:340,1,55,10|0,2:0|2:0,2:0:0:0:
154,367,70029,2,0,P|105:346|70:348,1,55,2|0,1:2|1:0,2:0:0:0:
69,271,70283,6,0,P|70:210|160:171,1,165,6|2,1:2|1:2,2:0:0:0:
230,151,70792,2,0,P|253:86|259:70,1,55,10|0,2:0|2:0,2:0:0:0:
236,22,71046,1,2,3:2:0:0:
373,0,71300,2,0,P|383:40|386:73,1,55,2|0,1:2|1:0,2:0:0:0:
447,104,71554,1,2,1:2:0:0:
373,196,71808,2,0,P|411:240|350:338,1,165,10|0,2:0|2:0,2:0:0:0:
297,352,72317,6,0,P|251:334|181:326,1,110,2|2,1:2|2:0,2:0:0:0:
130,371,72698,1,0,1:0:0:0:
130,371,72825,2,0,P|88:382|57:387,1,55,10|0,2:0|2:0,2:0:0:0:
13,338,73080,1,0,3:0:0:0:
123,204,73334,2,0,P|162:216|193:219,2,55,2|0|10,1:2|1:0|2:0,2:0:0:0:
62,151,73715,1,2,1:2:0:0:
62,151,73842,2,0,P|48:79|122:6,1,165,14|0,2:0|2:0,2:0:0:0:
167,53,74351,6,0,P|249:73|293:80,1,110,6|2,1:2|2:0,2:0:0:0:
349,52,74732,1,2,1:2:0:0:
349,52,74859,2,0,P|369:134|372:139,1,55,10|0,2:0|2:0,2:0:0:0:
416,162,75114,1,2,3:2:0:0:
337,270,75368,2,0,P|302:234|220:258,1,110,2|2,1:2|1:2,2:0:0:0:
196,292,75749,1,2,1:2:0:0:
196,292,75876,2,0,P|204:335|210:370,1,55,10|0,2:0|2:0,2:0:0:0:
107,301,76131,2,0,P|111:273|116:246,1,55,2|0,1:2|2:0,2:0:0:0:
171,181,76385,6,0,P|176:110|137:81,1,110,2|2,1:2|2:0,2:0:0:0:
202,25,76766,1,2,1:2:0:0:
202,25,76893,2,0,P|256:35|303:37,1,55,10|0,2:0|2:0,2:0:0:0:
331,11,77147,1,2,3:2:0:0:
437,107,77402,2,0,P|426:166|423:193,1,55,2|0,1:2|2:0,2:0:0:0:
463,230,77656,2,0,P|472:276|474:308,1,55,2|0,1:2|2:0,2:0:0:0:
435,354,77910,1,10,2:0:0:0:
314,260,78164,1,2,1:2:0:0:
190,337,78419,6,0,P|164:271|202:200,1,110,6|2,1:2|2:0,2:0:0:0:
236,186,78800,1,2,1:2:0:0:
236,186,78927,2,0,P|242:149|241:105,1,55,10|0,2:0|2:0,2:0:0:0:
197,68,79181,1,2,3:2:0:0:
66,139,79436,2,0,P|63:197|59:234,1,55,2|2,1:2|1:2,2:0:0:0:
26,262,79690,1,2,1:2:0:0:
116,349,79944,6,0,P|173:333|210:329,1,55,10|0,2:0|2:0,2:0:0:0:
223,275,80198,2,0,P|280:291|317:295,1,55,0|2,1:0|1:2,2:0:0:0:
321,354,80453,1,2,2:0:0:0:
256,192,80580,12,2,82486,2:0:0:0:
439,39,86554,5,2,1:2:0:0:
372,131,86808,1,2,2:0:0:0:
468,206,87062,2,0,P|456:260|449:312,1,76.9999999999999,2|0,1:2|2:0,2:0:0:0:
387,327,87443,2,0,P|337:301|271:311,1,115.5,2|0,2:0|2:0,2:0:0:0:
204,226,88079,2,0,P|154:252|106:242,1,76.9999999999999,2|2,1:2|2:0,2:0:0:0:
39,305,88587,6,0,P|54:223|63:165,1,115.5,2|2,1:2|2:0,2:0:0:0:
114,135,89096,2,0,P|104:88|93:44,1,76.9999999999999,0|2,1:2|2:0,2:0:0:0:
209,1,89604,1,2,1:2:0:0:
267,97,89859,1,2,2:0:0:0:
375,36,90113,2,0,P|424:49|436:142,1,154,2|2,1:2|1:2,2:0:0:0:
356,231,90876,5,2,2:0:0:0:
421,343,91130,2,0,P|361:329|311:321,1,76.9999999999999,2|0,1:2|2:0,2:0:0:0:
277,287,91511,2,0,P|221:303|138:327,1,115.5,2|0,2:0|2:0,2:0:0:0:
82,227,92147,1,2,1:2:0:0:
150,123,92401,1,2,2:0:0:0:
264,174,92655,6,0,P|340:176|379:122,1,115.5,2|2,1:2|2:0,2:0:0:0:
438,118,93164,2,0,P|430:77|428:30,1,76.9999999999999,2|2,1:2|2:0,2:0:0:0:
315,0,93672,1,2,1:2:0:0:
242,89,93926,1,2,2:0:0:0:
137,29,94181,2,0,P|134:67|126:105,1,76.9999999999999,2|2,1:2|2:0,2:0:0:0:
32,196,94689,6,0,P|82:207|135:221,1,76.9999999999999,2|0,1:2|2:0,2:0:0:0:
164,269,95070,1,2,2:0:0:0:
280,198,95325,1,2,2:0:0:0:
359,316,95579,2,0,P|370:257|389:196,1,115.5,2|0,2:0|2:0,2:0:0:0:
470,93,96215,1,2,1:2:0:0:
361,51,96469,1,2,2:0:0:0:
268,118,96723,6,0,P|218:119|187:91,1,76.9999999999999,2|0,1:2|2:0,2:0:0:0:
136,51,97104,2,0,P|91:68|49:78,1,76.9999999999999,2|2,2:0|2:0,2:0:0:0:
0,190,97613,1,2,2:0:0:0:
0,190,97740,2,0,P|50:202|57:303,1,154,8|10,2:0|1:2,2:0:0:0:
168,376,98503,1,8,3:0:0:0:
259,276,98759,6,0,P|253:229|252:182,2,76.9999999999999,4|0|2,1:0|2:0|2:0,2:0:0:0:
362,358,99521,2,0,P|392:312|345:223,1,154,2|2,1:2|1:2,2:0:0:0:
277,125,100284,1,2,2:0:0:0:
169,188,100538,2,0,P|122:178|14:165,1,154,2|2,1:2|2:0,2:0:0:0:
0,30,101301,1,2,2:0:0:0:
121,81,101555,1,2,1:2:0:0:
239,3,101809,2,0,P|226:51|221:100,1,76.9999999999999,8|2,2:0|1:2,2:0:0:0:
334,147,102318,2,0,P|383:130|421:120,1,76.9999999999999,2|2,1:2|2:0,2:0:0:0:
482,151,102699,5,2,2:0:0:0:
482,151,102826,2,0,P|481:97|456:61,2,76.9999999999999,2|0|2,1:2|2:0|2:0,2:0:0:0:
512,275,103589,2,0,P|465:261|389:336,1,154,2|2,1:2|2:0,2:0:0:0:
296,269,104352,1,2,2:0:0:0:
237,375,104606,2,0,P|191:365|170:362,1,38.5,2|2,1:2|1:2,2:0:0:0:
146,314,104860,2,0,P|98:330|55:338,1,76.9999999999999,2|8,1:2|2:0,2:0:0:0:
93,215,105369,1,2,2:0:0:0:
0,161,105623,2,0,P|42:118|155:135,1,154,2|2,1:2|3:2,2:0:0:0:
271,62,106386,2,0,P|260:113|255:150,1,76.9999999999999,2|2,2:0|2:0,2:0:0:0:
183,233,106894,5,2,2:0:0:0:
271,104,108928,5,2,2:0:0:0:
60,72,110962,6,0,P|78:152|83:184,1,76.9999999999999,4|2,1:0|3:2,2:0:0:0:
133,281,111470,2,0,P|140:243|150:205,1,76.9999999999999,2|2,1:2|3:2,2:0:0:0:
242,87,111979,2,0,P|288:99|336:103,1,76.9999999999999,2|2,1:2|3:2,2:0:0:0:
431,196,112487,2,0,P|385:208|337:212,1,76.9999999999999,2|2,1:2|3:2,2:0:0:0:
273,307,112996,5,2,1:0:0:0:
395,120,113377,1,2,1:0:0:0:
190,14,113758,1,4,1:0:0:0:
256,192,113886,12,2,114775,2:0:0:0:
76,355,115030,6,0,P|43:292|68:235,1,110,6|2,1:2|2:0,2:0:0:0:
109,208,115411,1,2,1:2:0:0:
109,208,115538,2,0,P|154:221|193:227,1,55,10|0,2:0|2:0,2:0:0:0:
226,184,115792,1,2,3:2:0:0:
319,298,116047,2,0,P|387:287|446:278,1,110,2|0,1:2|2:0,2:0:0:0:
483,226,116428,1,0,2:0:0:0:
483,226,116555,2,0,P|470:180|465:157,1,55,10|0,2:0|2:0,2:0:0:0:
409,127,116809,2,0,P|416:100|428:76,1,55,2|0,1:2|2:0,2:0:0:0:
477,10,117064,6,0,P|392:25|341:30,1,110,2|0,1:2|2:0,2:0:0:0:
295,5,117445,1,0,2:0:0:0:
295,5,117572,2,0,P|268:50|292:97,1,110,10|2,2:0|3:2,2:0:0:0:
203,198,118081,1,2,1:2:0:0:
115,135,118335,2,0,P|87:138|61:145,1,55,2|2,1:2|1:2,2:0:0:0:
7,85,118589,2,0,P|40:153|-8:239,1,165,10|0,2:0|2:0,2:0:0:0:
56,295,119097,6,0,P|105:272|164:280,1,110,6|2,1:2|2:0,2:0:0:0:
231,318,119479,1,0,1:0:0:0:
231,318,119606,2,0,P|240:269|254:230,1,55,10|0,2:0|2:0,2:0:0:0:
210,194,119860,1,2,3:2:0:0:
329,150,120114,2,0,P|365:164|455:177,1,110,2|2,1:2|2:0,2:0:0:0:
495,122,120496,1,2,2:0:0:0:
495,122,120623,2,0,P|506:81|507:49,1,55,10|0,2:0|2:0,2:0:0:0:
458,10,120877,2,0,P|409:22|369:27,1,55,2|0,1:2|2:0,2:0:0:0:
340,79,121131,6,0,P|290:40|227:62,1,110,2|0,1:2|2:0,2:0:0:0:
174,18,121513,1,2,1:2:0:0:
174,18,121640,2,0,P|171:60|161:88,1,55,10|0,2:0|2:0,2:0:0:0:
106,122,121894,1,2,3:2:0:0:
192,252,122148,1,2,1:2:0:0:
192,252,122275,2,0,P|259:229|316:239,1,110,2|2,2:0|1:2,2:0:0:0:
370,259,122657,2,0,P|435:222|433:296,1,165,10|0,2:0|1:2,2:0:0:0:
382,337,123165,6,0,B|326:330|332:362|250:344,1,110,6|2,1:2|2:0,2:0:0:0:
203,384,123547,1,2,1:2:0:0:
203,384,123674,2,0,P|198:356|190:330,1,55,10|0,2:0|2:0,2:0:0:0:
202,256,123928,1,2,3:2:0:0:
80,228,124182,2,0,P|93:164|100:100,1,110,2|2,1:2|2:0,2:0:0:0:
152,62,124564,1,2,2:0:0:0:
152,62,124691,2,0,P|191:68|238:75,1,55,10|0,2:0|2:0,2:0:0:0:
278,33,124945,2,0,P|289:75|293:112,1,55,2|0,1:2|2:0,2:0:0:0:
357,141,125199,6,0,P|422:116|477:194,1,165,2|2,1:2|1:2,2:0:0:0:
508,255,125708,2,0,P|440:268|389:289,1,110,10|2,2:0|3:2,2:0:0:0:
358,346,126089,1,0,2:0:0:0:
358,346,126216,1,2,1:2:0:0:
254,253,126470,1,2,2:0:0:0:
166,357,126725,1,10,2:0:0:0:
64,279,126979,2,0,P|58:242|53:210,1,55,2|0,1:2|2:0,2:0:0:0:
15,146,127233,6,0,P|63:184|166:158,1,165,6|2,1:2|1:2,2:0:0:0:
222,118,127742,2,0,P|249:125|276:132,1,55,10|0,2:0|2:0,2:0:0:0:
347,104,127996,1,2,3:2:0:0:
431,239,128250,2,0,P|441:203|451:159,1,55,2|2,1:2|2:0,2:0:0:0:
497,132,128504,2,0,P|487:96|477:52,1,55,2|0,2:0|2:0,2:0:0:0:
495,1,128758,2,0,P|433:12|356:25,1,110,10|2,2:0|1:2,2:0:0:0:
262,134,129267,6,0,P|249:79|171:76,1,110,6|0,1:2|2:0,2:0:0:0:
135,98,129648,1,0,2:0:0:0:
135,98,129775,2,0,P|150:154|161:227,1,110,8|2,2:0|1:2,2:0:0:0:
106,257,130157,1,2,1:2:0:0:
106,257,130284,2,0,P|92:320|84:361,1,55,2|0,1:2|2:0,2:0:0:0:
141,374,130538,1,10,2:0:0:0:
251,298,130792,2,0,P|293:336|399:289,1,146.666666666667,10|0,2:0|2:0,2:0:0:0:
443,247,131301,6,0,P|441:177|432:126,1,110,6|2,1:2|2:0,2:0:0:0:
364,109,131682,1,2,1:2:0:0:
364,109,131809,2,0,B|306:95|312:122|247:107,1,110,10|0,2:0|3:0,2:0:0:0:
110,10,132318,2,0,P|104:58|95:101,1,55,2|0,1:2|2:0,2:0:0:0:
50,128,132572,2,0,P|63:178|70:209,1,55,2|0,2:0|2:0,2:0:0:0:
129,229,132826,2,0,P|191:214|250:207,1,110,10|2,2:0|1:2,2:0:0:0:
380,127,133335,6,0,P|417:177|412:234,1,110,2|2,1:2|2:0,2:0:0:0:
366,285,133716,1,2,1:2:0:0:
366,285,133843,2,0,P|382:334|382:360,1,55,10|0,2:0|2:0,2:0:0:0:
324,384,134097,1,2,3:2:0:0:
218,323,134352,2,0,P|183:312|142:310,1,55,2|0,1:2|2:0,2:0:0:0:
107,365,134606,1,2,2:0:0:0:
41,266,134860,2,0,P|34:239|24:214,1,55,10|0,2:0|2:0,2:0:0:0:
76,157,135114,2,0,P|85:123|94:90,1,55,2|2,1:2|1:2,2:0:0:0:
57,25,135369,6,0,P|106:76|215:58,1,165,6|2,1:2|1:2,2:0:0:0:
246,128,135877,2,0,P|240:156|231:194,1,55,10|0,2:0|2:0,2:0:0:0:
268,250,136131,1,2,3:2:0:0:
358,144,136386,2,0,P|353:116|346:90,1,55,2|0,1:2|2:0,2:0:0:0:
394,34,136640,1,2,2:0:0:0:
487,140,136894,2,0,P|472:202|462:276,1,110,10|0,2:0|1:0,2:0:0:0:
340,357,137403,6,0,P|294:327|231:345,1,110,2|2,1:2|2:0,2:0:0:0:
172,371,137784,1,0,2:0:0:0:
172,371,137911,2,0,P|135:376|99:387,1,55,10|0,2:0|2:0,2:0:0:0:
50,348,138165,1,2,3:2:0:0:
142,227,138420,2,0,P|154:188|157:157,2,55,2|2|10,1:2|1:2|2:0,2:0:0:0:
213,263,138801,1,2,1:2:0:0:
213,263,138928,2,0,B|306:246|259:207|372:192,1,165,10|0,2:0|2:0,2:0:0:0:
421,143,139436,6,0,P|411:79|358:68,1,110,6|2,1:2|2:0,2:0:0:0:
298,48,139818,1,2,1:2:0:0:
298,48,139945,2,0,P|318:130|321:135,1,55,10|0,2:0|2:0,2:0:0:0:
241,150,140199,1,2,3:2:0:0:
144,73,140453,2,0,P|106:82|29:92,1,110,2|2,1:2|2:0,2:0:0:0:
0,162,140835,1,0,2:0:0:0:
0,162,140962,2,0,P|8:205|14:240,1,55,10|2,2:0|2:0,2:0:0:0:
73,268,141216,2,0,P|68:295|64:322,1,55,2|0,1:2|2:0,2:0:0:0:
132,373,141470,6,0,P|173:330|242:347,1,110,6|2,1:2|2:0,2:0:0:0:
291,294,141852,1,2,1:2:0:0:
291,294,141979,2,0,P|345:304|392:306,1,55,10|0,2:0|2:0,2:0:0:0:
407,354,142233,1,2,3:2:0:0:
477,272,142487,2,0,P|481:244|487:217,1,55,2|0,1:2|2:0,2:0:0:0:
432,164,142742,2,0,P|428:136|422:109,1,55,2|0,2:0|2:0,2:0:0:0:
454,38,142996,1,10,2:0:0:0:
320,131,143250,1,2,1:2:0:0:
207,47,143504,6,0,P|132:63|113:121,1,110,6|2,1:2|2:0,2:0:0:0:
165,156,143886,1,2,1:2:0:0:
165,156,144013,2,0,P|171:193|170:237,1,55,10|0,2:0|2:0,2:0:0:0:
133,279,144267,1,2,3:2:0:0:
251,353,144521,2,0,P|253:326|254:299,1,55,2|0,1:2|2:0,2:0:0:0:
304,240,144775,1,2,2:0:0:0:
419,311,145030,6,0,P|476:295|513:291,1,55,10|0,2:0|2:0,2:0:0:0:
498,221,145284,2,0,P|471:214|445:205,1,55,0|2,2:0|2:0,2:0:0:0:
388,147,145538,2,0,P|420:49|450:102,1,231,2|0,2:0|2:0,2:0:0:0:
318,203,146555,5,0,3:0:0:0:
318,203,146682,2,0,P|275:187|225:190,1,76.9999999999999,0|0,3:0|3:0,2:0:0:0:
185,134,147064,2,0,P|195:191|104:216,1,165,0|0,3:0|2:0,2:0:0:0:
39,256,147572,6,0,P|29:203|18:141,1,110,4|2,1:2|2:0,2:0:0:0:
65,86,147953,1,0,2:0:0:0:
65,86,148081,1,10,2:0:0:0:
185,134,148335,1,2,2:0:0:0:
270,26,148589,2,0,P|323:58|378:48,1,110,2|2,1:2|3:2,2:0:0:0:
431,106,148970,1,0,2:0:0:0:
431,106,149097,2,0,P|418:170|412:201,1,55,8|0,2:0|2:0,2:0:0:0:
358,210,149352,2,0,P|371:274|377:305,1,55,2|0,2:0|2:0,2:0:0:0:
419,335,149606,6,0,P|357:313|289:345,1,110,2|2,1:2|2:0,2:0:0:0:
249,287,149987,1,0,2:0:0:0:
249,287,150114,1,10,2:0:0:0:
153,370,150369,1,2,2:0:0:0:
49,298,150623,2,0,P|63:250|77:178,1,110,2|2,1:2|3:2,2:0:0:0:
36,124,151004,1,0,2:0:0:0:
36,124,151131,2,0,P|84:106|101:96,1,55,8|0,2:0|2:0,2:0:0:0:
129,39,151386,2,0,P|162:54|200:63,1,55,2|0,2:0|2:0,2:0:0:0:
237,124,151640,6,0,P|292:85|355:98,1,110,4|2,1:0|2:0,2:0:0:0:
403,52,152021,1,0,2:0:0:0:
403,52,152148,1,10,2:0:0:0:
471,147,152403,1,2,2:0:0:0:
381,222,152657,2,0,P|399:281|411:338,1,110,2|2,1:2|3:2,2:0:0:0:
352,379,153038,1,0,2:0:0:0:
352,379,153165,2,0,P|296:365|248:358,1,55,8|0,2:0|2:0,2:0:0:0:
238,314,153420,2,0,P|182:328|134:335,1,55,2|0,2:0|2:0,2:0:0:0:
109,364,153674,6,0,P|71:305|90:262,1,110,4|0,1:0|2:0,2:0:0:0:
43,207,154055,1,0,1:0:0:0:
43,207,154182,1,8,2:0:0:0:
176,147,154436,1,2,3:2:0:0:
276,242,154691,2,0,P|356:224|394:224,1,110,2|2,1:2|2:0,2:0:0:0:
441,171,155072,1,0,2:0:0:0:
441,171,155199,2,0,P|436:85|360:104,1,165,8|2,2:0|2:0,2:0:0:0:
309,133,155708,6,0,P|260:110|201:107,1,110,4|0,1:0|2:0,2:0:0:0:
141,61,156089,1,0,1:0:0:0:
141,61,156216,1,8,2:0:0:0:
48,146,156470,1,0,3:0:0:0:
129,239,156725,2,0,P|145:306|120:350,1,110,0|2,1:0|2:0,2:0:0:0:
200,384,157106,1,2,2:0:0:0:
200,384,157233,2,0,P|244:372|277:369,1,55,8|0,2:0|2:0,2:0:0:0:
305,309,157487,2,0,P|349:321|382:324,1,55,0|2,2:0|2:0,2:0:0:0:
449,359,157742,6,0,P|435:298|426:242,1,110,4|0,1:0|2:0,2:0:0:0:
471,185,158123,1,0,1:0:0:0:
471,185,158250,1,8,2:0:0:0:
361,107,158504,1,0,3:0:0:0:
280,214,158758,2,0,P|221:196|162:211,1,110,0|2,1:0|2:0,2:0:0:0:
100,227,159140,1,2,2:0:0:0:
100,227,159267,2,0,P|69:274|145:276,1,165,8|2,2:0|2:0,2:0:0:0:
174,204,159775,6,0,P|159:147|159:28,1,165,4|0,1:0|1:0,2:0:0:0:
224,0,160284,2,0,P|254:22|293:26,1,55,8|0,2:0|2:0,2:0:0:0:
310,93,160538,1,2,3:2:0:0:
447,22,160792,2,0,P|419:88|428:133,1,110,2|2,1:2|2:0,2:0:0:0:
484,179,161174,1,0,2:0:0:0:
484,179,161301,2,0,P|466:253|462:298,1,110,8|0,2:0|3:0,2:0:0:0:
342,366,161809,5,4,1:2:0:0:
256,192,161936,12,2,163843,2:0:0:0:
431,109,164376,6,0,P|442:68|449:46,2,55,2|2|2,2:0|2:0|2:0,2:0:0:0:
492,281,165393,2,0,P|445:296|417:307,1,55,2|2,2:0|2:0,2:0:0:0:
358,355,165901,2,0,P|321:322|250:334,1,110,2|2,2:0|2:0,2:0:0:0:
182,377,166664,1,2,2:0:0:0:
98,312,166918,2,0,P|89:262|81:187,1,110,2|2,2:0|2:0,2:0:0:0:
119,49,167935,6,0,P|71:41|50:32,2,55,2|2|2,2:0|2:0|2:0,2:0:0:0:
201,113,168698,1,2,2:0:0:0:
277,37,168952,2,0,P|303:88|298:142,1,110,2|2,2:0|2:0,2:0:0:0:
227,216,169715,1,2,2:0:0:0:
334,268,169969,2,0,P|395:253|457:243,1,110,2|2,2:0|2:0,2:0:0:0:
512,315,170732,1,2,2:0:0:0:
452,384,170986,1,2,2:0:0:0:
424,83,172003,6,0,P|436:38|441:5,2,55,2|2|2,2:0|2:0|2:0,2:0:0:0:
339,143,172766,1,2,2:0:0:0:
265,75,173020,2,0,P|212:74|165:122,1,110,2|2,2:0|2:0,2:0:0:0:
210,194,173783,1,2,2:0:0:0:
143,266,174037,2,0,P|96:251|22:245,1,110,2|2,2:0|2:0,2:0:0:0:
84,340,174800,1,2,2:0:0:0:
181,371,175054,2,0,P|219:359|245:357,1,55,2|0,2:0|2:0,2:0:0:0:
301,286,175562,2,0,P|339:298|365:300,1,55,2|0,2:0|2:0,2:0:0:0:
433,354,176071,6,0,P|459:288|431:236,1,110,2|2,2:0|2:0,2:0:0:0:
484,100,177088,2,0,P|419:85|375:117,1,110,2|2,2:0|2:0,2:0:0:0:
256,192,178081,5,2,2:0:0:0:
256,188,180114,6,0,P|177:159|121:164,1,110,12|2,1:0|2:0,2:0:0:0:
94,204,180495,1,2,1:2:0:0:
94,204,180622,2,0,P|81:249|75:288,1,55,10|0,2:0|2:0,2:0:0:0:
22,312,180876,1,2,3:2:0:0:
148,374,181130,2,0,P|216:363|275:354,1,110,2|2,1:2|2:0,2:0:0:0:
336,355,181512,1,2,2:0:0:0:
336,355,181639,2,0,P|323:309|318:286,1,55,10|0,2:0|2:0,2:0:0:0:
381,248,181893,2,0,P|387:221|395:195,1,55,2|0,1:2|2:0,2:0:0:0:
347,129,182147,6,0,P|262:144|211:149,1,110,2|2,1:2|2:0,2:0:0:0:
186,202,182529,1,0,1:0:0:0:
186,202,182656,2,0,P|196:252|191:321,1,110,10|2,2:0|3:2,2:0:0:0:
83,361,183164,1,2,1:2:0:0:
9,270,183419,2,0,P|6:242|-1:216,1,55,2|2,2:0|2:0,2:0:0:0:
30,142,183673,2,0,P|99:152|166:63,1,165,10|0,2:0|2:0,2:0:0:0:
225,39,184181,6,0,P|289:52|356:59,1,110,6|2,1:2|2:0,2:0:0:0:
397,114,184563,1,0,1:0:0:0:
397,114,184690,2,0,P|406:163|420:202,1,55,10|0,2:0|2:0,2:0:0:0:
462,227,184944,1,2,3:2:0:0:
363,319,185198,2,0,P|307:278|246:293,1,110,2|2,1:2|2:0,2:0:0:0:
203,325,185580,1,2,2:0:0:0:
203,325,185707,2,0,P|214:366|215:398,1,55,10|0,2:0|2:0,2:0:0:0:
134,372,185961,2,0,P|85:384|45:389,1,55,2|0,1:2|2:0,2:0:0:0:
26,326,186215,6,0,P|17:253|80:213,1,110,2|0,1:2|2:0,2:0:0:0:
102,181,186597,1,2,1:2:0:0:
102,181,186724,2,0,P|144:184|172:194,1,55,10|0,2:0|2:0,2:0:0:0:
221,147,186978,1,2,3:2:0:0:
332,248,187232,1,2,1:2:0:0:
332,248,187359,2,0,P|309:181|319:124,1,110,2|0,2:0|2:0,2:0:0:0:
316,66,187741,2,0,P|377:33|375:107,1,165,10|0,2:0|2:0,2:0:0:0:
312,143,188249,6,0,P|234:122|181:123,1,110,6|2,1:2|2:0,2:0:0:0:
125,116,188630,1,0,1:0:0:0:
125,116,188758,2,0,P|132:142|137:169,1,55,10|0,2:0|2:0,2:0:0:0:
196,218,189012,1,2,3:2:0:0:
90,304,189266,2,0,P|154:317|218:324,1,110,2|2,1:2|2:0,2:0:0:0:
261,375,189647,1,2,2:0:0:0:
261,375,189775,2,0,P|300:381|347:388,1,55,10|0,2:0|2:0,2:0:0:0:
378,336,190029,2,0,P|372:308|365:282,1,55,2|0,1:2|2:0,2:0:0:0:
409,212,190283,6,0,P|425:140|338:108,1,165,2|2,1:2|1:2,2:0:0:0:
298,157,190791,2,0,P|230:170|179:191,1,110,10|2,2:0|3:2,2:0:0:0:
120,160,191173,1,0,2:0:0:0:
120,160,191300,1,2,1:2:0:0:
36,272,191554,1,2,2:0:0:0:
117,362,191808,1,10,2:0:0:0:
242,317,192063,2,0,P|236:280|231:248,1,55,2|0,1:2|2:0,2:0:0:0:
310,238,192317,6,0,P|386:270|456:224,1,165,6|0,1:2|1:0,2:0:0:0:
428,160,192825,2,0,P|435:133|442:106,1,55,10|0,2:0|2:0,2:0:0:0:
501,56,193080,1,2,3:2:0:0:
352,14,193334,2,0,P|325:7|298:0,1,55,2|2,1:2|2:0,2:0:0:0:
239,50,193588,2,0,P|246:77|254:104,1,55,2|0,2:0|2:0,2:0:0:0:
199,161,193842,2,0,P|146:140|68:147,1,110,10|2,2:0|1:2,2:0:0:0:
28,300,194351,6,0,P|87:282|144:268,1,110,2|0,1:2|2:0,2:0:0:0:
201,313,194732,1,0,1:0:0:0:
201,313,194859,2,0,P|257:298|291:354,1,110,8|2,2:0|1:2,2:0:0:0:
365,350,195241,1,2,1:2:0:0:
365,350,195368,2,0,P|379:287|387:246,1,55,6|0,1:2|2:0,2:0:0:0:
437,242,195622,1,8,2:0:0:0:
346,143,195876,2,0,P|271:142|165:123,1,165,14|10,2:0|2:0,2:0:0:0:
123,76,196385,6,0,P|156:16|236:34,1,110,6|0,1:2|2:0,2:0:0:0:
265,44,196766,1,2,1:2:0:0:
265,44,196893,2,0,B|323:30|317:57|382:42,1,110,10|2,2:0|3:2,2:0:0:0:
479,135,197402,2,0,P|473:183|464:226,1,55,2|0,1:2|2:0,2:0:0:0:
410,244,197656,2,0,P|423:294|430:325,1,55,2|2,2:0|2:0,2:0:0:0:
363,353,197910,2,0,P|289:334|299:274,1,110,10|2,2:0|1:2,2:0:0:0:
324,177,198419,6,0,P|258:195|197:202,1,110,2|0,1:2|2:0,2:0:0:0:
177,269,198800,1,0,1:0:0:0:
177,269,198927,2,0,P|193:318|193:344,1,55,10|0,2:0|2:0,2:0:0:0:
146,381,199181,1,2,3:2:0:0:
33,291,199436,2,0,P|44:256|46:215,1,55,2|0,1:2|2:0,2:0:0:0:
11,171,199690,1,2,2:0:0:0:
104,60,199944,2,0,P|131:53|156:43,1,55,10|0,2:0|2:0,2:0:0:0:
213,95,200198,2,0,P|247:104|280:113,1,55,2|2,1:2|1:2,2:0:0:0:
336,63,200452,6,0,P|418:68|433:159,1,165,6|0,1:2|1:0,2:0:0:0:
389,197,200961,2,0,P|383:225|374:263,1,55,10|0,2:0|2:0,2:0:0:0:
419,315,201215,1,2,3:2:0:0:
281,371,201469,2,0,P|253:366|227:359,1,55,2|0,1:2|2:0,2:0:0:0:
189,292,201724,1,2,1:2:0:0:
65,346,201978,2,0,P|73:291|87:238,1,110,10|0,2:0|2:0,2:0:0:0:
27,84,202486,6,0,P|79:93|124:63,1,110,2|2,1:2|2:0,2:0:0:0:
208,34,202868,1,0,1:2:0:0:
208,34,202995,2,0,P|199:82|193:111,1,55,10|0,2:0|2:0,2:0:0:0:
164,159,203249,1,0,3:0:0:0:
316,188,203503,2,0,P|355:176|386:173,2,55,2|2|10,1:2|1:2|2:0,2:0:0:0:
254,233,203885,1,2,1:2:0:0:
254,233,204012,2,0,P|224:280|242:388,1,165,10|0,2:0|2:0,2:0:0:0:
314,363,204520,6,0,P|386:335|434:351,1,110,6|0,1:2|2:0,2:0:0:0:
473,291,204902,1,2,1:2:0:0:
473,291,205029,2,0,P|493:209|496:204,1,55,10|0,2:0|2:0,2:0:0:0:
512,167,205283,1,2,3:2:0:0:
415,68,205537,2,0,P|377:77|300:87,1,110,2|2,1:2|2:0,2:0:0:0:
254,139,205919,1,0,2:0:0:0:
254,139,206046,2,0,P|262:182|268:217,1,55,10|2,2:0|2:0,2:0:0:0:
213,251,206300,2,0,P|208:278|204:305,1,55,2|2,1:2|1:2,2:0:0:0:
141,356,206554,6,0,P|81:322|39:360,1,110,6|0,1:2|2:0,2:0:0:0:
5,273,206936,1,2,1:2:0:0:
5,273,207063,2,0,P|15:219|17:172,1,55,10|0,2:0|2:0,2:0:0:0:
70,160,207317,1,2,3:2:0:0:
1,27,207571,2,0,P|29:31|56:37,1,55,2|0,1:2|2:0,2:0:0:0:
121,82,207825,2,0,P|149:78|176:72,1,55,2|0,2:0|2:0,2:0:0:0:
234,25,208080,1,10,2:0:0:0:
335,119,208334,1,2,1:2:0:0:
443,52,208588,6,0,P|468:116|453:162,1,110,6|0,1:2|2:0,2:0:0:0:
400,210,208969,1,2,1:2:0:0:
400,210,209097,2,0,P|363:216|319:215,1,55,10|0,2:0|2:0,2:0:0:0:
276,179,209351,1,2,3:2:0:0:
194,264,209605,2,0,P|193:291|190:318,1,55,2|0,1:2|2:0,2:0:0:0:
141,377,209859,1,2,1:2:0:0:
8,313,210113,6,0,P|69:294|86:288,1,55,10|0,2:0|2:0,2:0:0:0:
87,222,210368,2,0,P|102:196|124:142,1,55,0|0,2:0|2:0,2:0:0:0:
87,99,210622,1,2,2:0:0:0:
256,192,210749,12,4,212656,2:0:0:0:
460,16,214690,6,0,P|411:57|420:125,1,110,4|2,1:2|2:0,2:0:0:0:
460,160,215071,1,0,1:0:0:0:
460,160,215198,1,8,2:0:0:0:
490,283,215452,2,0,P|413:259|363:255,1,110,2|0,1:2|1:0,2:0:0:0:
326,310,215834,1,2,2:0:0:0:
326,310,215961,2,0,P|288:321|250:328,1,55,2|0,3:2|2:0,2:0:0:0:
208,369,216215,2,0,P|170:308|196:266,1,110,8|2,2:0|1:2,2:0:0:0:
258,154,216723,6,0,P|208:191|150:177,1,110,4|0,1:0|2:0,2:0:0:0:
109,130,217105,1,2,1:2:0:0:
109,130,217232,1,8,2:0:0:0:
221,12,217486,2,0,P|279:28|307:30,1,55,2|0,3:2|2:0,2:0:0:0:
338,70,217740,2,0,P|409:46|450:60,1,110,2|2,1:2|2:0,2:0:0:0:
498,114,218122,1,2,3:2:0:0:
498,114,218249,2,0,P|483:174|478:196,1,55,8|0,2:0|2:0,2:0:0:0:
501,241,218503,1,2,3:2:0:0:
410,332,218757,6,0,P|344:292|283:317,1,110,4|0,1:0|2:0,2:0:0:0:
258,351,219139,1,0,1:0:0:0:
258,351,219266,2,0,P|229:360|188:368,1,55,8|0,2:0|2:0,2:0:0:0:
133,331,219520,2,0,P|121:237|176:214,1,165,2|2,2:0|2:0,2:0:0:0:
224,156,220028,1,2,2:0:0:0:
346,198,220283,2,0,P|366:115|321:85,1,110,8|2,2:0|1:2,2:0:0:0:
329,29,220664,5,2,1:2:0:0:
329,29,220791,2,0,P|257:49|216:57,1,110,4|0,1:0|2:0,2:0:0:0:
160,7,221173,1,0,1:0:0:0:
160,7,221300,2,0,P|139:46|126:74,1,55,8|0,2:0|2:0,2:0:0:0:
62,102,221554,6,0,P|95:163|74:271,1,165,2|2,2:0|2:0,2:0:0:0:
134,318,222062,2,0,P|171:308|211:300,1,55,2|2,1:2|1:2,2:0:0:0:
241,244,222317,2,0,P|316:243|352:327,1,146.666666666667,10|0,2:0|2:0,2:0:0:0:
420,371,222825,6,0,P|431:316|450:230,1,110,4|0,1:0|2:0,2:0:0:0:
494,203,223206,1,0,1:0:0:0:
494,203,223334,1,8,2:0:0:0:
407,87,223588,2,0,P|359:124|295:104,1,110,2|2,2:0|1:2,2:0:0:0:
254,63,223969,1,0,2:0:0:0:
254,63,224096,2,0,P|212:75|183:80,1,55,2|0,2:0|2:0,2:0:0:0:
133,39,224351,2,0,P|76:85|112:173,1,165,8|0,2:0|2:0,2:0:0:0:
80,244,224859,6,0,P|148:231|206:225,1,110,4|0,1:0|2:0,2:0:0:0:
255,182,225240,1,0,1:0:0:0:
255,182,225367,2,0,P|269:227|255:258,1,55,8|0,2:0|2:0,2:0:0:0:
315,299,225622,2,0,P|388:297|420:243,1,110,2|2,2:0|1:2,2:0:0:0:
492,115,226130,2,0,P|452:132|422:138,1,55,2|0,2:0|2:0,2:0:0:0:
380,182,226384,2,0,P|332:156|240:145,1,110,8|2,2:0|3:2,2:0:0:0:
231,80,226766,5,2,3:2:0:0:
231,80,226893,2,0,P|154:108|107:113,1,110,4|2,1:0|2:0,2:0:0:0:
75,171,227274,1,2,1:2:0:0:
75,171,227401,2,0,P|83:209|89:254,1,55,8|0,2:0|2:0,2:0:0:0:
43,291,227656,2,0,P|121:277|158:372,1,165,2|0,2:0|2:0,2:0:0:0:
237,375,228164,2,0,P|290:362|334:358,1,55,2|2,2:0|2:0,2:0:0:0:
370,373,228418,2,0,P|312:332|363:241,1,165,10|0,2:0|2:0,2:0:0:0:
378,184,228927,1,6,3:2:0:0:
256,192,229054,12,4,230961,2:0:0:0:
