osu file format v14

[General]
AudioFilename: audio.mp3
AudioLeadIn: 0
PreviewTime: 114903
Countdown: 0
SampleSet: Soft
StackLeniency: 0.4
Mode: 0
LetterboxInBreaks: 0
EpilepsyWarning: 1
WidescreenStoryboard: 1

[Editor]
Bookmarks: 49945,110454,163843,196386,222827
DistanceSpacing: 0.3
BeatDivisor: 4
GridSize: 32
TimelineZoom: 2

[Metadata]
Title:Literature
TitleUnicode:リテラチュア
Artist:Ueda Reina
ArtistUnicode:上田麗奈
Creator:-Hitomi
Version:Collab Insane
Source:魔女の旅々
Tags:Wandering Witch: The Journey of Elaina Japanese Anime Pop JPop J-Pop Majo no Tabitabi matsuyuki ame matsuyuki_ame rk657 kanui koldnoodl euryalle うえしゃま Ueshama れいちゃん Reichan Rei-chan イレイナ Ashen Opening OP
BeatmapID:3606065
BeatmapSetID:1749893

[Difficulty]
HPDrainRate:5.2
CircleSize:4
OverallDifficulty:7.8
ApproachRate:9
SliderMultiplier:3.02
SliderTickRate:1

[Events]
//Background and Video events
0,0,"1.jpg",0,0
//Break Periods
//Storyboard Layer 0 (Background)
//Storyboard Layer 1 (Fail)
//Storyboard Layer 2 (Pass)
//Storyboard Layer 3 (Foreground)
Sprite,Foreground,Centre,"sb\p.png",0,0 M,0,1193,,320,400 F,0,1193,,0.7 C,0,1193,,144,144,144 R,30,1193,2209,0,0.261799 V,30,1193,2209,0,0,60,60 R,30,49475,49775,0.261799,0.5 V,29,49475,49775,60,60,0,0 F,0,49775,,0
Sprite,Foreground,Centre,"sb\p.png",0,0 M,0,49945,,320,400 F,0,49945,,0.7 C,0,49945,,144,144,144 R,30,49945,50961,0,0.261799 V,30,49945,50961,0,0,60,60 R,30,109984,110284,0.261799,0.5 V,29,109984,110284,60,60,0,0 F,0,110284,,0
Sprite,Foreground,Centre,"sb\p.png",0,0 M,0,110454,,320,400 F,0,110454,,0.7 C,0,110454,,144,144,144 R,30,110454,111470,0,0.261799 V,30,110454,111470,0,0,60,60 R,30,163373,163673,0.261799,0.5 V,29,163373,163673,60,60,0,0 F,0,163673,,0
Sprite,Foreground,Centre,"sb\p.png",0,0 M,0,163843,,320,400 F,0,163843,,0.7 C,0,163843,,144,144,144 R,30,163843,164859,0,0.261799 V,30,163843,164859,0,0,60,60 R,30,195916,196216,0.261799,0.5 V,29,195916,196216,60,60,0,0 F,0,196216,,0
Sprite,Foreground,Centre,"sb\p.png",0,0 M,0,196386,,320,400 F,0,196386,,0.7 C,0,196386,,144,144,144 R,30,196386,197402,0,0.261799 V,30,196386,197402,0,0,60,60 R,30,222357,222657,0.261799,0.5 V,29,222357,222657,60,60,0,0 F,0,222657,,0
Sprite,Foreground,Centre,"sb\p.png",0,0 M,0,222827,,320,400 F,0,222827,,0.7 C,0,222827,,144,144,144 R,30,222827,223843,0,0.261799 V,30,222827,223843,0,0,60,60 R,30,236594,236894,0.261799,0.5 V,29,236594,236894,60,60,0,0 F,0,236894,,0
Sprite,Foreground,Centre,"sb\p.png",0,0 M,0,1193,,320,428 C,0,1193,,128,128,128 V,30,1193,1493,0,4,120,4 F,0,49475,49775,1,0 V,29,49475,49775,120,4,0,4
Sprite,Foreground,BottomCentre,"sb\p.png",0,0 M,0,1193,,320,430 C,0,1193,,255,255,255 V,0,1193,49475,0,4,120,4 V,30,49475,49775,120,4,0,4 F,0,49675,49775,1,0
Sprite,Foreground,Centre,"sb\p.png",0,0 M,0,49945,,320,428 C,0,49945,,128,128,128 V,30,49945,50245,0,4,120,4 F,0,109984,110284,1,0 V,29,109984,110284,120,4,0,4
Sprite,Foreground,BottomCentre,"sb\p.png",0,0 M,0,49945,,320,430 C,0,49945,,255,255,255 V,0,49945,109984,0,4,120,4 V,30,109984,110284,120,4,0,4 F,0,110184,110284,1,0
Sprite,Foreground,Centre,"sb\p.png",0,0 M,0,110454,,320,428 C,0,110454,,128,128,128 V,30,110454,110754,0,4,120,4 F,0,163373,163673,1,0 V,29,163373,163673,120,4,0,4
Sprite,Foreground,BottomCentre,"sb\p.png",0,0 M,0,110454,,320,430 C,0,110454,,255,255,255 V,0,110454,163373,0,4,120,4 V,30,163373,163673,120,4,0,4 F,0,163573,163673,1,0
Sprite,Foreground,Centre,"sb\p.png",0,0 M,0,163843,,320,428 C,0,163843,,128,128,128 V,30,163843,164143,0,4,120,4 F,0,195916,196216,1,0 V,29,195916,196216,120,4,0,4
Sprite,Foreground,BottomCentre,"sb\p.png",0,0 M,0,163843,,320,430 C,0,163843,,255,255,255 V,0,163843,195916,0,4,120,4 V,30,195916,196216,120,4,0,4 F,0,196116,196216,1,0
Sprite,Foreground,Centre,"sb\p.png",0,0 M,0,196386,,320,428 C,0,196386,,128,128,128 V,30,196386,196686,0,4,120,4 F,0,222357,222657,1,0 V,29,222357,222657,120,4,0,4
Sprite,Foreground,BottomCentre,"sb\p.png",0,0 M,0,196386,,320,430 C,0,196386,,255,255,255 V,0,196386,222357,0,4,120,4 V,30,222357,222657,120,4,0,4 F,0,222557,222657,1,0
Sprite,Foreground,Centre,"sb\p.png",0,0 M,0,222827,,320,428 C,0,222827,,128,128,128 V,30,222827,223127,0,4,120,4 F,0,236594,236894,1,0 V,29,236594,236894,120,4,0,4
Sprite,Foreground,BottomCentre,"sb\p.png",0,0 M,0,222827,,320,430 C,0,222827,,255,255,255 V,0,222827,236594,0,4,120,4 V,30,236594,236894,120,4,0,4 F,0,236794,236894,1,0
Sprite,Foreground,Centre,"sb\credits\0053.png",282.75,383.75 S,0,1193,,0.5 F,0,1193,1393,0,0.8 C,0,1193,49775,255,255,255 F,0,49575,49775,0.8,0
Sprite,Foreground,Centre,"sb\credits\0065.png",297.5,388.25 S,0,1193,,0.5 C,0,1193,49775,255,255,255 F,0,1253,1453,0,0.8 F,0,49635,49835,0.8,0
Sprite,Foreground,Centre,"sb\credits\0063.png",310.5,388.25 S,0,1193,,0.5 C,0,1193,49775,255,255,255 F,0,1313,1513,0,0.8 F,0,49695,49895,0.8,0
Sprite,Foreground,Centre,"sb\credits\0074.png",322,386.75 S,0,1193,,0.5 C,0,1193,49775,255,255,255 F,0,1373,1573,0,0.8 F,0,49755,49955,0.8,0
Sprite,Foreground,Centre,"sb\credits\0069.png",331.25,385.75 S,0,1193,,0.5 C,0,1193,49775,255,255,255 F,0,1433,1633,0,0.8 F,0,49815,50015,0.8,0
Sprite,Foreground,Centre,"sb\credits\006f.png",342.5,388.25 S,0,1193,,0.5 C,0,1193,49775,255,255,255 F,0,1493,1693,0,0.8 F,0,49875,50075,0.8,0
Sprite,Foreground,Centre,"sb\credits\006e.png",357.25,388.25 S,0,1193,,0.5 C,0,1193,49775,255,255,255 F,0,1553,1753,0,0.8 F,0,49935,50135,0.8,0
Sprite,Foreground,Centre,"sb\credits\0053.png",282.75,383.75 S,0,49945,,0.5 F,0,49945,50145,0,0.8 C,0,49945,110284,255,255,255 F,0,110084,110284,0.8,0
Sprite,Foreground,Centre,"sb\credits\0065.png",297.5,388.25 S,0,49945,,0.5 C,0,49945,110284,255,255,255 F,0,50005,50205,0,0.8 F,0,110144,110344,0.8,0
Sprite,Foreground,Centre,"sb\credits\0063.png",310.5,388.25 S,0,49945,,0.5 C,0,49945,110284,255,255,255 F,0,50065,50265,0,0.8 F,0,110204,110404,0.8,0
Sprite,Foreground,Centre,"sb\credits\0074.png",322,386.75 S,0,49945,,0.5 C,0,49945,110284,255,255,255 F,0,50125,50325,0,0.8 F,0,110264,110464,0.8,0
Sprite,Foreground,Centre,"sb\credits\0069.png",331.25,385.75 S,0,49945,,0.5 C,0,49945,110284,255,255,255 F,0,50185,50385,0,0.8 F,0,110324,110524,0.8,0
Sprite,Foreground,Centre,"sb\credits\006f.png",342.5,388.25 S,0,49945,,0.5 C,0,49945,110284,255,255,255 F,0,50245,50445,0,0.8 F,0,110384,110584,0.8,0
Sprite,Foreground,Centre,"sb\credits\006e.png",357.25,388.25 S,0,49945,,0.5 C,0,49945,110284,255,255,255 F,0,50305,50505,0,0.8 F,0,110444,110644,0.8,0
Sprite,Foreground,Centre,"sb\credits\0053.png",282.75,383.75 S,0,110454,,0.5 F,0,110454,110654,0,0.8 C,0,110454,163673,255,255,255 F,0,163473,163673,0.8,0
Sprite,Foreground,Centre,"sb\credits\0065.png",297.5,388.25 S,0,110454,,0.5 C,0,110454,163673,255,255,255 F,0,110514,110714,0,0.8 F,0,163533,163733,0.8,0
Sprite,Foreground,Centre,"sb\credits\0063.png",310.5,388.25 S,0,110454,,0.5 C,0,110454,163673,255,255,255 F,0,110574,110774,0,0.8 F,0,163593,163793,0.8,0
Sprite,Foreground,Centre,"sb\credits\0074.png",322,386.75 S,0,110454,,0.5 C,0,110454,163673,255,255,255 F,0,110634,110834,0,0.8 F,0,163653,163853,0.8,0
Sprite,Foreground,Centre,"sb\credits\0069.png",331.25,385.75 S,0,110454,,0.5 C,0,110454,163673,255,255,255 F,0,110694,110894,0,0.8 F,0,163713,163913,0.8,0
Sprite,Foreground,Centre,"sb\credits\006f.png",342.5,388.25 S,0,110454,,0.5 C,0,110454,163673,255,255,255 F,0,110754,110954,0,0.8 F,0,163773,163973,0.8,0
Sprite,Foreground,Centre,"sb\credits\006e.png",357.25,388.25 S,0,110454,,0.5 C,0,110454,163673,255,255,255 F,0,110814,111014,0,0.8 F,0,163833,164033,0.8,0
Sprite,Foreground,Centre,"sb\credits\0053.png",282.75,383.75 S,0,163843,,0.5 F,0,163843,164043,0,0.8 C,0,163843,196216,255,255,255 F,0,196016,196216,0.8,0
Sprite,Foreground,Centre,"sb\credits\0065.png",297.5,388.25 S,0,163843,,0.5 C,0,163843,196216,255,255,255 F,0,163903,164103,0,0.8 F,0,196076,196276,0.8,0
Sprite,Foreground,Centre,"sb\credits\0063.png",310.5,388.25 S,0,163843,,0.5 C,0,163843,196216,255,255,255 F,0,163963,164163,0,0.8 F,0,196136,196336,0.8,0
Sprite,Foreground,Centre,"sb\credits\0074.png",322,386.75 S,0,163843,,0.5 C,0,163843,196216,255,255,255 F,0,164023,164223,0,0.8 F,0,196196,196396,0.8,0
Sprite,Foreground,Centre,"sb\credits\0069.png",331.25,385.75 S,0,163843,,0.5 C,0,163843,196216,255,255,255 F,0,164083,164283,0,0.8 F,0,196256,196456,0.8,0
Sprite,Foreground,Centre,"sb\credits\006f.png",342.5,388.25 S,0,163843,,0.5 C,0,163843,196216,255,255,255 F,0,164143,164343,0,0.8 F,0,196316,196516,0.8,0
Sprite,Foreground,Centre,"sb\credits\006e.png",357.25,388.25 S,0,163843,,0.5 C,0,163843,196216,255,255,255 F,0,164203,164403,0,0.8 F,0,196376,196576,0.8,0
Sprite,Foreground,Centre,"sb\credits\0053.png",282.75,383.75 S,0,196386,,0.5 F,0,196386,196586,0,0.8 C,0,196386,222657,255,255,255 F,0,222457,222657,0.8,0
Sprite,Foreground,Centre,"sb\credits\0065.png",297.5,388.25 S,0,196386,,0.5 C,0,196386,222657,255,255,255 F,0,196446,196646,0,0.8 F,0,222517,222717,0.8,0
Sprite,Foreground,Centre,"sb\credits\0063.png",310.5,388.25 S,0,196386,,0.5 C,0,196386,222657,255,255,255 F,0,196506,196706,0,0.8 F,0,222577,222777,0.8,0
Sprite,Foreground,Centre,"sb\credits\0074.png",322,386.75 S,0,196386,,0.5 C,0,196386,222657,255,255,255 F,0,196566,196766,0,0.8 F,0,222637,222837,0.8,0
Sprite,Foreground,Centre,"sb\credits\0069.png",331.25,385.75 S,0,196386,,0.5 C,0,196386,222657,255,255,255 F,0,196626,196826,0,0.8 F,0,222697,222897,0.8,0
Sprite,Foreground,Centre,"sb\credits\006f.png",342.5,388.25 S,0,196386,,0.5 C,0,196386,222657,255,255,255 F,0,196686,196886,0,0.8 F,0,222757,222957,0.8,0
Sprite,Foreground,Centre,"sb\credits\006e.png",357.25,388.25 S,0,196386,,0.5 C,0,196386,222657,255,255,255 F,0,196746,196946,0,0.8 F,0,222817,223017,0.8,0
Sprite,Foreground,Centre,"sb\credits\0053.png",282.75,383.75 S,0,222827,,0.5 F,0,222827,223027,0,0.8 C,0,222827,236894,255,255,255 F,0,236694,236894,0.8,0
Sprite,Foreground,Centre,"sb\credits\0065.png",297.5,388.25 S,0,222827,,0.5 C,0,222827,236894,255,255,255 F,0,222887,223087,0,0.8 F,0,236754,236954,0.8,0
Sprite,Foreground,Centre,"sb\credits\0063.png",310.5,388.25 S,0,222827,,0.5 C,0,222827,236894,255,255,255 F,0,222947,223147,0,0.8 F,0,236814,237014,0.8,0
Sprite,Foreground,Centre,"sb\credits\0074.png",322,386.75 S,0,222827,,0.5 C,0,222827,236894,255,255,255 F,0,223007,223207,0,0.8 F,0,236874,237074,0.8,0
Sprite,Foreground,Centre,"sb\credits\0069.png",331.25,385.75 S,0,222827,,0.5 C,0,222827,236894,255,255,255 F,0,223067,223267,0,0.8 F,0,236934,237134,0.8,0
Sprite,Foreground,Centre,"sb\credits\006f.png",342.5,388.25 S,0,222827,,0.5 C,0,222827,236894,255,255,255 F,0,223127,223327,0,0.8 F,0,236994,237194,0.8,0
Sprite,Foreground,Centre,"sb\credits\006e.png",357.25,388.25 S,0,222827,,0.5 C,0,222827,236894,255,255,255 F,0,223187,223387,0,0.8 F,0,237054,237254,0.8,0
Sprite,Foreground,Centre,"sb\credits\004b.png",294,409 S,0,1193,,0.5 F,0,1193,1393,0,0.8 C,0,1193,49775,255,255,255 F,0,49575,49775,0.8,0
Sprite,Foreground,Centre,"sb\credits\0061.png",312.25,413.25 S,0,1193,,0.5 C,0,1193,49775,255,255,255 F,0,1253,1453,0,0.8 F,0,49635,49835,0.8,0
Sprite,Foreground,Centre,"sb\credits\006e.png",326.5,413.25 S,0,1193,,0.5 C,0,1193,49775,255,255,255 F,0,1313,1513,0,0.8 F,0,49695,49895,0.8,0
Sprite,Foreground,Centre,"sb\credits\0075.png",341.5,413.25 S,0,1193,,0.5 C,0,1193,49775,255,255,255 F,0,1373,1573,0,0.8 F,0,49755,49955,0.8,0
Sprite,Foreground,Centre,"sb\credits\0069.png",353,410.75 S,0,1193,,0.5 C,0,1193,49775,255,255,255 F,0,1433,1633,0,0.8 F,0,49815,50015,0.8,0
Sprite,Foreground,Centre,"sb\credits\004b.png",294,409 S,0,110454,,0.5 F,0,110454,110654,0,0.8 C,0,110454,163673,255,255,255 F,0,163473,163673,0.8,0
Sprite,Foreground,Centre,"sb\credits\0061.png",312.25,413.25 S,0,110454,,0.5 C,0,110454,163673,255,255,255 F,0,110514,110714,0,0.8 F,0,163533,163733,0.8,0
Sprite,Foreground,Centre,"sb\credits\006e.png",326.5,413.25 S,0,110454,,0.5 C,0,110454,163673,255,255,255 F,0,110574,110774,0,0.8 F,0,163593,163793,0.8,0
Sprite,Foreground,Centre,"sb\credits\0075.png",341.5,413.25 S,0,110454,,0.5 C,0,110454,163673,255,255,255 F,0,110634,110834,0,0.8 F,0,163653,163853,0.8,0
Sprite,Foreground,Centre,"sb\credits\0069.png",353,410.75 S,0,110454,,0.5 C,0,110454,163673,255,255,255 F,0,110694,110894,0,0.8 F,0,163713,163913,0.8,0
Sprite,Foreground,Centre,"sb\credits\004b.png",294,409 S,0,196386,,0.5 F,0,196386,196586,0,0.8 C,0,196386,222657,255,255,255 F,0,222457,222657,0.8,0
Sprite,Foreground,Centre,"sb\credits\0061.png",312.25,413.25 S,0,196386,,0.5 C,0,196386,222657,255,255,255 F,0,196446,196646,0,0.8 F,0,222517,222717,0.8,0
Sprite,Foreground,Centre,"sb\credits\006e.png",326.5,413.25 S,0,196386,,0.5 C,0,196386,222657,255,255,255 F,0,196506,196706,0,0.8 F,0,222577,222777,0.8,0
Sprite,Foreground,Centre,"sb\credits\0075.png",341.5,413.25 S,0,196386,,0.5 C,0,196386,222657,255,255,255 F,0,196566,196766,0,0.8 F,0,222637,222837,0.8,0
Sprite,Foreground,Centre,"sb\credits\0069.png",353,410.75 S,0,196386,,0.5 C,0,196386,222657,255,255,255 F,0,196626,196826,0,0.8 F,0,222697,222897,0.8,0
Sprite,Foreground,Centre,"sb\credits\002d.png",276,413.25 S,0,49945,,0.5 F,0,49945,50145,0,0.8 C,0,49945,110284,255,255,255 F,0,110084,110284,0.8,0
Sprite,Foreground,Centre,"sb\credits\0048.png",294,409 S,0,49945,,0.5 C,0,49945,110284,255,255,255 F,0,50005,50205,0,0.8 F,0,110144,110344,0.8,0
Sprite,Foreground,Centre,"sb\credits\0069.png",310.5,410.75 S,0,49945,,0.5 C,0,49945,110284,255,255,255 F,0,50065,50265,0,0.8 F,0,110204,110404,0.8,0
Sprite,Foreground,Centre,"sb\credits\0074.png",319.75,411.75 S,0,49945,,0.5 C,0,49945,110284,255,255,255 F,0,50125,50325,0,0.8 F,0,110264,110464,0.8,0
Sprite,Foreground,Centre,"sb\credits\006f.png",331.75,413.25 S,0,49945,,0.5 C,0,49945,110284,255,255,255 F,0,50185,50385,0,0.8 F,0,110324,110524,0.8,0
Sprite,Foreground,Centre,"sb\credits\006d.png",349.75,413.25 S,0,49945,,0.5 C,0,49945,110284,255,255,255 F,0,50245,50445,0,0.8 F,0,110384,110584,0.8,0
Sprite,Foreground,Centre,"sb\credits\0069.png",365,410.75 S,0,49945,,0.5 C,0,49945,110284,255,255,255 F,0,50305,50505,0,0.8 F,0,110444,110644,0.8,0
Sprite,Foreground,Centre,"sb\credits\002d.png",276,413.25 S,0,163843,,0.5 F,0,163843,164043,0,0.8 C,0,163843,196216,255,255,255 F,0,196016,196216,0.8,0
Sprite,Foreground,Centre,"sb\credits\0048.png",294,409 S,0,163843,,0.5 C,0,163843,196216,255,255,255 F,0,163903,164103,0,0.8 F,0,196076,196276,0.8,0
Sprite,Foreground,Centre,"sb\credits\0069.png",310.5,410.75 S,0,163843,,0.5 C,0,163843,196216,255,255,255 F,0,163963,164163,0,0.8 F,0,196136,196336,0.8,0
Sprite,Foreground,Centre,"sb\credits\0074.png",319.75,411.75 S,0,163843,,0.5 C,0,163843,196216,255,255,255 F,0,164023,164223,0,0.8 F,0,196196,196396,0.8,0
Sprite,Foreground,Centre,"sb\credits\006f.png",331.75,413.25 S,0,163843,,0.5 C,0,163843,196216,255,255,255 F,0,164083,164283,0,0.8 F,0,196256,196456,0.8,0
Sprite,Foreground,Centre,"sb\credits\006d.png",349.75,413.25 S,0,163843,,0.5 C,0,163843,196216,255,255,255 F,0,164143,164343,0,0.8 F,0,196316,196516,0.8,0
Sprite,Foreground,Centre,"sb\credits\0069.png",365,410.75 S,0,163843,,0.5 C,0,163843,196216,255,255,255 F,0,164203,164403,0,0.8 F,0,196376,196576,0.8,0
Sprite,Foreground,Centre,"sb\credits\002d.png",276,413.25 S,0,222827,,0.5 F,0,222827,223027,0,0.8 C,0,222827,236894,255,255,255 F,0,236694,236894,0.8,0
Sprite,Foreground,Centre,"sb\credits\0048.png",294,409 S,0,222827,,0.5 C,0,222827,236894,255,255,255 F,0,222887,223087,0,0.8 F,0,236754,236954,0.8,0
Sprite,Foreground,Centre,"sb\credits\0069.png",310.5,410.75 S,0,222827,,0.5 C,0,222827,236894,255,255,255 F,0,222947,223147,0,0.8 F,0,236814,237014,0.8,0
Sprite,Foreground,Centre,"sb\credits\0074.png",319.75,411.75 S,0,222827,,0.5 C,0,222827,236894,255,255,255 F,0,223007,223207,0,0.8 F,0,236874,237074,0.8,0
Sprite,Foreground,Centre,"sb\credits\006f.png",331.75,413.25 S,0,222827,,0.5 C,0,222827,236894,255,255,255 F,0,223067,223267,0,0.8 F,0,236934,237134,0.8,0
Sprite,Foreground,Centre,"sb\credits\006d.png",349.75,413.25 S,0,222827,,0.5 C,0,222827,236894,255,255,255 F,0,223127,223327,0,0.8 F,0,236994,237194,0.8,0
Sprite,Foreground,Centre,"sb\credits\0069.png",365,410.75 S,0,222827,,0.5 C,0,222827,236894,255,255,255 F,0,223187,223387,0,0.8 F,0,237054,237254,0.8,0
//Storyboard Layer 4 (Overlay)
//Storyboard Sound Samples

[TimingPoints]
1056,550.45871559633,4,2,23,35,1,0
1124,-100,4,2,24,35,0,0
1193,428.571428571429,4,2,25,40,1,0
1193,-250,4,2,25,40,0,0
1219,-250,4,2,1,5,0,0
1514,508.474576271186,4,2,23,50,1,0
1895,-100,4,2,25,50,0,0
2149,-200,4,2,24,50,0,0
2181,-200,4,2,1,5,0,0
2530,-200,4,2,26,50,0,0
2912,-200,4,2,27,50,0,0
3166,508.474576271186,4,2,28,40,1,0
3166,-166.666666666667,4,2,28,40,0,0
3197,-166.666666666667,4,2,1,5,0,0
3547,-166.666666666667,4,2,27,40,0,0
3579,-166.666666666667,4,2,1,5,0,0
3928,-166.666666666667,4,2,25,40,0,0
4182,-166.666666666667,4,2,24,40,0,0
4214,-166.666666666667,4,2,1,5,0,0
4436,-166.666666666667,4,2,23,40,0,0
4723,-166.666666666667,4,2,1,5,0,0
4945,-166.666666666667,4,2,29,40,0,0
5199,-166.666666666667,4,2,30,40,0,0
5580,-166.666666666667,4,2,23,40,0,0
5962,-166.666666666667,4,2,24,40,0,0
6216,-166.666666666667,4,2,25,40,0,0
6598,-166.666666666667,4,2,31,40,0,0
6979,-166.666666666667,4,2,32,40,0,0
8250,-166.666666666667,4,2,32,15,0,0
9267,508.474576271186,4,2,1,30,1,0
9267,-200,4,2,1,30,0,0
21470,508.474576271186,4,2,1,45,1,0
21470,-153.846153846154,4,2,1,45,0,0
21724,-153.846153846154,4,2,4,45,0,0
33673,508.474576271186,4,2,1,45,1,0
33673,-181.818181818183,4,2,1,45,0,0
34690,-181.818181818183,4,2,4,45,0,0
41808,-181.818181818183,4,2,4,40,0,0
43842,-181.818181818183,4,2,68,40,0,0
44605,-181.818181818183,4,2,69,45,0,0
45876,-181.818181818183,4,2,1,45,0,0
46893,-125,4,2,1,50,0,0
47402,-111.111111111111,4,2,1,50,0,0
47910,-100,4,2,1,50,0,0
48673,-100,4,2,1,60,0,0
49776,-100,4,2,1,5,0,0
49944,-83.3333333333333,4,2,3,70,0,1
50198,-83.3333333333333,4,2,21,70,0,1
50325,-83.3333333333333,4,2,1,70,0,1
50453,-100,4,2,11,70,0,1
50707,-100,4,2,10,70,0,1
50961,-100,4,2,11,70,0,1
51215,-100,4,2,15,70,0,1
51469,-100,4,2,10,70,0,1
51724,-100,4,2,21,70,0,1
51978,-100,4,2,11,70,0,1
52232,-100,4,2,18,70,0,1
52486,-100,4,2,10,70,0,1
52741,-100,4,2,21,70,0,1
52995,-100,4,2,11,70,0,1
53249,-100,4,2,10,70,0,1
53376,-100,4,2,1,70,0,1
53503,-100,4,2,10,70,0,1
53757,-100,4,2,13,70,0,1
54012,-83.3333333333333,4,2,12,70,0,1
54266,-83.3333333333333,4,2,21,70,0,1
54520,-100,4,2,11,70,0,1
54775,-100,4,2,10,70,0,1
55029,-100,4,2,11,70,0,1
55283,-100,4,2,15,70,0,1
55410,-100,4,2,1,70,0,1
55537,-100,4,2,10,70,0,1
55792,-100,4,2,21,70,0,1
56046,-90.9090909090909,4,2,11,70,0,1
56300,-90.9090909090909,4,2,1,70,0,1
56427,-90.9090909090909,4,2,11,70,0,1
56554,-100,4,2,10,70,0,1
56808,-100,4,2,12,70,0,1
57063,-100,4,2,21,70,0,1
57190,-100,4,2,12,70,0,1
57571,-166.666666666667,4,2,12,70,0,1
58080,-83.3333333333334,4,2,12,70,0,1
58334,-83.3333333333334,4,2,21,70,0,1
58588,-100,4,2,11,70,0,1
58842,-100,4,2,10,70,0,1
59097,-100,4,2,11,70,0,1
59351,-100,4,2,15,70,0,1
59478,-100,4,2,1,70,0,1
59605,-100,4,2,10,70,0,1
59859,-100,4,2,21,70,0,1
60114,-100,4,2,11,70,0,1
60368,-100,4,2,1,70,0,1
60495,-100,4,2,11,70,0,1
60622,-100,4,2,10,70,0,1
60876,-100,4,2,21,70,0,1
61131,-100,4,2,11,70,0,1
61385,-100,4,2,10,70,0,1
61639,-100,4,2,20,70,0,1
61893,-100,4,2,17,70,0,1
62147,-90.9090909090909,4,2,17,70,0,1
62401,-90.9090909090909,4,2,1,70,0,1
62656,-100,4,2,20,70,0,1
62910,-100,4,2,1,70,0,1
63164,-100,4,2,10,70,0,1
63292,-100,4,2,1,70,0,1
63673,-100,4,2,12,70,0,1
64181,-142.857142857143,4,2,12,70,0,1
64435,-142.857142857143,4,2,1,70,0,1
64690,-111.111111111111,4,2,1,70,0,1
64944,-111.111111111111,4,2,22,70,0,1
65071,-111.111111111111,4,2,21,70,0,1
65198,-90.9090909090909,4,2,11,70,0,1
65580,-90.9090909090909,4,2,1,70,0,1
65707,-90.9090909090909,4,2,16,70,0,1
65961,-90.9090909090909,4,2,10,70,0,1
66088,-90.9090909090909,4,2,20,70,0,0
66215,-83.3333333333333,4,2,10,70,0,1
66469,-83.3333333333333,4,2,1,70,0,1
66724,-100,4,2,10,70,0,1
66978,-100,4,2,1,70,0,1
67232,-100,4,2,10,70,0,1
67486,-100,4,2,17,70,0,1
67613,-100,4,2,1,70,0,1
67741,-100,4,2,10,70,0,1
67995,-100,4,2,11,70,0,1
68249,-90.9090909090909,4,2,11,70,0,1
68503,-90.9090909090909,4,2,1,70,0,1
68758,-100,4,2,11,70,0,1
69012,-100,4,2,10,70,0,1
69266,-100,4,2,11,70,0,1
69520,-100,4,2,10,70,0,1
69775,-100,4,2,11,70,0,1
70029,-100,4,2,21,70,0,1
70283,-83.3333333333333,4,2,21,70,0,1
70664,-83.3333333333333,4,2,1,70,0,1
70792,-100,4,2,21,70,0,1
71046,-100,4,2,13,70,0,1
71300,-100,4,2,12,70,0,1
71554,-100,4,2,21,70,0,1
72317,-100,4,2,11,70,0,1
72444,-100,4,2,1,70,0,1
72571,-100,4,2,10,70,0,1
72825,-100,4,2,21,70,0,1
73207,-100,4,2,1,70,0,1
73334,-100,4,2,15,70,0,1
73588,-100,4,2,17,70,0,1
73715,-100,4,2,15,70,0,1
73842,-142.857142857143,4,2,19,70,0,1
74351,-83.3333333333333,4,2,10,70,0,1
74605,-83.3333333333333,4,2,1,70,0,1
74859,-100,4,2,10,70,0,1
75114,-100,4,2,1,70,0,1
75368,-100,4,2,10,70,0,1
75622,-100,4,2,17,70,0,1
75749,-100,4,2,1,70,0,1
75876,-100,4,2,10,70,0,1
76131,-100,4,2,11,70,0,1
76385,-90.9090909090909,4,2,11,70,0,1
76639,-90.9090909090909,4,2,1,70,0,1
76893,-100,4,2,11,70,0,1
77147,-100,4,2,10,70,0,1
77402,-100,4,2,11,70,0,1
77656,-100,4,2,10,70,0,1
77910,-100,4,2,11,70,0,1
78164,-100,4,2,21,70,0,1
78292,-100,4,2,1,70,0,1
78419,-83.3333333333333,4,2,21,70,0,1
78673,-83.3333333333333,4,2,1,70,0,1
78927,-100,4,2,21,70,0,1
79181,-100,4,2,13,70,0,1
79436,-100,4,2,12,70,0,1
79690,-100,4,2,21,70,0,1
79944,-90.9090909090909,4,2,21,70,0,1
80325,-90.9090909090909,4,2,1,70,0,1
80452,-250,4,2,69,60,0,0
80707,-250,4,2,68,60,0,0
81469,-250,4,2,68,50,0,0
82486,-250,4,2,69,50,0,0
85537,-250,4,2,4,50,0,0
86554,508.474576271186,4,2,1,40,1,0
86554,-153.846153846154,4,2,1,40,0,0
97867,-153.846153846154,4,2,4,40,0,0
98248,-153.846153846154,4,2,1,40,0,0
98759,508.474576271186,4,2,1,40,1,0
98759,-181.818181818182,4,2,1,40,0,0
99521,-181.818181818182,4,2,4,40,0,0
101047,-181.818181818182,4,2,68,40,0,0
101809,-181.818181818182,4,2,4,40,0,0
102318,-181.818181818182,4,2,68,40,0,0
102572,-181.818181818182,4,2,4,40,0,0
103589,-181.818181818182,4,2,68,40,0,0
104097,-181.818181818182,4,2,4,40,0,0
105623,-181.818181818182,4,2,68,40,0,0
106131,-181.818181818182,4,2,4,40,0,0
106386,-181.818181818182,4,2,68,40,0,0
106894,-181.818181818182,4,2,68,30,0,0
110453,-142.857142857143,4,2,1,40,0,0
110962,-142.857142857143,4,2,1,45,0,0
111979,-125,4,2,1,50,0,0
112487,-111.111111111111,4,2,1,50,0,0
112996,-100,4,2,1,55,0,0
114903,-100,4,2,1,5,0,0
115030,-76.9230769230769,4,2,3,70,0,1
115284,-76.9230769230769,4,2,21,70,0,1
115411,-76.9230769230769,4,2,1,70,0,1
115538,-100,4,2,11,70,0,1
115792,-100,4,2,10,70,0,1
116047,-100,4,2,11,70,0,1
116555,-90.9090909090909,4,2,10,70,0,1
116809,-90.9090909090909,4,2,21,70,0,1
117064,-90.9090909090909,4,2,11,70,0,1
117572,-100,4,2,10,70,0,1
117826,-100,4,2,21,70,0,1
118081,-90.9090909090909,4,2,11,70,0,1
118335,-90.9090909090909,4,2,10,70,0,1
118462,-90.9090909090909,4,2,1,70,0,1
118589,-90.9090909090909,4,2,10,70,0,1
118843,-90.9090909090909,4,2,13,70,0,1
119097,-83.3333333333333,4,2,12,70,0,1
119351,-83.3333333333333,4,2,21,70,0,1
119606,-100,4,2,11,70,0,1
119860,-100,4,2,10,70,0,1
119987,-100,4,2,1,70,0,1
120114,-100,4,2,11,70,0,1
120368,-100,4,2,15,70,0,1
120496,-100,4,2,1,70,0,1
120623,-100,4,2,10,70,0,1
120877,-100,4,2,21,70,0,1
121131,-90.9090909090909,4,2,11,70,0,1
121640,-100,4,2,10,70,0,1
121894,-100,4,2,12,70,0,1
122148,-100,4,2,21,70,0,1
122275,-100,4,2,12,70,0,1
122529,-100,4,2,1,70,0,1
122657,-166.666666666667,4,2,12,70,0,1
123165,-76.9230769230769,4,2,12,70,0,1
123419,-76.9230769230769,4,2,21,70,0,1
123547,-76.9230769230769,4,2,1,70,0,1
123674,-100,4,2,11,70,0,1
123928,-100,4,2,10,70,0,1
124182,-100,4,2,11,70,0,1
124563,-100,4,2,1,70,0,1
124691,-100,4,2,10,70,0,1
124945,-100,4,2,21,70,0,1
125199,-100,4,2,11,70,0,1
125708,-100,4,2,10,70,0,1
125962,-100,4,2,21,70,0,1
126216,-100,4,2,11,70,0,1
126470,-100,4,2,10,70,0,1
126725,-100,4,2,20,70,0,1
126979,-100,4,2,17,70,0,1
127233,-83.3333333333333,4,2,17,70,0,1
127487,-83.3333333333333,4,2,1,70,0,1
127742,-100,4,2,20,70,0,1
127996,-100,4,2,1,70,0,1
128250,-100,4,2,10,70,0,1
128377,-100,4,2,1,70,0,1
128758,-100,4,2,12,70,0,1
129012,-100,4,2,1,70,0,1
129267,-142.857142857143,4,2,12,70,0,1
129775,-111.111111111111,4,2,12,70,0,1
130029,-111.111111111111,4,2,22,70,0,1
130157,-111.111111111111,4,2,21,70,0,1
130284,-90.9090909090909,4,2,11,70,0,1
130538,-90.9090909090909,4,2,1,70,0,1
130792,-90.9090909090909,4,2,16,70,0,1
130877,-90.9090909090909,4,2,1,70,0,1
131047,-90.9090909090909,4,2,10,70,0,1
131131,-90.9090909090909,4,2,1,70,0,1
131174,-90.9090909090909,4,2,1,70,0,0
131301,-76.9230769230769,4,2,10,70,0,1
131555,-76.9230769230769,4,2,1,70,0,1
131809,-90.9090909090909,4,2,10,70,0,1
132318,-100,4,2,10,70,0,1
132572,-100,4,2,17,70,0,1
132826,-100,4,2,10,70,0,1
133081,-100,4,2,11,70,0,1
133335,-90.9090909090909,4,2,11,70,0,1
133589,-90.9090909090909,4,2,1,70,0,1
133843,-100,4,2,11,70,0,1
134097,-100,4,2,10,70,0,1
134352,-100,4,2,11,70,0,1
134606,-100,4,2,10,70,0,1
134860,-100,4,2,11,70,0,1
135114,-100,4,2,21,70,0,1
135241,-100,4,2,1,70,0,1
135369,-83.3333333333333,4,2,21,70,0,1
135877,-100,4,2,21,70,0,1
136131,-100,4,2,13,70,0,1
136386,-100,4,2,12,70,0,1
136640,-100,4,2,21,70,0,1
136767,-100,4,2,1,70,0,1
136894,-100,4,2,21,70,0,1
137275,-100,4,2,1,70,0,1
137403,-100,4,2,11,70,0,1
137657,-100,4,2,10,70,0,1
137911,-100,4,2,21,70,0,1
138165,-100,4,2,1,70,0,1
138420,-100,4,2,15,70,0,1
138547,-100,4,2,1,70,0,1
138674,-100,4,2,15,70,0,1
138928,-125,4,2,19,70,0,1
139436,-83.3333333333333,4,2,10,70,0,1
139690,-83.3333333333333,4,2,1,70,0,1
139945,-100,4,2,10,70,0,1
140199,-100,4,2,1,70,0,1
140453,-100,4,2,10,70,0,1
140708,-100,4,2,17,70,0,1
140962,-100,4,2,10,70,0,1
141089,-100,4,2,1,70,0,1
141216,-100,4,2,11,70,0,1
141470,-90.9090909090909,4,2,11,70,0,1
141724,-90.9090909090909,4,2,1,70,0,1
141979,-100,4,2,11,70,0,1
142233,-100,4,2,10,70,0,1
142487,-100,4,2,11,70,0,1
142742,-100,4,2,10,70,0,1
142996,-100,4,2,11,70,0,1
143250,-100,4,2,21,70,0,1
143377,-100,4,2,1,70,0,1
143504,-83.3333333333333,4,2,21,70,0,1
143758,-83.3333333333333,4,2,1,70,0,1
144013,-100,4,2,21,70,0,1
144267,-100,4,2,13,70,0,1
144521,-100,4,2,12,70,0,1
144775,-100,4,2,21,70,0,1
145411,-100,4,2,1,70,0,1
145538,-100,4,2,1,70,0,0
146555,-100,4,2,1,60,0,0
146809,-111.111111111111,4,2,1,60,0,0
147064,-142.857142857143,4,2,1,60,0,0
147572,-83.3333333333333,4,2,2,60,0,0
147699,-83.3333333333333,4,2,1,60,0,0
147826,-100,4,2,1,60,0,0
151640,-83.3333333333333,4,2,1,60,0,0
152148,-100,4,2,1,60,0,0
153674,-90.9090909090909,4,2,1,60,0,0
154182,-100,4,2,1,60,0,0
155199,-125,4,2,1,60,0,0
155708,-83.3333333333333,4,2,1,60,0,0
156216,-100,4,2,1,60,0,0
157742,-83.3333333333333,4,2,1,60,0,0
158250,-100,4,2,1,60,0,0
159775,-83.3333333333333,4,2,1,60,0,0
160284,-100,4,2,1,60,0,0
161301,-90.9090909090909,4,2,1,60,0,0
161809,-250,4,2,2,60,0,0
163842,-250,4,2,2,30,0,0
163868,508.474576271186,4,2,2,30,1,0
164376,-100,4,2,1,30,0,0
166918,-250,4,2,1,30,0,0
171915,-250,4,2,1,5,0,0
172003,-250,4,2,1,30,0,0
176579,-200,4,2,1,30,0,0
177088,-166.666666666667,4,2,1,30,0,0
177596,-142.857142857143,4,2,1,30,0,0
178081,508.474576271186,4,2,1,30,1,0
179352,-100,4,2,1,40,0,0
179606,-125,4,2,1,50,0,0
180114,508.474576271186,4,2,3,70,1,1
180114,-71.4285714285714,4,2,3,70,0,1
180242,-71.4285714285714,4,2,1,70,0,1
180368,-71.4285714285714,4,2,21,70,0,1
180495,-71.4285714285714,4,2,1,70,0,1
180622,-100,4,2,11,70,0,1
180876,-100,4,2,10,70,0,1
181130,-100,4,2,11,70,0,1
181384,-100,4,2,15,70,0,1
181639,-100,4,2,10,70,0,1
181893,-100,4,2,21,70,0,1
182147,-83.3333333333333,4,2,11,70,0,1
182401,-83.3333333333333,4,2,18,70,0,1
182656,-100,4,2,10,70,0,1
182910,-100,4,2,21,70,0,1
183164,-83.3333333333333,4,2,11,70,0,1
183418,-83.3333333333333,4,2,10,70,0,1
183546,-83.3333333333333,4,2,1,70,0,1
183673,-100,4,2,10,70,0,1
183927,-100,4,2,13,70,0,1
184181,-83.3333333333333,4,2,12,70,0,1
184435,-83.3333333333333,4,2,21,70,0,1
184690,-100,4,2,11,70,0,1
184944,-100,4,2,10,70,0,1
185198,-83.3333333333333,4,2,11,70,0,1
185452,-83.3333333333333,4,2,15,70,0,1
185580,-83.3333333333333,4,2,1,70,0,1
185707,-100,4,2,10,70,0,1
185961,-100,4,2,21,70,0,1
186215,-83.3333333333333,4,2,11,70,0,1
186724,-100,4,2,10,70,0,1
186978,-100,4,2,12,70,0,1
187232,-100,4,2,21,70,0,1
187359,-100,4,2,12,70,0,1
187741,-142.857142857143,4,2,12,70,0,1
188249,-76.923076923077,4,2,12,70,0,1
188503,-76.923076923077,4,2,21,70,0,1
188758,-100,4,2,11,70,0,1
189012,-100,4,2,10,70,0,1
189266,-100,4,2,11,70,0,1
189520,-100,4,2,15,70,0,1
189775,-100,4,2,10,70,0,1
190029,-100,4,2,21,70,0,1
190283,-83.3333333333333,4,2,11,70,0,1
190791,-100,4,2,10,70,0,1
191046,-100,4,2,21,70,0,1
191300,-100,4,2,11,70,0,1
191554,-100,4,2,10,70,0,1
191808,-90.9090909090909,4,2,20,70,0,1
192063,-90.9090909090909,4,2,17,70,0,1
192317,-76.9230769230769,4,2,17,70,0,1
192825,-100,4,2,20,70,0,1
193079,-100,4,2,1,70,0,1
193334,-100,4,2,10,70,0,1
193461,-100,4,2,1,70,0,1
193842,-100,4,2,12,70,0,1
194096,-100,4,2,1,70,0,1
194351,-142.857142857143,4,2,12,70,0,1
194859,-111.111111111111,4,2,12,70,0,1
195113,-111.111111111111,4,2,22,70,0,1
195241,-111.111111111111,4,2,21,70,0,1
195368,-90.9090909090909,4,2,11,70,0,1
195876,-90.9090909090909,4,2,16,70,0,1
196130,-90.9090909090909,4,2,10,70,0,1
196258,-90.9090909090909,4,2,20,70,0,0
196385,-76.9230769230769,4,2,10,70,0,1
196766,-76.9230769230769,4,2,1,70,0,1
196893,-100,4,2,10,70,0,1
197147,-100,4,2,1,70,0,1
197402,-90.9090909090909,4,2,10,70,0,1
197656,-90.9090909090909,4,2,17,70,0,1
197783,-90.9090909090909,4,2,1,70,0,1
197910,-90.9090909090909,4,2,10,70,0,1
198164,-90.9090909090909,4,2,11,70,0,1
198419,-83.3333333333333,4,2,11,70,0,1
198927,-100,4,2,11,70,0,1
199181,-100,4,2,10,70,0,1
199436,-100,4,2,11,70,0,1
199690,-100,4,2,10,70,0,1
199944,-100,4,2,11,70,0,1
200198,-100,4,2,21,70,0,1
200325,-100,4,2,1,70,0,1
200452,-76.9230769230769,4,2,21,70,0,1
200961,-100,4,2,21,70,0,1
201215,-100,4,2,13,70,0,1
201469,-100,4,2,12,70,0,1
201724,-100,4,2,21,70,0,1
201851,-100,4,2,1,70,0,1
201978,-166.666666666667,4,2,1,70,0,1
202486,-100,4,2,11,70,0,1
202741,-100,4,2,10,70,0,1
202995,-100,4,2,21,70,0,1
203376,-100,4,2,1,70,0,1
203503,-100,4,2,15,70,0,1
203630,-100,4,2,1,70,0,1
203758,-100,4,2,15,70,0,1
204012,-125,4,2,19,70,0,1
204520,-76.9230769230769,4,2,10,70,0,1
204902,-76.9230769230769,4,2,1,70,0,1
205029,-90.9090909090909,4,2,10,70,0,1
205283,-90.9090909090909,4,2,1,70,0,1
205537,-90.9090909090909,4,2,10,70,0,1
205791,-90.9090909090909,4,2,17,70,0,1
206046,-90.9090909090909,4,2,10,70,0,1
206173,-90.9090909090909,4,2,1,70,0,1
206300,-90.9090909090909,4,2,11,70,0,1
206427,-90.9090909090909,4,2,1,70,0,1
206554,-76.9230769230769,4,2,11,70,0,1
206936,-76.9230769230769,4,2,1,70,0,1
207063,-90.9090909090909,4,2,11,70,0,1
207317,-90.9090909090909,4,2,10,70,0,1
207571,-90.9090909090909,4,2,11,70,0,1
207825,-90.9090909090909,4,2,10,70,0,1
208080,-90.9090909090909,4,2,11,70,0,1
208334,-90.9090909090909,4,2,21,70,0,1
208461,-90.9090909090909,4,2,1,70,0,1
208588,-76.9230769230769,4,2,21,70,0,1
208969,-76.9230769230769,4,2,1,70,0,1
209097,-90.9090909090909,4,2,21,70,0,1
209351,-90.9090909090909,4,2,13,70,0,1
209605,-90.9090909090909,4,2,12,70,0,1
209859,-90.9090909090909,4,2,21,70,0,1
210113,-166.666666666667,4,2,21,70,0,1
210622,-166.666666666667,4,2,69,60,0,0
211639,-200,4,2,1,50,0,0
212147,-333.333333333333,4,2,1,50,0,0
212656,-333.333333333333,4,2,2,50,0,0
213673,-125,4,2,2,50,0,0
213927,-125,4,2,1,50,0,0
214054,-83.3333333333333,4,2,1,50,0,0
214690,508.474576271186,4,2,3,60,1,0
214690,-83.3333333333333,4,2,3,60,0,0
214944,-83.3333333333333,4,2,1,60,0,0
215198,-100,4,2,1,60,0,0
216723,-90.9090909090909,4,2,1,60,0,0
217232,-100,4,2,1,60,0,0
218757,-90.9090909090909,4,2,1,60,0,0
219266,-100,4,2,1,60,0,0
220791,-83.3333333333333,4,2,1,60,0,0
221300,-100,4,2,1,60,0,0
222825,-90.9090909090909,4,2,1,60,0,0
223334,-100,4,2,1,60,0,0
223588,-125,4,2,1,60,0,0
223842,-100,4,2,1,60,0,0
224859,-83.3333333333333,4,2,1,60,0,0
225367,-100,4,2,1,60,0,0
226893,-83.3333333333333,4,2,1,60,0,0
227401,-100,4,2,1,60,0,0
228927,-250,4,2,1,55,0,0
229944,-125,4,2,1,50,0,0
230961,-200,4,2,2,45,0,0
230994,-200,4,2,1,5,0,0
231215,-200,4,2,20,40,0,0
231469,-200,4,2,10,40,0,0
231502,-200,4,2,1,5,0,0
231723,-200,4,2,12,40,0,0
231978,-200,4,2,20,40,0,0
232232,-200,4,2,10,40,0,0
232265,-200,4,2,1,5,0,0
232486,-200,4,2,12,40,0,0
232740,-200,4,2,20,40,0,0
232995,-200,4,2,10,40,0,0
233028,-200,4,2,1,5,0,0
233249,-200,4,2,12,40,0,0
233503,-200,4,2,20,40,0,0
233757,-200,4,2,10,40,0,0
234012,-200,4,2,12,40,0,0
234266,-200,4,2,14,40,0,0
234520,-200,4,2,15,40,0,0
234774,-200,4,2,19,40,0,0
237062,-200,4,2,2,20,0,0

[Colours]
Combo1 : 255,155,195
Combo2 : 245,255,155
Combo3 : 155,255,215
Combo4 : 165,155,255

[HitObjects]
497,317,1056,5,2,2:0:0:0:
497,317,1124,1,2,2:0:0:0:
497,317,1193,2,0,P|451:306|397:303,1,90.6,2|2,2:0|2:0,2:0:0:0:
285,243,1895,1,2,2:0:0:0:
161,276,2149,6,0,P|215:263|279:259,1,113.25,2|2,2:0|2:0,2:0:0:0:
401,184,2912,1,2,2:0:0:0:
333,53,3166,6,0,P|352:113|381:179,2,135.9,2|2|2,2:0|2:0|2:0,2:0:0:0:
229,63,4182,2,0,P|181:60|122:39,1,90.5999999999998,2|2,2:0|2:0,2:0:0:0:
29,154,4691,2,0,P|77:151|136:130,1,90.5999999999998,2|2,2:0|2:0,2:0:0:0:
266,165,5199,6,0,B|272:237|225:219|233:293,1,135.9,2|2,3:2|2:0,2:0:0:0:
81,334,5962,1,2,2:0:0:0:
89,225,6216,5,2,2:0:0:0:
232,292,6598,1,2,2:0:0:0:
381,358,6979,1,2,2:0:0:0:
389,253,7233,5,2,2:0:0:0:
256,192,7297,12,0,8250,2:0:0:0:
19,55,9267,6,0,P|66:60|107:74,1,75.5,2|0,2:0|2:0,2:0:0:0:
155,130,9648,2,0,P|191:120|228:116,1,75.5,2|0,2:0|2:0,2:0:0:0:
283,49,10029,2,0,B|336:54|336:54|375:83|375:83|425:90,1,151,2|2,2:0|2:0,2:0:0:0:
484,177,10792,1,2,2:0:0:0:
398,238,11046,1,2,2:0:0:0:
300,199,11300,6,0,P|245:214|180:224,2,113.25,2|2|2,2:0|2:0|2:0,2:0:0:0:
456,362,13080,5,2,2:0:0:0:
461,347,13334,6,0,P|446:307|445:250,1,75.5,2|0,3:2|2:0,2:0:0:0:
399,180,13716,2,0,P|371:212|322:242,1,75.5,2|0,2:0|2:0,2:0:0:0:
327,330,14097,2,0,P|266:306|167:315,1,151,2|0,2:0|2:0,2:0:0:0:
79,355,14860,1,2,2:0:0:0:
15,252,15114,1,2,2:0:0:0:
85,152,15368,6,0,P|125:167|173:162,1,75.5,2|0,2:0|2:0,2:0:0:0:
236,214,15750,2,0,P|267:188|283:155,1,75.5,2|0,2:0|2:0,2:0:0:0:
243,78,16131,1,2,2:0:0:0:
510,25,16894,5,2,2:0:0:0:
405,58,17148,1,2,2:0:0:0:
344,149,17402,6,0,P|381:153|418:162,1,75.5,2|0,3:2|2:0,2:0:0:0:
482,242,17783,2,0,P|429:249|357:269,1,113.25,2|0,2:0|2:0,2:0:0:0:
293,348,18419,1,2,2:0:0:0:
21,277,19182,5,2,2:0:0:0:
21,277,19309,1,2,2:0:0:0:
21,277,19436,2,0,P|64:273|114:257,1,75.5,2|0,2:0|2:0,2:0:0:0:
175,311,19817,2,0,P|193:271|203:200,1,113.25,2|2,2:0|2:0,2:0:0:0:
199,188,20326,1,2,2:0:0:0:
191,175,20453,1,2,2:0:0:0:
487,58,21470,6,0,B|390:72,1,98.1499999999999,4|0,1:0|3:0,2:0:0:0:
266,162,21978,2,0,B|363:176,1,98.1499999999999,2|2,2:0|1:2,2:0:0:0:
387,181,22359,1,2,2:0:0:0:
411,186,22486,2,0,P|414:244|380:290,1,98.1499999999999,8|0,3:2|2:0,2:0:0:0:
249,253,22995,2,0,P|246:195|280:149,1,98.1499999999999,2|2,2:0|2:0,2:0:0:0:
276,348,23503,6,0,B|192:367|207:315|113:332,2,147.225,2|0|0,3:2|2:0|1:0,2:0:0:0:
329,218,24520,1,8,2:0:0:0:
329,218,25029,2,0,L|319:162,1,49.0749999999999,2|0,2:0|2:0,2:0:0:0:
379,111,25283,2,0,L|387:62,1,49.0749999999999,2|0,2:0|2:0,2:0:0:0:
278,14,25537,6,0,P|230:28|158:36,1,98.1499999999999,4|0,1:2|2:0,2:0:0:0:
44,108,26046,2,0,P|92:122|164:130,1,98.1499999999999,2|2,2:0|1:2,2:0:0:0:
164,128,26427,1,2,2:0:0:0:
188,124,26554,2,0,P|197:174|153:224,1,98.1499999999999,8|0,2:0|2:0,2:0:0:0:
218,315,27063,1,2,2:0:0:0:
297,234,27317,5,2,2:0:0:0:
297,234,27444,1,2,2:0:0:0:
297,234,27571,2,0,P|288:184|332:134,1,98.1499999999999,2|0,3:2|1:0,2:0:0:0:
394,120,27953,2,0,P|441:137|463:200,1,98.1499999999999,2|0,3:2|2:0,2:0:0:0:
395,265,28334,1,2,1:2:0:0:
327,54,28588,1,8,2:0:0:0:
327,54,29097,5,2,2:0:0:0:
242,92,29351,1,2,2:0:0:0:
394,120,29605,6,0,P|442:113|490:104,1,98.1499999999999,4|0,1:2|2:0,2:0:0:0:
379,202,29986,1,2,2:0:0:0:
365,211,30114,2,0,P|316:204|268:195,1,98.1499999999999,2|0,1:2|1:0,2:0:0:0:
433,282,30622,2,0,P|464:246|466:198,2,98.1499999999999,8|0|0,2:0|2:0|1:0,2:0:0:0:
320,350,31385,1,2,3:2:0:0:
285,339,31512,1,2,3:2:0:0:
259,313,31639,6,0,P|204:309|160:329,1,98.1499999999999,4|0,1:2|2:0,2:0:0:0:
96,277,32020,1,2,2:0:0:0:
87,260,32147,2,0,P|117:214|122:166,1,98.1499999999999,2|0,1:2|1:0,2:0:0:0:
327,165,32656,1,8,2:0:0:0:
201,227,32910,1,0,1:0:0:0:
285,78,33164,5,2,1:2:0:0:
299,73,33292,1,2,1:2:0:0:
313,70,33419,1,2,1:2:0:0:
327,66,33546,1,2,1:2:0:0:
366,81,33673,6,0,P|464:103|519:58,1,166.099999999999,4|2,1:0|2:0,2:0:0:0:
506,189,34436,2,0,P|492:250|484:291,1,83.0499999999995,2|8,1:2|2:0,2:0:0:0:
409,344,34944,1,2,1:2:0:0:
302,323,35198,1,2,2:0:0:0:
273,217,35453,1,2,1:2:0:0:
302,323,35961,5,2,2:0:0:0:
273,217,36215,1,2,2:0:0:0:
341,131,36469,1,0,1:0:0:0:
255,221,36724,6,0,P|211:213|158:206,1,83.0499999999995,8|0,2:0|1:0,2:0:0:0:
20,342,37232,2,0,P|64:334|117:327,1,83.0499999999995,2|0,2:0|2:0,2:0:0:0:
187,368,37614,1,0,2:0:0:0:
199,377,37741,5,2,1:2:0:0:
269,314,37995,1,2,2:0:0:0:
255,221,38249,1,2,2:0:0:0:
283,328,38503,6,0,B|372:295|354:367|451:335,1,166.099999999999,2|0,1:2|1:0,2:0:0:0:
508,247,39266,1,2,2:0:0:0:
454,169,39520,1,2,2:0:0:0:
454,169,39647,1,2,2:0:0:0:
454,169,39775,1,2,1:2:0:0:
479,67,40029,6,0,P|476:104|468:153,1,83.0499999999995,8|2,2:0|2:0,2:0:0:0:
341,100,40537,2,0,P|334:59|330:17,1,83.0499999999995,2|0,1:2|3:0,2:0:0:0:
454,169,41046,1,2,1:2:0:0:
341,197,41300,1,2,3:2:0:0:
228,225,41554,1,2,2:0:0:0:
341,100,41808,5,2,3:2:0:0:
86,41,43842,5,2,2:0:0:0:
180,177,44605,1,2,2:0:0:0:
158,341,45368,1,2,2:0:0:0:
432,201,45876,5,2,1:0:0:0:
295,271,46131,1,2,3:2:0:0:
440,209,46385,5,2,1:2:0:0:
253,105,46639,1,2,3:2:0:0:
448,217,46893,6,0,P|481:208|511:205,1,60.4,2|0,1:2|2:0,2:0:0:0:
295,271,47147,2,0,P|262:262|232:259,1,60.4,2|0,1:2|2:0,2:0:0:0:
395,309,47402,6,0,P|419:333|439:362,1,67.9500000000001,2|0,3:2|2:0,2:0:0:0:
275,168,47656,2,0,P|264:129|251:102,1,67.9500000000001,2|0,3:2|2:0,2:0:0:0:
221,354,47910,6,0,P|148:289|146:232,1,151,2|0,1:0|2:0,2:0:0:0:
295,271,48292,2,0,P|368:206|370:149,1,151,2|0,1:0|2:0,2:0:0:0:
275,14,48673,1,4,1:0:0:0:
256,192,48736,12,0,49859,2:0:0:0:
74,333,49944,6,0,P|168:276|239:298,1,181.2,4|2,1:2|2:0,2:0:0:0:
167,368,50325,1,2,1:2:0:0:
35,252,50453,6,0,P|33:215|14:183,1,75.5,10|0,2:0|2:0,2:0:0:0:
206,198,50707,2,0,P|187:165|185:128,1,75.5,2|0,3:2|2:0,2:0:0:0:
1,86,50961,2,0,P|75:86|138:38,1,151,2|2,1:2|2:0,2:0:0:0:
266,140,51469,6,0,P|311:147|342:163,1,75.5,10|0,2:0|2:0,2:0:0:0:
431,303,51724,2,0,P|447:269|452:232,1,75.5,2|0,1:2|2:0,2:0:0:0:
483,147,51978,6,0,B|407:123|421:181|328:158,1,151,2|2,1:2|2:0,2:0:0:0:
271,52,52359,1,0,1:0:0:0:
351,11,52486,2,0,P|355:51|370:90,1,75.5,10|0,2:0|2:0,2:0:0:0:
330,242,52741,2,0,P|342:278|346:316,1,75.5,2|0,3:2|2:0,2:0:0:0:
255,197,52995,6,0,P|181:200|126:149,1,151,2|2,1:2|1:2,2:0:0:0:
128,0,53376,1,2,1:2:0:0:
42,122,53503,2,0,P|115:125|170:75,1,151,10|2,2:0|2:0,2:0:0:0:
255,197,54012,6,0,P|282:281|216:355,1,181.2,6|2,1:2|2:0,2:0:0:0:
359,313,54393,1,0,1:0:0:0:
363,165,54520,6,0,P|357:196|374:238,1,75.5,10|0,2:0|2:0,2:0:0:0:
469,220,54775,2,0,P|473:182|458:148,1,75.5,2|0,3:2|2:0,2:0:0:0:
469,62,55029,2,0,B|429:59|401:84|401:84|368:66|326:82,1,151,2|2,1:2|2:0,2:0:0:0:
265,147,55410,1,2,2:0:0:0:
205,13,55537,6,0,P|199:50|197:92,1,75.5,10|0,2:0|2:0,2:0:0:0:
86,167,55792,2,0,P|84:129|77:92,1,75.5,2|0,1:2|2:0,2:0:0:0:
38,242,56046,6,0,P|117:250|172:191,1,166.1,2|2,1:2|2:0,2:0:0:0:
86,167,56427,1,2,1:2:0:0:
204,286,56554,6,0,P|246:300|288:298,1,75.5,10|0,2:0|2:0,2:0:0:0:
310,159,56808,2,0,P|275:187|254:227,1,75.5,2|0,3:2|2:0,2:0:0:0:
344,244,57063,5,2,1:2:0:0:
172,191,57190,2,0,P|207:125|266:78,1,151,2|0,2:0|2:0,2:0:0:0:
430,102,57571,6,0,B|354:110|378:148|299:161,1,135.9,10|0,2:0|2:0,2:0:0:0:
204,286,58080,6,0,B|306:300|272:351|382:371,1,181.2,6|2,1:2|2:0,2:0:0:0:
431,316,58461,1,0,1:0:0:0:
262,351,58588,6,0,P|229:372|192:374,1,75.5,10|0,2:0|2:0,2:0:0:0:
186,200,58842,2,0,P|221:199|257:217,1,75.5,2|0,3:2|2:0,2:0:0:0:
109,356,59097,2,0,P|74:279|118:217,1,151,2|2,1:2|2:0,2:0:0:0:
168,130,59478,1,2,2:0:0:0:
18,54,59605,6,0,P|57:73|101:73,1,75.5,10|0,2:0|2:0,2:0:0:0:
168,130,59859,2,0,P|207:111|251:111,1,75.5,2|0,1:2|2:0,2:0:0:0:
295,28,60114,6,0,P|345:95|328:155,1,151,2|2,1:2|2:0,2:0:0:0:
271,229,60495,1,2,1:2:0:0:
168,130,60622,2,0,P|174:173|184:220,1,75.5,10|0,2:0|2:0,2:0:0:0:
155,288,60876,2,0,P|197:305|239:321,1,75.5,2|0,3:2|2:0,2:0:0:0:
400,300,61131,6,0,B|321:286|354:245|262:227,1,151,2|2,1:2|2:0,2:0:0:0:
328,154,61512,1,0,2:0:0:0:
389,93,61639,2,0,P|425:103|463:105,1,75.5,10|0,2:0|2:0,2:0:0:0:
478,230,61893,2,0,P|441:219|404:217,1,75.5,2|0,1:2|2:0,2:0:0:0:
309,76,62147,6,0,B|255:67|255:67|204:92|204:92|150:84,1,166.1,6|2,1:2|2:0,2:0:0:0:
84,8,62529,1,0,1:0:0:0:
0,123,62656,2,0,B|86:130|57:180|138:188,1,151,10|2,2:0|3:2,2:0:0:0:
238,320,63164,5,2,1:2:0:0:
164,373,63292,1,2,2:0:0:0:
75,358,63419,2,0,L|55:264,1,75.5,2|0,2:0|2:0,2:0:0:0:
183,123,63673,2,0,P|163:188|152:304,1,151,10|0,2:0|1:0,2:0:0:0:
354,39,64181,6,0,P|299:34|254:53,1,105.7,6|2,1:2|2:0,2:0:0:0:
183,123,64563,1,0,1:0:0:0:
345,164,64690,6,0,P|318:117|301:169,1,135.9,8|2,2:0|2:0,2:0:0:0:
332,246,65071,1,2,1:2:0:0:
512,216,65198,6,0,P|467:212|425:188,1,83.05,6|0,1:2|2:0,2:0:0:0:
308,334,65453,2,0,P|354:333|396:310,1,83.05,8|2,2:0|1:2,2:0:0:0:
218,245,65707,6,0,P|173:241|131:217,1,83.05,10|0,2:0|2:0,2:0:0:0:
8,149,65961,1,2,1:2:0:0:
45,53,66088,1,10,2:0:0:0:
147,32,66215,6,0,B|206:6|244:53|241:55|238:57|260:99|304:99,1,181.2,6|2,1:2|2:0,2:0:0:0:
347,174,66597,1,0,1:0:0:0:
218,245,66724,2,0,P|176:217|173:114,1,151,10|2,2:0|3:2,2:0:0:0:
421,160,67232,6,0,P|379:169|326:175,1,75.5,2|0,1:2|2:0,2:0:0:0:
369,286,67486,2,0,P|405:277|443:272,1,75.5,2|2,2:0|2:0,2:0:0:0:
218,245,67741,6,0,P|204:285|183:334,1,75.5,10|0,2:0|2:0,2:0:0:0:
336,374,67995,2,0,P|347:338|361:303,1,75.5,2|0,1:2|2:0,2:0:0:0:
269,175,68249,6,0,P|204:159|134:225,1,166.1,2|2,1:2|2:0,2:0:0:0:
118,312,68631,1,0,1:0:0:0:
218,245,68758,6,0,P|227:280|203:318,1,75.5,10|0,2:0|2:0,2:0:0:0:
37,276,69012,2,0,P|28:240|45:207,1,75.5,2|0,3:2|2:0,2:0:0:0:
29,109,69266,6,0,B|132:133,1,75.5,2|0,1:2|2:0,2:0:0:0:
190,74,69520,2,0,B|293:50,1,75.5,2|0,2:0|2:0,2:0:0:0:
420,73,69775,6,0,P|406:25|401:-23,1,75.5,10|0,2:0|2:0,2:0:0:0:
330,127,70029,2,0,P|323:164|312:200,1,75.5,2|0,1:2|1:0,2:0:0:0:
482,234,70283,6,0,B|433:215|388:239|388:239|359:292|285:279,1,181.2,6|0,1:2|2:0,2:0:0:0:
444,311,70664,1,2,1:2:0:0:
237,243,70792,6,0,P|201:248|158:258,1,75.5,10|0,2:0|2:0,2:0:0:0:
133,159,71046,2,0,P|169:154|212:144,1,75.5,2|0,3:2|2:0,2:0:0:0:
320,281,71300,6,0,B|387:280|375:215|468:229,1,151,2|2,1:2|1:2,2:0:0:0:
444,311,71681,1,0,2:0:0:0:
314,202,71808,2,0,P|322:126|301:44,1,151,10|0,2:0|1:0,2:0:0:0:
138,70,72317,6,0,P|100:73|63:78,1,75.5,2|2,1:2|2:0,2:0:0:0:
230,46,72571,2,0,P|267:50|305:53,1,75.5,2|0,2:0|1:0,2:0:0:0:
231,154,72825,2,0,P|156:164|80:171,1,151,10|0,2:0|3:0,2:0:0:0:
11,230,73207,1,2,2:0:0:0:
76,342,73334,6,0,P|84:305|92:257,1,75.5,2|0,1:2|1:0,2:0:0:0:
159,197,73588,1,10,2:0:0:0:
251,232,73715,1,2,1:2:0:0:
314,160,73842,6,0,B|390:151|377:95|459:84,1,158.55,14|0,2:0|2:0,2:0:0:0:
501,261,74351,6,0,B|538:204|500:158|500:158|450:162|434:202,1,181.2,6|2,1:2|2:0,2:0:0:0:
383,265,74732,1,2,1:2:0:0:
244,222,74859,6,0,P|285:218|324:201,1,75.5,10|0,2:0|2:0,2:0:0:0:
240,336,75114,2,0,P|199:332|160:315,1,75.5,2|0,3:2|2:0,2:0:0:0:
104,249,75368,6,0,P|162:186|182:116,1,151,2|2,1:2|1:2,2:0:0:0:
133,41,75749,1,2,1:2:0:0:
13,127,75876,6,0,P|51:151|105:153,1,75.5,10|0,2:0|2:0,2:0:0:0:
194,109,76131,2,0,P|224:87|261:80,1,75.5,2|0,1:2|2:0,2:0:0:0:
379,113,76385,2,0,P|410:47|339:20,1,166.1,2|2,1:2|2:0,2:0:0:0:
273,250,76893,6,0,P|269:207|258:165,1,75.5,10|0,2:0|2:0,2:0:0:0:
325,331,77147,2,0,P|288:335|250:343,1,75.5,2|0,3:2|2:0,2:0:0:0:
350,209,77402,2,0,P|392:206|435:194,1,75.5,2|0,1:2|2:0,2:0:0:0:
411,292,77656,2,0,P|416:333|423:366,1,75.5,2|0,1:2|2:0,2:0:0:0:
512,211,77910,6,0,P|508:171|498:138,1,75.5,10|0,2:0|2:0,2:0:0:0:
373,28,78164,1,2,1:2:0:0:
296,78,78292,1,2,1:2:0:0:
209,54,78419,6,0,B|157:27|82:34|82:34|73:68|42:87,1,181.2,6|2,1:2|2:0,2:0:0:0:
6,142,78800,1,2,1:2:0:0:
141,199,78927,6,0,P|148:160|125:128,1,75.5,10|0,2:0|2:0,2:0:0:0:
5,166,79181,2,0,P|-2:205|21:237,1,75.5,2|0,3:2|2:0,2:0:0:0:
117,301,79436,2,0,B|198:274|192:318|275:293,1,151,2|2,1:2|1:2,2:0:0:0:
343,269,79817,1,0,2:0:0:0:
240,369,79944,6,0,P|188:301|226:228,1,166.1,10|0,2:0|1:0,2:0:0:0:
290,170,80325,1,2,1:2:0:0:
212,62,80453,6,0,L|202:-2,2,60.4,2|2|2,2:0|2:0|2:0,2:0:0:0:
290,170,81469,6,0,L|349:179,1,60.4,2|0,2:0|2:0,2:0:0:0:
425,192,81978,1,2,2:0:0:0:
503,205,82232,1,2,2:0:0:0:
349,179,82486,5,2,2:0:0:0:
256,192,82614,12,2,85537,2:0:0:0:
0,346,86554,6,0,P|55:339|107:326,1,98.1499999999999,2|2,1:2|2:0,2:0:0:0:
162,251,87062,2,0,P|210:256|258:267,1,98.1499999999999,0|0,1:0|2:0,2:0:0:0:
278,271,87443,1,2,2:0:0:0:
297,275,87570,2,0,P|316:226|306:179,1,98.1499999999999,0|0,1:0|2:0,2:0:0:0:
260,84,88079,1,2,1:2:0:0:
349,14,88333,1,2,2:0:0:0:
435,87,88587,6,0,B|421:166|475:141|459:237,2,147.225,2|2|2,1:2|2:0|2:0,2:0:0:0:
349,14,89604,1,2,1:2:0:0:
267,91,89859,5,2,2:0:0:0:
267,91,89986,1,2,2:0:0:0:
267,91,90113,1,2,1:2:0:0:
171,29,90367,5,2,2:0:0:0:
171,29,90494,1,2,2:0:0:0:
171,29,90621,1,2,1:2:0:0:
77,91,90876,6,0,P|61:134|71:197,1,98.1499999999999,2|2,2:0|1:2,2:0:0:0:
112,284,91384,1,0,2:0:0:0:
112,284,91511,1,2,2:0:0:0:
112,284,91638,2,0,P|128:327|118:390,1,98.1499999999999,2|0,1:2|2:0,2:0:0:0:
251,347,92147,2,0,P|235:304|245:241,1,98.1499999999999,2|2,1:2|2:0,2:0:0:0:
345,288,92655,6,0,P|393:280|441:270,1,98.1499999999999,2|0,1:2|2:0,2:0:0:0:
492,197,93037,2,0,P|502:148|510:100,1,98.1499999999999,2|0,2:0|2:0,2:0:0:0:
422,81,93418,2,0,P|411:129|403:177,1,98.1499999999999,2|2,2:0|1:2,2:0:0:0:
352,295,93926,1,2,2:0:0:0:
352,295,94054,1,2,2:0:0:0:
352,295,94181,1,2,1:2:0:0:
253,241,94435,1,2,2:0:0:0:
171,321,94689,6,0,P|113:330|51:342,1,98.1499999999999,2|0,1:2|2:0,2:0:0:0:
30,265,95070,2,0,P|25:216|-5:168,1,98.1499999999999,2|2,2:0|2:0,2:0:0:0:
71,60,95579,1,2,2:0:0:0:
71,60,95706,2,0,P|76:109|106:157,2,98.1499999999999,2|0|2,1:2|2:0|1:2,2:0:0:0:
183,73,96469,5,2,2:0:0:0:
206,66,96596,1,2,2:0:0:0:
231,58,96723,2,0,P|286:74|339:76,1,98.1499999999999,2|0,1:2|2:0,2:0:0:0:
387,132,97104,2,0,P|435:127|482:113,2,98.1499999999999,2|2|2,2:0|2:0|2:0,2:0:0:0:
326,76,97740,1,8,2:0:0:0:
267,158,97867,6,0,L|262:138,6,16.3583333333333,0|0|0|0|0|0|0,3:0|3:0|3:0|3:0|3:0|3:0|3:0,2:0:0:0:
281,168,98248,5,10,1:2:0:0:
387,132,98503,1,8,3:0:0:0:
442,281,98759,6,0,B|353:278|376:338|289:347,1,166.1,4|2,1:0|2:0,2:0:0:0:
185,369,99521,2,0,P|168:333|176:284,1,83.0499999999999,2|8,1:2|2:0,2:0:0:0:
205,186,100030,1,2,1:2:0:0:
94,169,100284,1,2,2:0:0:0:
16,250,100538,1,2,1:2:0:0:
94,169,101047,5,2,2:0:0:0:
16,250,101301,1,2,2:0:0:0:
205,186,101555,1,2,1:2:0:0:
87,153,101809,6,0,P|62:97|48:75,1,83.0499999999999,8|2,2:0|1:2,2:0:0:0:
119,21,102191,1,2,1:2:0:0:
134,28,102318,2,0,P|159:84|173:106,1,83.0499999999999,2|2,1:2|2:0,2:0:0:0:
205,186,102699,5,2,2:0:0:0:
219,195,102826,2,0,P|264:178|311:167,2,83.0499999999999,2|0|2,1:2|2:0|2:0,2:0:0:0:
182,299,103589,2,0,P|229:340|344:318,1,166.1,2|2,1:2|2:0,2:0:0:0:
431,303,104352,2,0,P|433:247|442:211,1,83.0499999999999,2|2,2:0|1:2,2:0:0:0:
507,160,104733,1,2,1:2:0:0:
496,147,104860,2,0,P|488:106|488:64,1,83.0499999999999,2|8,1:2|2:0,2:0:0:0:
405,5,105369,1,2,2:0:0:0:
329,86,105623,6,0,P|249:98|148:117,1,166.1,2|2,1:2|3:2,2:0:0:0:
75,177,106386,5,2,2:0:0:0:
69,197,106513,1,2,2:0:0:0:
63,217,106640,1,2,2:0:0:0:
126,335,106894,5,2,2:0:0:0:
126,335,107007,1,2,2:0:0:0:
428,370,108928,5,2,2:0:0:0:
295,221,109691,5,2,2:0:0:0:
368,13,110453,6,0,L|376:56,2,35.2333333333333,2|2|2,2:0|2:0|2:0,2:0:0:0:
458,78,110708,2,0,L|450:121,2,35.2333333333333,2|2|2,2:0|2:0|2:0,2:0:0:0:
383,170,110962,5,4,1:0:0:0:
216,19,111216,1,2,3:2:0:0:
142,157,111470,5,2,1:2:0:0:
287,92,111725,1,2,3:2:0:0:
66,28,111979,6,0,P|75:62|83:103,1,60.4,2|0,1:2|2:0,2:0:0:0:
148,171,112233,2,0,P|139:205|131:246,1,60.4,2|0,3:2|2:0,2:0:0:0:
302,25,112487,6,0,P|293:59|284:109,1,67.9500000000001,2|0,1:2|2:0,2:0:0:0:
234,210,112742,2,0,P|243:244|253:293,1,67.9500000000001,2|0,3:2|2:0,2:0:0:0:
116,329,112996,6,0,P|49:276|49:187,1,151,2|0,1:0|2:0,2:0:0:0:
269,377,113377,2,0,P|336:324|336:235,1,151,2|0,1:0|2:0,2:0:0:0:
216,126,113758,1,4,1:0:0:0:
256,192,113886,12,0,114903,2:0:0:0:
484,106,115030,6,0,B|407:108|389:171|389:171|436:204|410:278,1,196.3,6|2,1:2|2:0,2:0:0:0:
380,320,115411,1,2,1:2:0:0:
260,266,115538,6,0,P|287:249|348:244,1,75.5,10|0,2:0|2:0,2:0:0:0:
360,340,115792,2,0,P|333:357|272:362,1,75.5,2|0,3:2|2:0,2:0:0:0:
186,334,116047,2,0,B|121:231|214:216|147:106,1,226.5,2|0,1:2|2:0,2:0:0:0:
30,143,116555,6,0,P|56:179|117:192,1,83.05,10|0,2:0|2:0,2:0:0:0:
199,215,116809,2,0,P|236:231|259:265,1,83.05,2|0,1:2|2:0,2:0:0:0:
360,340,117064,6,0,P|420:298|364:147,1,249.15,2|0,1:2|2:0,2:0:0:0:
269,45,117572,2,0,P|277:82|305:107,1,75.5,10|0,2:0|2:0,2:0:0:0:
380,66,117826,2,0,P|371:28|343:3,1,75.5,2|0,3:2|2:0,2:0:0:0:
218,148,118081,6,0,B|131:166|149:101|56:119,1,166.1,2|2,1:2|1:2,2:0:0:0:
9,180,118462,1,2,1:2:0:0:
186,71,118589,2,0,B|107:116|163:154|86:196,1,166.1,10|2,2:0|2:0,2:0:0:0:
309,160,119097,6,0,B|346:217|308:263|308:263|267:262|244:221,1,181.2,6|2,1:2|2:0,2:0:0:0:
218,148,119479,1,0,1:0:0:0:
154,275,119606,6,0,P|116:281|76:293,1,75.5,10|0,2:0|2:0,2:0:0:0:
192,368,119860,2,0,P|230:374|270:386,1,75.5,2|2,3:2|2:0,2:0:0:0:
358,332,120114,2,0,B|435:310|400:279|495:248,1,151,2|2,1:2|2:0,2:0:0:0:
495,169,120496,1,2,2:0:0:0:
381,114,120623,6,0,P|388:156|407:184,1,75.5,10|0,2:0|2:0,2:0:0:0:
500,149,120877,2,0,P|493:107|474:79,1,75.5,2|0,1:2|2:0,2:0:0:0:
349,22,121131,6,0,B|265:54|318:95|218:130,1,166.1,2|0,1:2|2:0,2:0:0:0:
139,162,121513,1,2,1:2:0:0:
70,20,121640,6,0,P|108:34|146:40,1,75.5,10|0,2:0|2:0,2:0:0:0:
124,179,121894,2,0,P|86:165|48:159,1,75.5,2|0,3:2|2:0,2:0:0:0:
0,83,122148,5,2,1:2:0:0:
79,249,122275,2,0,P|139:302|213:279,1,151,2|2,2:0|1:2,2:0:0:0:
284,152,122657,6,0,P|351:146|367:212,1,135.9,10|0,2:0|1:2,2:0:0:0:
406,347,123165,6,0,B|363:402|293:386|261:332|301:286|337:291,1,196.3,6|2,1:2|2:0,2:0:0:0:
380,221,123547,1,2,1:2:0:0:
266,336,123674,6,0,P|229:341|195:357,1,75.5,10|0,2:0|2:0,2:0:0:0:
164,246,123928,2,0,P|201:240|235:224,1,75.5,2|0,3:2|2:0,2:0:0:0:
334,138,124182,6,0,B|379:88|336:35|336:35|266:34|257:96,1,226.5,2|2,1:2|2:0,2:0:0:0:
235,223,124691,2,0,P|263:249|308:259,1,75.5,10|0,2:0|2:0,2:0:0:0:
380,301,124945,2,0,P|415:290|443:264,1,75.5,2|0,1:2|2:0,2:0:0:0:
303,350,125199,6,0,P|228:333|167:284,1,151,2|0,1:2|2:0,2:0:0:0:
117,234,125581,1,2,1:2:0:0:
235,223,125708,6,0,P|223:184|215:140,1,75.5,10|0,2:0|2:0,2:0:0:0:
94,144,125962,2,0,P|106:183|114:227,1,75.5,2|0,3:2|2:0,2:0:0:0:
169,20,126216,6,0,P|129:10|87:-4,1,75.5,2|0,1:2|2:0,2:0:0:0:
21,123,126470,2,0,P|60:132|102:147,1,75.5,2|0,2:0|2:0,2:0:0:0:
299,107,126725,6,0,B|283:63|327:26|327:26|327:64|355:88,1,151,10|2,2:0|1:2,2:0:0:0:
356,163,127106,1,0,2:0:0:0:
407,30,127233,6,0,P|323:58|226:72,1,181.2,6|2,1:2|2:0,2:0:0:0:
153,39,127614,1,2,1:2:0:0:
138,181,127742,2,0,B|120:128|120:128|86:105|86:105|68:54,1,151,10|2,2:0|3:2,2:0:0:0:
188,342,128250,5,2,1:2:0:0:
102,371,128377,1,2,2:0:0:0:
31,315,128504,2,0,P|25:279|46:248,1,75.5,2|0,2:0|2:0,2:0:0:0:
197,252,128758,6,0,B|275:264|242:312|324:322,1,151,10|2,2:0|1:2,2:0:0:0:
410,351,129140,1,2,1:2:0:0:
328,233,129267,6,0,P|316:173|298:117,1,105.7,6|0,1:2|2:0,2:0:0:0:
230,78,129648,1,0,2:0:0:0:
371,75,129775,6,0,P|355:125|338:211,1,135.9,8|2,2:0|1:2,2:0:0:0:
240,244,130157,1,2,1:2:0:0:
97,118,130284,6,0,P|136:67|229:77,1,166.1,2|10,1:2|2:0,2:0:0:0:
39,178,130665,1,2,1:2:0:0:
146,216,130792,5,10,2:0:0:0:
160,207,130877,2,0,P|169:180|178:149,1,55.3666666666667,2|2,2:0|2:0,2:0:0:0:
81,288,131047,5,2,2:0:0:0:
95,297,131131,2,0,P|104:324|113:355,1,55.3666666666667,2|2,2:0|2:0,2:0:0:0:
241,345,131301,6,0,B|342:332|299:269|424:254,1,196.3,6|2,1:2|2:0,2:0:0:0:
496,266,131682,1,2,1:2:0:0:
393,346,131809,2,0,P|323:302|253:257,1,166.1,10|0,2:0|3:0,2:0:0:0:
234,49,132318,6,0,P|268:31|305:28,1,75.5,2|0,1:2|2:0,2:0:0:0:
410,84,132572,2,0,P|443:101|480:104,1,75.5,2|0,2:0|2:0,2:0:0:0:
311,187,132826,6,0,P|299:144|289:105,1,75.5,10|0,2:0|2:0,2:0:0:0:
429,183,133081,2,0,P|418:219|409:255,1,75.5,2|0,1:2|2:0,2:0:0:0:
303,343,133335,6,0,P|199:316|180:252,1,166.1,2|2,1:2|2:0,2:0:0:0:
210,190,133716,1,2,1:2:0:0:
102,125,133843,6,0,P|100:173|123:200,1,75.5,10|0,2:0|2:0,2:0:0:0:
211,173,134097,2,0,P|213:125|190:98,1,75.5,2|0,3:2|2:0,2:0:0:0:
64,45,134352,2,0,B|102:26|137:44|137:44|170:17|219:22,1,151,2|2,1:2|2:0,2:0:0:0:
400,92,134860,6,0,P|405:131|414:171,1,75.5,10|0,2:0|2:0,2:0:0:0:
496,218,135114,2,0,P|464:241|434:269,1,75.5,2|2,1:2|1:2,2:0:0:0:
311,361,135369,6,0,P|230:325|136:295,1,181.2,6|0,1:2|2:0,2:0:0:0:
67,329,135750,1,2,1:2:0:0:
222,286,135877,6,0,P|262:275|295:270,1,75.5,10|0,2:0|2:0,2:0:0:0:
265,157,136131,2,0,P|225:168|192:173,1,75.5,2|0,3:2|2:0,2:0:0:0:
89,71,136386,6,0,P|89:31|105:-2,1,75.5,2|0,1:2|2:0,2:0:0:0:
221,16,136640,2,0,P|221:56|205:89,1,75.5,2|2,2:0|2:0,2:0:0:0:
99,193,136894,6,0,B|37:246|67:330|67:330|25:329|8:285,1,226.5,10|2,2:0|1:2,2:0:0:0:
170,281,137403,6,0,P|209:270|248:268,1,75.5,2|0,1:2|2:0,2:0:0:0:
334,333,137657,2,0,P|373:344|412:346,1,75.5,2|0,2:0|2:0,2:0:0:0:
500,237,137911,2,0,P|459:167|388:170,1,151,10|2,2:0|3:2,2:0:0:0:
331,220,138292,1,2,2:0:0:0:
250,100,138420,6,0,P|247:139|237:176,1,75.5,2|2,1:2|1:2,2:0:0:0:
153,236,138674,1,10,2:0:0:0:
60,187,138801,1,2,1:2:0:0:
8,279,138928,6,0,B|99:254|85:347|186:321,1,181.2,10|0,2:0|2:0,2:0:0:0:
33,360,139436,6,0,B|125:338|69:262|161:233,1,181.2,6|2,1:2|2:0,2:0:0:0:
237,270,139818,1,2,1:2:0:0:
205,113,139945,2,0,B|203:197|252:168|247:255,1,151,10|2,2:0|3:2,2:0:0:0:
313,334,140326,1,2,2:0:0:0:
406,219,140453,6,0,P|372:226|327:232,1,75.5,2|0,1:2|2:0,2:0:0:0:
333,331,140708,2,0,P|367:324|412:318,1,75.5,2|0,2:0|2:0,2:0:0:0:
498,230,140962,6,0,P|499:192|483:158,1,75.5,10|2,2:0|2:0,2:0:0:0:
499,73,141216,2,0,P|467:53|429:50,1,75.5,2|0,1:2|2:0,2:0:0:0:
310,140,141470,6,0,B|221:150|235:104|136:122,1,166.1,6|2,1:2|2:0,2:0:0:0:
65,165,141852,1,2,1:2:0:0:
175,209,141979,6,0,P|164:245|159:283,1,75.5,10|0,2:0|2:0,2:0:0:0:
43,258,142233,2,0,P|54:222|61:185,1,75.5,2|0,3:2|2:0,2:0:0:0:
128,47,142487,6,0,P|164:38|200:26,1,75.5,2|0,1:2|2:0,2:0:0:0:
310,140,142742,2,0,P|273:148|237:161,1,75.5,2|0,2:0|2:0,2:0:0:0:
324,11,142996,6,0,P|349:37|378:62,1,75.5,10|0,2:0|2:0,2:0:0:0:
488,174,143250,1,2,1:2:0:0:
440,261,143377,1,2,1:2:0:0:
342,249,143504,6,0,P|240:270|202:352,1,181.2,6|2,1:2|2:0,2:0:0:0:
279,383,143886,1,2,1:2:0:0:
336,228,144013,6,0,P|320:185|306:133,1,75.5,10|0,2:0|2:0,2:0:0:0:
189,186,144267,2,0,P|205:229|219:281,1,75.5,2|0,3:2|2:0,2:0:0:0:
119,350,144521,6,0,P|73:342|21:328,1,75.5,2|0,1:2|2:0,2:0:0:0:
11,207,144775,2,0,P|40:171|78:133,1,75.5,2|0,2:0|2:0,2:0:0:0:
239,78,145030,6,0,P|204:27|46:63,1,226.5,10|2,2:0|2:0,2:0:0:0:
139,113,145538,1,2,2:0:0:0:
484,215,146555,5,0,3:0:0:0:
484,215,146682,1,0,3:0:0:0:
484,215,146809,2,0,P|447:224|408:234,1,67.9500000000001,0|0,2:0|3:0,2:0:0:0:
366,366,147064,6,0,B|368:283|320:302|325:215,1,158.55,0|0,3:0|2:0,2:0:0:0:
388,120,147572,6,0,P|338:115|300:100,1,90.6,4|2,1:2|2:0,2:0:0:0:
241,33,147826,2,0,B|157:52|193:94|96:117,1,151,2|10,2:0|2:0,2:0:0:0:
52,174,148208,1,2,2:0:0:0:
104,246,148335,1,2,2:0:0:0:
350,289,148589,6,0,P|346:326|330:360,1,75.5,2|0,1:2|2:0,2:0:0:0:
225,326,148843,2,0,P|228:288|244:254,1,75.5,2|0,3:2|2:0,2:0:0:0:
303,124,149097,6,0,P|335:105|372:103,1,75.5,8|0,2:0|2:0,2:0:0:0:
393,183,149352,2,0,P|361:202|324:204,1,75.5,2|0,2:0|2:0,2:0:0:0:
218,142,149606,6,0,P|186:123|149:121,1,75.5,2|0,1:2|2:0,2:0:0:0:
57,178,149860,2,0,P|80:259|93:329,1,151,2|10,2:0|2:0,2:0:0:0:
162,383,150242,1,2,2:0:0:0:
239,341,150369,1,2,2:0:0:0:
218,142,150623,6,0,P|258:135|301:124,1,75.5,2|0,1:2|2:0,2:0:0:0:
398,233,150877,2,0,P|358:226|315:215,1,75.5,2|0,3:2|2:0,2:0:0:0:
386,72,151131,6,0,P|393:112|404:155,1,75.5,8|0,2:0|2:0,2:0:0:0:
500,129,151386,2,0,P|493:89|482:46,1,75.5,2|0,2:0|2:0,2:0:0:0:
398,233,151640,6,0,B|307:247|328:307|224:319,1,181.2,4|2,1:0|2:0,2:0:0:0:
170,274,152021,1,0,2:0:0:0:
213,158,152148,6,0,P|236:188|241:229,1,75.5,10|0,2:0|2:0,2:0:0:0:
153,287,152403,2,0,P|115:291|77:275,1,75.5,2|0,2:0|2:0,2:0:0:0:
71,170,152657,2,0,P|85:135|118:110,1,75.5,2|0,1:2|2:0,2:0:0:0:
267,32,152911,6,0,P|231:40|192:43,1,75.5,2|0,3:2|2:0,2:0:0:0:
213,158,153165,2,0,P|249:150|287:146,1,75.5,8|0,2:0|2:0,2:0:0:0:
364,204,153420,1,2,2:0:0:0:
454,174,153547,1,0,2:0:0:0:
496,41,153674,6,0,P|424:102|442:162,1,166.1,4|0,1:0|2:0,2:0:0:0:
501,239,154055,1,0,1:0:0:0:
430,307,154182,2,0,B|339:296|365:352|271:340,1,151,8|2,2:0|3:2,2:0:0:0:
32,245,154691,6,0,P|71:241|107:234,1,75.5,2|0,1:2|2:0,2:0:0:0:
177,352,154945,2,0,P|139:344|102:341,1,75.5,2|0,2:0|2:0,2:0:0:0:
209,245,155199,6,0,B|211:149|156:171|162:72,1,181.2,8|2,2:0|2:0,2:0:0:0:
272,94,155708,6,0,B|372:105|323:153|451:173,1,181.2,4|0,1:0|2:0,2:0:0:0:
506,122,156089,1,0,1:0:0:0:
348,167,156216,6,0,P|304:178|262:199,1,75.5,8|0,2:0|2:0,2:0:0:0:
309,290,156470,2,0,P|345:281|380:266,1,75.5,0|0,3:0|2:0,2:0:0:0:
435,200,156725,1,0,1:0:0:0:
208,349,156979,6,0,P|198:310|186:277,1,75.5,2|2,2:0|2:0,2:0:0:0:
105,167,157233,2,0,P|24:189|8:251,1,151,8|0,2:0|2:0,2:0:0:0:
40,326,157614,1,2,2:0:0:0:
185,276,157742,6,0,B|241:251|303:249|303:249|318:283|361:294,1,181.2,4|0,1:0|2:0,2:0:0:0:
426,322,158123,1,0,1:0:0:0:
455,190,158250,6,0,P|414:197|364:212,1,75.5,8|0,2:0|2:0,2:0:0:0:
356,108,158504,2,0,P|397:101|447:86,1,75.5,0|0,3:0|2:0,2:0:0:0:
296,170,158758,1,0,1:0:0:0:
225,7,159013,6,0,P|182:15|142:39,1,75.5,2|2,2:0|2:0,2:0:0:0:
24,106,159267,2,0,B|75:88|122:127|122:127|106:152|115:182,1,151,8|0,2:0|2:0,2:0:0:0:
84,269,159648,1,2,2:0:0:0:
189,168,159775,6,0,P|96:187|3:213,1,181.2,4|0,1:0|2:0,2:0:0:0:
95,283,160157,1,0,1:0:0:0:
261,219,160284,6,0,P|277:147|231:89,1,151,8|2,2:0|3:2,2:0:0:0:
499,217,160792,5,2,1:2:0:0:
419,263,160920,1,2,2:0:0:0:
333,235,161047,2,0,P|299:222|228:223,1,75.5,2|0,2:0|2:0,2:0:0:0:
106,297,161301,6,0,P|163:360|235:339,1,166.1,8|0,2:0|3:0,2:0:0:0:
442,104,161809,6,0,B|485:121|527:75|510:14|432:0|361:55|361:55|292:109|210:101|197:15|251:-13|284:3,1,483.2,4|2,1:2|2:0,2:0:0:0:
284,3,164376,5,2,2:0:0:0:
280,22,164630,1,2,2:0:0:0:
276,41,164884,1,2,2:0:0:0:
156,182,165393,5,2,2:0:0:0:
160,201,165647,1,2,2:0:0:0:
164,220,165901,1,2,2:0:0:0:
5,255,166410,5,2,2:0:0:0:
9,236,166664,1,2,2:0:0:0:
13,217,166918,2,0,L|38:90,1,120.8,2|2,2:0|2:0,2:0:0:0:
181,248,167935,5,2,2:0:0:0:
204,241,168190,1,2,2:0:0:0:
207,217,168444,1,2,2:0:0:0:
183,210,168698,1,2,2:0:0:0:
168,229,168952,1,2,2:0:0:0:
271,312,169461,5,2,2:0:0:0:
309,377,169715,1,2,2:0:0:0:
350,315,169969,1,2,2:0:0:0:
397,184,170478,5,2,2:0:0:0:
435,119,170732,1,2,2:0:0:0:
476,181,170986,1,2,2:0:0:0:
438,246,171240,1,2,2:0:0:0:
397,184,171495,2,0,L|281:197,1,105.7,2|0,2:0|2:0,2:0:0:0:
272,201,172003,5,2,2:0:0:0:
255,183,172257,1,2,2:0:0:0:
266,161,172512,1,2,2:0:0:0:
289,157,172766,1,2,2:0:0:0:
306,173,173020,1,2,2:0:0:0:
150,250,173529,5,2,2:0:0:0:
78,282,173783,1,2,2:0:0:0:
6,314,174037,1,2,2:0:0:0:
111,119,174545,5,2,2:0:0:0:
183,151,174800,1,2,2:0:0:0:
255,183,175054,1,2,2:0:0:0:
192,135,175308,1,2,2:0:0:0:
125,218,175562,1,2,2:0:0:0:
26,204,175817,1,2,2:0:0:0:
13,310,176071,6,0,P|47:306|85:291,1,60.4,2|0,2:0|2:0,2:0:0:0:
144,363,176579,6,0,P|157:331|163:286,1,75.5,2|0,2:0|2:0,2:0:0:0:
263,268,177088,6,0,P|242:240|197:207,1,90.5999999999998,2|0,2:0|2:0,2:0:0:0:
237,101,177596,6,0,P|202:105|137:137,1,105.7,2|0,2:0|2:0,2:0:0:0:
109,219,178081,5,2,2:0:0:0:
278,283,179352,5,2,2:0:0:0:
278,283,179415,1,2,2:0:0:0:
278,283,179479,1,2,2:0:0:0:
278,283,179542,1,2,2:0:0:0:
278,283,179606,6,0,P|307:275|338:271,1,60.4,2|2,2:0|2:0,2:0:0:0:
423,305,179860,2,0,P|432:270|424:246,1,60.4,2|2,2:0|2:0,2:0:0:0:
358,108,180114,6,0,B|357:33|286:1|286:1|240:11|220:52,1,211.4,12|2,1:0|2:0,2:0:0:0:
171,116,180495,1,2,1:2:0:0:
38,54,180622,6,0,P|75:38|115:26,1,75.5,10|0,2:0|2:0,2:0:0:0:
148,127,180876,2,0,P|110:142|70:154,1,75.5,2|0,3:2|2:0,2:0:0:0:
0,239,181130,2,0,P|67:272|138:297,1,151,2|2,1:2|2:0,2:0:0:0:
383,366,181639,6,0,P|427:361|461:333,1,75.5,10|0,2:0|2:0,2:0:0:0:
418,236,181893,2,0,P|380:238|348:258,1,75.5,2|0,1:2|2:0,2:0:0:0:
263,341,182147,6,0,P|211:268|238:174,1,181.2,2|2,1:2|2:0,2:0:0:0:
312,147,182529,1,0,1:0:0:0:
222,57,182656,6,0,P|183:69|132:78,1,75.5,10|0,2:0|2:0,2:0:0:0:
81,137,182910,2,0,P|41:131|7:119,1,75.5,2|0,3:2|2:0,2:0:0:0:
95,22,183164,6,0,P|117:110|127:219,1,181.2,2|2,1:2|2:0,2:0:0:0:
138,297,183546,1,2,2:0:0:0:
168,131,183673,2,0,P|143:225|141:309,1,151,10|2,2:0|3:2,2:0:0:0:
478,182,184181,6,0,B|386:191|398:123|306:132,1,181.2,6|2,1:2|2:0,2:0:0:0:
261,207,184563,1,0,1:0:0:0:
406,127,184690,6,0,P|404:81|388:51,1,75.5,10|0,2:0|2:0,2:0:0:0:
251,13,184944,2,0,P|235:47|236:84,1,75.5,2|0,3:2|2:0,2:0:0:0:
261,207,185198,6,0,P|273:265|201:355,1,181.2,2|2,1:2|2:0,2:0:0:0:
106,334,185580,1,2,2:0:0:0:
135,198,185707,6,0,P|155:230|180:257,1,75.5,10|0,2:0|2:0,2:0:0:0:
91,318,185961,2,0,P|71:286|46:259,1,75.5,2|0,1:2|2:0,2:0:0:0:
93,109,186215,6,0,B|192:79|174:154|310:103,1,181.2,2|0,1:2|2:0,2:0:0:0:
315,45,186597,1,2,1:2:0:0:
307,207,186724,6,0,P|298:170|282:136,1,75.5,10|0,2:0|2:0,2:0:0:0:
426,57,186978,2,0,P|410:90|402:127,1,75.5,2|0,3:2|2:0,2:0:0:0:
443,205,187232,5,2,1:2:0:0:
315,45,187359,2,0,P|229:41|183:109,1,151,2|0,2:0|2:0,2:0:0:0:
113,247,187741,6,0,P|97:169|68:85,1,158.55,10|0,2:0|2:0,2:0:0:0:
73,7,188249,6,0,P|40:93|7:233,1,196.3,6|2,1:2|2:0,2:0:0:0:
35,287,188630,1,0,1:0:0:0:
206,212,188758,6,0,P|168:213|121:236,1,75.5,10|0,2:0|2:0,2:0:0:0:
154,332,189012,2,0,P|192:331|239:308,1,75.5,2|0,3:2|2:0,2:0:0:0:
318,246,189266,2,0,B|404:263|370:306|455:322,1,151,2|2,1:2|2:0,2:0:0:0:
275,31,189775,6,0,P|270:68|295:114,1,75.5,10|0,2:0|2:0,2:0:0:0:
327,174,190029,2,0,P|332:211|307:257,1,75.5,2|0,1:2|2:0,2:0:0:0:
226,317,190283,6,0,B|158:307|158:307|125:275|125:275|59:264,1,181.2,2|0,1:2|2:0,2:0:0:0:
0,198,190664,1,2,1:2:0:0:
108,98,190791,6,0,P|102:136|91:172,1,75.5,10|0,2:0|2:0,2:0:0:0:
179,196,191046,2,0,P|185:158|196:122,1,75.5,2|0,3:2|2:0,2:0:0:0:
349,121,191300,6,0,P|315:143|278:151,1,75.5,2|0,1:2|2:0,2:0:0:0:
230,39,191554,2,0,P|261:18|297:9,1,75.5,2|0,2:0|2:0,2:0:0:0:
444,51,191808,6,0,P|446:85|476:130,1,83.05,10|0,2:0|2:0,2:0:0:0:
375,269,192063,2,0,P|394:237|395:191,1,83.05,2|0,1:2|2:0,2:0:0:0:
275,307,192317,6,0,P|334:366|452:348,1,196.3,6|0,1:2|2:0,2:0:0:0:
375,269,192698,1,0,1:0:0:0:
219,371,192825,2,0,B|146:379|155:318|78:330,1,151,10|2,2:0|3:2,2:0:0:0:
30,157,193334,5,2,1:2:0:0:
119,143,193461,1,2,2:0:0:0:
178,213,193588,2,0,P|202:255|206:298,1,75.5,2|0,2:0|2:0,2:0:0:0:
242,122,193842,2,0,P|222:197|218:274,1,151,10|2,2:0|1:2,2:0:0:0:
512,333,194351,6,0,P|472:295|410:292,1,105.7,2|0,1:2|2:0,2:0:0:0:
349,330,194732,1,0,1:0:0:0:
512,202,194859,6,0,P|423:234|394:277,1,135.9,8|2,2:0|1:2,2:0:0:0:
360,346,195241,1,2,1:2:0:0:
207,188,195368,6,0,P|256:201|283:225,1,83.05,6|0,1:2|2:0,2:0:0:0:
211,358,195622,2,0,P|162:345|136:324,1,83.05,8|0,2:0|1:0,2:0:0:0:
218,163,195876,6,0,P|267:176|295:200,1,83.05,14|0,2:0|2:0,2:0:0:0:
113,210,196130,1,2,1:2:0:0:
31,159,196258,1,10,2:0:0:0:
80,8,196385,6,0,B|66:106|137:88|117:199,1,196.3,6|0,1:2|2:0,2:0:0:0:
42,270,196766,1,2,1:2:0:0:
174,368,196893,2,0,P|232:313|217:245,1,151,10|2,2:0|3:2,2:0:0:0:
326,63,197402,6,0,P|372:69|419:96,1,83.05,2|0,1:2|2:0,2:0:0:0:
346,166,197656,2,0,P|335:206|330:247,1,83.05,2|2,2:0|2:0,2:0:0:0:
210,66,197910,6,0,P|169:71|132:88,1,83.05,10|0,2:0|2:0,2:0:0:0:
204,167,198164,2,0,P|214:207|220:248,1,83.05,2|0,1:2|2:0,2:0:0:0:
345,341,198419,6,0,B|436:318|401:265|509:247,1,181.2,2|0,1:2|2:0,2:0:0:0:
500,157,198800,1,0,1:0:0:0:
441,313,198927,6,0,P|455:347|462:384,1,75.5,10|0,2:0|2:0,2:0:0:0:
330,247,199181,2,0,P|336:209|351:175,1,75.5,2|0,3:2|2:0,2:0:0:0:
210,272,199436,6,0,P|196:306|189:343,1,75.5,2|0,1:2|2:0,2:0:0:0:
98,219,199690,2,0,P|91:181|76:147,1,75.5,2|0,2:0|2:0,2:0:0:0:
83,13,199944,6,0,B|167:18|150:60|228:54,1,151,10|2,2:0|1:2,2:0:0:0:
306,17,200325,1,2,1:2:0:0:
205,148,200452,6,0,B|106:155|128:101|19:94,1,196.3,6|0,1:2|2:0,2:0:0:0:
43,187,200834,1,0,1:0:0:0:
135,103,200961,6,0,P|166:74|209:69,1,75.5,10|0,2:0|2:0,2:0:0:0:
273,201,201215,2,0,P|247:225|205:232,1,75.5,2|0,3:2|2:0,2:0:0:0:
366,36,201469,6,0,P|402:55|431:85,1,75.5,2|0,1:2|2:0,2:0:0:0:
371,150,201724,2,0,P|337:132|310:106,1,75.5,2|2,1:2|1:2,2:0:0:0:
478,176,201978,6,0,P|455:239|447:308,1,135.9,10|2,2:0|2:0,2:0:0:0:
243,332,202486,6,0,P|262:363|298:374,1,75.5,2|0,1:2|2:0,2:0:0:0:
350,301,202741,2,0,P|330:269|294:258,1,75.5,2|0,2:0|1:0,2:0:0:0:
134,324,202995,2,0,P|120:249|94:178,1,151,10|0,2:0|3:0,2:0:0:0:
25,128,203376,1,2,2:0:0:0:
140,22,203503,6,0,P|127:56|114:106,1,75.5,2|2,1:2|1:2,2:0:0:0:
193,160,203758,1,10,2:0:0:0:
289,119,203885,1,2,1:2:0:0:
374,179,204012,2,0,P|459:120|442:55,1,181.2,10|0,2:0|2:0,2:0:0:0:
296,27,204520,6,0,B|185:22|225:102|69:93,1,196.3,6|0,1:2|2:0,2:0:0:0:
53,171,204902,1,2,1:2:0:0:
211,242,205029,6,0,P|201:203|191:145,1,83.05,10|0,2:0|2:0,2:0:0:0:
58,195,205283,2,0,P|67:236|73:276,1,83.05,2|0,3:2|2:0,2:0:0:0:
194,343,205537,6,0,P|240:344|282:313,1,83.05,2|0,1:2|2:0,2:0:0:0:
346,383,205791,2,0,P|369:343|364:291,1,83.05,2|0,2:0|2:0,2:0:0:0:
335,169,206046,5,10,2:0:0:0:
292,248,206173,1,2,2:0:0:0:
371,291,206300,1,2,1:2:0:0:
414,212,206427,1,2,1:2:0:0:
266,255,206554,6,0,P|171:271|53:277,1,196.3,6|0,1:2|2:0,2:0:0:0:
13,208,206936,1,2,1:2:0:0:
118,123,207063,6,0,P|127:160|107:201,1,83.05,10|0,2:0|2:0,2:0:0:0:
1,191,207317,2,0,P|-8:153|11:112,1,83.05,2|0,3:2|2:0,2:0:0:0:
92,14,207571,6,0,P|136:38|175:40,1,83.05,2|0,1:2|2:0,2:0:0:0:
269,66,207825,2,0,P|304:44|345:39,1,83.05,2|0,2:0|2:0,2:0:0:0:
235,206,208080,6,0,P|213:171|208:130,1,83.05,10|0,2:0|2:0,2:0:0:0:
331,271,208334,1,2,1:2:0:0:
423,202,208461,1,2,1:2:0:0:
508,274,208588,6,0,B|396:263|441:205|337:185,1,196.3,6|0,1:2|2:0,2:0:0:0:
235,206,208969,1,2,1:2:0:0:
345,292,209097,6,0,P|307:317|235:320,1,83.05,10|0,2:0|2:0,2:0:0:0:
157,293,209351,2,0,P|119:268|47:265,1,83.05,2|0,3:2|2:0,2:0:0:0:
211,127,209605,6,0,P|229:168|235:216,1,83.05,2|0,1:2|2:0,2:0:0:0:
63,151,209859,2,0,P|69:110|86:72,1,83.05,2|0,1:2|2:0,2:0:0:0:
246,17,210113,6,0,P|315:37|388:46,1,135.9,10|0,2:0|2:0,2:0:0:0:
164,45,210622,5,2,2:0:0:0:
85,72,210876,1,2,2:0:0:0:
6,102,211130,1,2,2:0:0:0:
230,241,211639,6,0,P|287:252|341:273,1,113.25,2|0,2:0|2:0,2:0:0:0:
383,349,212147,6,0,P|420:338|467:334,1,67.9500000000001,2|0,3:2|2:0,2:0:0:0:
512,275,212656,5,4,2:0:0:0:
500,102,213546,5,0,3:0:0:0:
500,102,213609,1,0,3:0:0:0:
500,102,213673,2,0,P|466:113|430:119,1,60.4,0|0,3:0|3:0,2:0:0:0:
356,159,213927,1,2,3:2:0:0:
283,56,214054,6,0,B|243:43|243:43|277:25|277:25|276:-12|276:-12|304:13|304:13|341:0|341:0|324:33|324:33|348:64|348:64|309:60|309:60|288:91|288:91|286:79,1,362.4,0|0,3:2|2:0,2:0:0:0:
356,159,214690,6,0,P|380:257|375:343,1,181.2,4|2,1:2|2:0,2:0:0:0:
296,384,215071,1,0,1:0:0:0:
188,290,215198,2,0,B|98:286|124:338|30:343,1,151,8|2,2:0|1:2,2:0:0:0:
136,68,215706,6,0,P|115:99|107:136,1,75.5,0|2,1:0|2:0,2:0:0:0:
15,178,215961,2,0,P|23:214|43:246,1,75.5,2|0,3:2|2:0,2:0:0:0:
129,343,216215,2,0,P|204:353|286:376,1,151,8|2,2:0|1:2,2:0:0:0:
371,356,216596,1,2,1:2:0:0:
315,239,216723,6,0,P|237:233|149:209,1,166.1,4|0,1:0|2:0,2:0:0:0:
90,142,217105,1,2,1:2:0:0:
177,31,217232,2,0,P|240:84|232:145,1,151,8|2,2:0|3:2,2:0:0:0:
452,146,217740,6,0,P|389:93|397:32,1,151,2|2,1:2|2:0,2:0:0:0:
474,158,218122,2,0,P|440:236|429:307,1,151,2|0,3:2|2:0,2:0:0:0:
351,344,218503,1,2,3:2:0:0:
274,297,218630,1,2,3:2:0:0:
347,242,218757,6,0,P|263:264|148:287,1,166.1,4|0,1:0|2:0,2:0:0:0:
113,220,219139,1,0,1:0:0:0:
187,105,219266,2,0,P|201:143|207:185,1,75.5,8|0,2:0|2:0,2:0:0:0:
58,296,219520,6,0,P|22:227|44:150,1,151,2|2,2:0|1:2,2:0:0:0:
94,81,219901,1,2,2:0:0:0:
187,105,220028,6,0,P|231:115|276:114,1,75.5,2|0,2:0|2:0,2:0:0:0:
359,43,220283,2,0,P|408:90|393:172,1,151,8|2,2:0|1:2,2:0:0:0:
325,225,220664,1,2,1:2:0:0:
468,251,220791,6,0,B|382:252|411:316|291:321,1,181.2,4|0,1:0|2:0,2:0:0:0:
234,269,221173,1,0,1:0:0:0:
392,321,221300,6,0,P|433:340|476:341,1,75.5,8|0,2:0|2:0,2:0:0:0:
267,383,221554,2,0,P|158:341|101:339,1,151,2|2,2:0|1:2,2:0:0:0:
39,360,221935,1,2,2:0:0:0:
0,279,222062,6,0,P|37:242|71:235,1,75.5,2|2,1:2|1:2,2:0:0:0:
168,226,222317,2,0,P|184:177|174:144,1,75.5,10|2,2:0|1:2,2:0:0:0:
147,62,222571,5,8,2:0:0:0:
129,44,222656,5,8,2:0:0:0:
107,32,222740,5,8,2:0:0:0:
80,26,222825,6,0,P|170:17|249:-2,1,166.1,4|0,1:0|2:0,2:0:0:0:
328,34,223206,1,0,1:0:0:0:
279,160,223334,2,0,P|272:123|247:75,1,75.5,8|0,2:0|2:0,2:0:0:0:
424,51,223588,6,0,P|417:74|412:98,2,40.2666666666667,2|2|2,2:0|2:0|2:0,2:0:0:0:
438,32,223842,6,0,P|491:84|474:159,1,151,2|2,1:2|2:0,2:0:0:0:
407,218,224223,1,0,2:0:0:0:
279,160,224351,2,0,P|235:169|169:183,1,75.5,8|0,2:0|2:0,2:0:0:0:
293,288,224605,2,0,P|337:297|403:311,1,75.5,2|0,2:0|2:0,2:0:0:0:
181,344,224859,6,0,B|167:281|167:281|128:243|128:243|115:181,1,181.2,4|0,1:0|2:0,2:0:0:0:
58,126,225240,1,0,1:0:0:0:
174,61,225367,2,0,P|136:58|100:48,1,75.5,8|0,2:0|2:0,2:0:0:0:
223,138,225622,2,0,P|274:53|249:12,1,151,2|2,2:0|1:2,2:0:0:0:
20,253,226130,6,0,P|53:235|90:231,1,75.5,2|0,2:0|2:0,2:0:0:0:
181,344,226384,2,0,P|143:341|110:324,1,75.5,8|0,2:0|2:0,2:0:0:0:
196,253,226639,1,2,3:2:0:0:
291,289,226766,1,2,3:2:0:0:
410,185,226893,6,0,P|318:195|287:271,1,181.2,4|2,1:0|2:0,2:0:0:0:
339,351,227274,1,2,1:2:0:0:
436,278,227401,6,0,P|425:241|416:200,1,75.5,8|0,2:0|2:0,2:0:0:0:
470,108,227656,2,0,P|432:99|392:86,1,75.5,2|2,2:0|2:0,2:0:0:0:
292,110,227910,6,0,B|215:106|233:60|153:55,1,151,2|2,1:2|2:0,2:0:0:0:
71,102,228291,1,2,2:0:0:0:
149,219,228418,6,0,P|167:177|164:138,1,75.5,10|0,2:0|2:0,2:0:0:0:
56,123,228673,2,0,P|38:165|41:204,1,75.5,0|0,3:2|2:0,2:0:0:0:
79,279,228927,6,0,P|184:243|287:241,1,211.4,6|0,3:2|2:0,2:0:0:0:
361,326,229944,6,0,P|356:350|353:372,5,40.2666666666667,2|2|2|2|2|2,2:0|2:0|2:0|2:0|2:0|2:0,2:0:0:0:
442,287,230452,5,2,2:0:0:0:
447,275,230537,2,0,P|440:246|429:217,1,40.2666666666667,2|2,2:0|2:0,2:0:0:0:
383,164,230706,5,2,2:0:0:0:
378,151,230791,2,0,P|385:122|395:97,1,40.2666666666667,2|2,2:0|2:0,2:0:0:0:
455,11,230961,6,2,P|418:17|373:25,1,75.5,4|2,2:0|2:0,2:0:0:0:
297,77,231469,2,0,P|259:70|222:64,1,75.5,2|2,2:0|2:0,2:0:0:0:
111,28,231978,5,2,2:0:0:0:
115,32,232232,2,0,P|127:66|130:118,1,75.5,2|2,2:0|2:0,2:0:0:0:
100,192,232740,5,2,2:0:0:0:
104,196,232995,2,0,P|139:202|185:226,1,75.5,2|2,2:0|2:0,2:0:0:0:
248,184,233503,5,2,2:0:0:0:
252,188,233757,1,2,2:0:0:0:
256,192,234012,1,2,2:0:0:0:
176,219,234266,5,2,2:0:0:0:
321,242,234520,1,2,2:0:0:0:
271,108,234774,1,2,2:0:0:0:
256,192,234838,12,2,237062,2:0:0:0:
