osu file format v14

[General]
AudioFilename: audio.mp3
AudioLeadIn: 0
PreviewTime: 221100
Countdown: 0
SampleSet: Normal
StackLeniency: 0.3
Mode: 0
LetterboxInBreaks: 0
WidescreenStoryboard: 0

[Editor]
DistanceSpacing: 0.7
BeatDivisor: 8
GridSize: 16
TimelineZoom: 2

[Metadata]
Title:Griechischer Wein (HBz Hard-Bounce Remix)
TitleUnicode:Griechischer Wein (HBz Hard-Bounce Remix)
Artist:Udo Juergens
ArtistUnicode:Udo Jürgens
Creator:Yonoshix
Version:Halbtrocken (Jahrgang 2019)
Source:Ich war noch niemals in New York
Tags:Ich war noch niemals in New York Hardstyle Hard Bounce Deutsch German Musical /8
BeatmapID:2050273
BeatmapSetID:979623

[Difficulty]
HPDrainRate:5
CircleSize:4.2
OverallDifficulty:8.5
ApproachRate:9.7
SliderMultiplier:2
SliderTickRate:1

[Events]
//Background and Video events
0,0,"I bims 2 Besssssssssoffffennne menschen namens udo fucking juergens looool pog xddddddddd d d du stinkst.png",0,0
//Break Periods
2,28550,36841
//Storyboard Layer 0 (Background)
//Storyboard Layer 1 (Fail)
//Storyboard Layer 2 (Pass)
//Storyboard Layer 3 (Foreground)
//Storyboard Layer 4 (Overlay)
//Storyboard Sound Samples

[TimingPoints]
350,400,4,1,2,75,1,0
6750,-90.90909,4,1,2,75,0,0
8350,-88.49557,4,1,2,75,0,0
9950,-86.20689,4,1,2,75,0,0
11550,-84.03362,4,1,2,75,0,0
17950,-77.51938,4,1,2,75,0,0
19550,-100,4,1,2,75,0,0
24350,-1000,4,1,2,75,0,0
28350,-1000,4,1,2,5,0,0
37366,398.142,4,2,2,49,1,0
38560,398.142,4,2,2,49,1,0
38560,-166.6667,4,2,2,49,0,0
52893,-200,4,2,2,49,0,0
56675,-222.2222,4,2,2,49,0,0
63282,403.497,4,2,2,49,1,0
64088,403.497,4,2,2,49,1,0
65903,-151.5152,4,2,2,49,0,0
93140,400,4,1,2,88,1,0
93140,-100,4,1,2,88,0,1
93165,-100,4,1,2,88,0,0
118740,-100,4,1,2,88,0,1
118765,-100,4,1,2,88,0,0
144140,-100,4,1,2,5,0,0
144340,-200,4,1,2,60,0,0
145140,-166.6667,4,1,2,60,0,0
149140,-125,4,1,2,60,0,0
149540,-142.8571,4,1,2,60,0,0
149940,-153.8462,4,1,2,60,0,0
150340,-166.6667,4,1,2,60,0,0
150740,-200,4,1,2,60,0,0
151540,-222.2222,4,1,2,60,0,0
156340,-238.0952,4,1,2,60,0,0
156740,-250,4,1,2,60,0,0
157540,-238.0952,4,1,2,70,0,0
157940,-227.2727,4,1,2,70,0,0
158340,-217.3913,4,1,2,70,0,0
158740,-208.3333,4,1,2,70,0,0
159140,-200,4,1,2,70,0,0
159540,-192.3077,4,1,2,70,0,0
159940,-185.1852,4,1,2,70,0,0
160340,-178.5714,4,1,2,70,0,0
160740,-172.4138,4,1,2,70,0,0
161140,-166.6667,4,1,2,70,0,0
161540,-161.2903,4,1,2,70,0,0
161940,-156.25,4,1,2,70,0,0
162340,-151.5152,4,1,2,70,0,0
162740,-147.0588,4,1,2,70,0,0
163140,-142.8571,4,1,2,70,0,0
163540,-138.8889,4,1,2,70,0,0
165940,-121.9512,4,1,2,75,0,0
166740,-121.9512,4,1,2,80,0,0
168340,-192.3077,4,1,2,30,0,0
169940,-100,4,1,3,85,0,0
170740,-95.2381,4,1,3,85,0,0
171540,-90.90909,4,1,3,85,0,0
172340,-86.95652,4,1,3,85,0,0
173540,-80,4,1,3,85,0,0
173940,-76.92308,4,1,3,85,0,0
174340,-74.07407,4,1,3,85,0,0
174740,-71.42857,4,1,3,85,0,0
175140,-68.96552,4,1,3,85,0,0
176340,-68.96552,4,1,3,90,0,0
182740,-68.96552,4,1,3,93,0,0
189140,-68.96552,4,1,3,95,0,0
193940,-400,4,1,3,90,0,0
195540,-71.42857,4,1,3,100,0,1
197540,-66.66666,4,1,3,100,0,1
197940,-64.51613,4,1,3,100,0,1
198340,-62.5,4,1,3,100,0,1
199140,-45.45454,4,1,3,100,0,1
199540,-58.82353,4,1,3,100,0,1
200340,-41.66667,4,1,3,100,0,1
201940,-55.55556,4,1,3,100,0,1
205540,-47.61905,4,1,3,100,0,1
205940,-50,4,1,3,100,0,1
206740,-33.33333,4,1,3,100,0,1
207940,-50,4,1,3,100,0,1
208340,-66.66666,4,1,3,100,0,1
208740,-58.82353,4,1,3,100,0,1
209140,-52.63158,4,1,3,100,0,1
209540,-50,4,1,3,100,0,1
209940,-58.82353,4,1,3,100,0,1
211940,-50,4,1,3,100,0,1
212340,-58.82353,4,1,3,100,0,1
212740,-62.5,4,1,3,100,0,1
213140,-52.63158,4,1,3,100,0,1
213540,-55.55556,4,1,3,100,0,1
213940,-58.82353,4,1,3,100,0,1
214340,-62.5,4,1,3,100,0,1
214540,-43.47826,4,1,3,100,0,1
214740,-45.45454,4,1,3,100,0,1
216740,-50,4,1,3,100,0,1
217140,-43.47826,4,1,3,100,0,1
217540,-37.03704,4,1,3,100,0,1
217940,-32.25806,4,1,3,100,0,1
218740,-31.25,4,1,3,100,0,1
219540,-71.42857,4,1,3,70,0,0
221140,-40,4,1,3,100,0,1
225935,-25,4,1,3,100,0,1
227135,-50,4,1,3,100,0,1
227340,-33.33333,4,1,3,100,0,1
227540,-37.59399,4,1,3,100,0,1
231140,-36.23188,4,1,3,100,0,1
231540,-37.59399,4,1,3,100,0,1
232340,-25.64103,4,1,3,100,0,1
233940,-40,4,1,3,100,0,1
240140,-33.33333,4,1,3,100,0,1
240340,-38.46154,4,1,3,100,0,1
241140,-40,4,1,3,100,0,1
241940,-41.66667,4,1,3,100,0,1
242740,-43.47826,4,1,3,100,0,1
243540,-45.45454,4,1,3,100,0,1
243940,-50,4,1,3,100,0,1
244340,-55.55556,4,1,3,100,0,1
244740,-62.5,4,1,3,100,0,1
245140,-50,4,1,3,80,0,0
245340,-45.45454,4,1,3,80,0,0
245540,-50,4,1,3,80,0,0
245740,-45.45454,4,1,3,80,0,0
245940,-52.63158,4,1,3,80,0,0
246740,-100,4,1,2,60,0,0
253140,-90.90909,4,1,2,60,0,0

[Colours]
Combo1 : 209,157,1
Combo2 : 245,63,67
Combo3 : 255,28,107

[HitObjects]
376,287,350,6,0,P|326:290|276:288,1,100,8|0,0:0|0:0,0:0:0:0:
456,160,750,2,0,P|406:157|356:159,1,100,8|0,0:0|0:0,0:0:0:0:
372,294,1150,2,0,P|322:296|272:295,1,100,8|0,0:0|0:0,0:0:0:0:
460,153,1550,2,0,P|410:151|360:152,1,100,8|0,0:0|0:0,0:0:0:0:
367,301,1950,6,0,P|317:304|267:303,1,100,8|0,0:0|0:0,0:0:0:0:
464,146,2350,2,0,P|414:143|364:144,1,100,8|0,0:0|0:0,0:0:0:0:
362,309,2750,2,0,P|307:312|252:311,1,100,8|0,0:0|0:0,0:0:0:0:
469,138,3150,2,0,P|414:135|359:136,1,100,8|0,0:0|0:0,0:0:0:0:
155,256,3550,5,8,0:0:0:0:
236,99,3750,1,0,0:0:0:0:
155,256,3950,1,8,0:0:0:0:
236,99,4150,1,0,0:0:0:0:
262,311,4350,5,8,0:0:0:0:
172,138,4550,1,0,0:0:0:0:
262,311,4750,1,8,0:0:0:0:
172,138,4950,1,0,0:0:0:0:
39,344,5150,6,0,P|36:267|42:238,1,100,8|0,0:0|0:0,0:0:0:0:
157,355,5550,2,0,P|159:278|153:249,1,100,8|0,0:0|0:0,0:0:0:0:
33,343,5950,2,0,P|27:293|33:244,1,100,8|0,0:0|0:0,0:0:0:0:
162,256,6350,6,0,P|168:305|162:355,1,100,8|0,0:0|0:0,0:0:0:0:
393,39,6750,6,0,P|332:28|262:47,1,110,8|0,0:0|0:0,0:0:0:0:
174,138,7150,2,0,P|172:65|181:10,1,110,8|0,0:0|0:0,0:0:0:0:
412,129,7550,6,0,P|359:95|287:87,1,110,8|0,0:0|0:0,0:0:0:0:
172,138,7950,2,0,P|197:69|226:21,1,110,8|0,0:0|0:0,0:0:0:0:
397,220,8350,6,0,P|360:169|297:134,1,110,8|0,0:0|0:0,0:0:0:0:
172,138,8750,2,0,P|221:84|265:50,1,110,8|0,0:0|0:0,0:0:0:0:
349,299,9150,6,0,P|334:238|288:182,1,110,8|0,0:0|0:0,0:0:0:0:
172,138,9550,2,0,P|237:106|291:92,1,110,8|0,0:0|0:0,0:0:0:0:
397,220,9950,6,0,P|478:177|494:157,1,116,8|0,0:0|0:0,0:0:0:0:
368,35,10350,2,0,P|287:78|271:98,1,116,8|0,0:0|0:0,0:0:0:0:
405,226,10750,2,0,P|489:173|505:150,1,116,8|0,0:0|0:0,0:0:0:0:
359,28,11150,2,0,P|275:81|259:104,1,116,8|0,0:0|0:0,0:0:0:0:
413,229,11550,2,0,P|498:168|513:143,1,119,8|0,0:0|0:0,0:0:0:0:
351,25,11950,2,0,P|266:86|251:111,1,119,8|0,0:0|0:0,0:0:0:0:
422,233,12350,2,0,P|507:162|521:134,1,119,8|0,0:0|0:0,0:0:0:0:
342,21,12750,2,0,P|257:92|243:120,1,119,8|0,0:0|0:0,0:0:0:0:
93,299,13150,5,8,0:0:0:0:
172,138,13350,1,0,0:0:0:0:
153,328,13550,1,8,0:0:0:0:
166,131,13750,1,4,0:0:0:0:
83,300,13950,5,8,0:0:0:0:
176,126,14150,1,4,0:0:0:0:
148,334,14350,1,8,0:0:0:0:
170,118,14550,1,4,0:0:0:0:
73,302,14750,5,8,0:0:0:0:
182,114,14950,1,4,0:0:0:0:
143,342,15150,1,8,0:0:0:0:
176,105,15350,1,4,0:0:0:0:
63,308,15550,5,8,0:0:0:0:
190,106,15750,1,4,0:0:0:0:
138,354,15950,1,8,0:0:0:0:
183,95,16150,1,4,0:0:0:0:
338,341,16350,5,8,0:0:0:0:
339,104,16550,1,4,0:0:0:0:
338,341,16750,1,8,0:0:0:0:
339,104,16950,1,4,0:0:0:0:
409,338,17150,5,8,0:0:0:0:
254,98,17350,1,4,0:0:0:0:
409,338,17550,1,8,0:0:0:0:
254,98,17750,1,4,0:0:0:0:
138,354,17950,5,8,0:0:0:0:
468,180,18150,1,4,0:0:0:0:
101,177,18350,5,8,0:0:0:0:
501,244,18550,1,4,0:0:0:0:
90,64,18750,5,8,0:0:0:0:
411,367,18950,1,4,0:0:0:0:
10,289,19150,5,8,0:0:0:0:
418,63,19350,1,4,0:0:0:0:
173,251,19550,6,0,P|186:304|189:316,7,50,8|4|8|4|8|4|8|4,0:0|0:0|0:0|0:0|0:0|0:0|0:0|0:0,0:0:0:0:
322,140,20350,2,0,P|309:193|306:205,7,50,8|4|8|4|8|4|8|4,0:0|0:0|0:0|0:0|0:0|0:0|0:0|0:0,0:0:0:0:
222,151,21150,5,8,0:0:0:0:
191,111,21250,1,4,0:0:0:0:
146,92,21350,1,8,0:0:0:0:
97,97,21450,1,4,0:0:0:0:
56,125,21550,1,8,0:0:0:0:
34,169,21650,1,4,0:0:0:0:
36,218,21750,1,8,0:0:0:0:
61,260,21850,1,4,0:0:0:0:
104,284,21950,5,8,0:0:0:0:
150,253,22050,1,4,0:0:0:0:
203,242,22150,1,8,0:0:0:0:
257,249,22250,1,4,0:0:0:0:
305,276,22350,1,8,0:0:0:0:
359,298,22450,1,4,0:0:0:0:
417,287,22550,1,8,0:0:0:0:
461,247,22650,1,4,0:0:0:0:
475,189,22750,1,8,0:0:0:0:
456,133,22850,1,4,0:0:0:0:
410,96,22950,1,8,0:0:0:0:
351,91,23050,1,4,0:0:0:0:
298,117,23150,1,8,0:0:0:0:
250,160,23250,1,4,0:0:0:0:
187,167,23350,1,8,0:0:0:0:
131,136,23450,1,4,0:0:0:0:
104,77,23550,5,12,0:0:0:0:
63,139,23650,1,4,0:0:0:0:
53,213,23750,1,12,0:0:0:0:
76,283,23850,1,4,0:0:0:0:
128,337,23950,1,12,0:0:0:0:
198,362,24050,1,4,0:0:0:0:
272,353,24150,1,12,0:0:0:0:
334,314,24250,1,4,0:0:0:0:
373,250,24350,6,0,B|389:212|389:212|398:171,1,80,12|0,0:0|0:0,0:0:0:0:
256,192,26050,12,0,28350,0:0:0:0:
237,298,37366,5,0,0:0:0:0:
242,303,37764,1,0,0:0:0:0:
247,308,38162,1,0,0:0:0:0:
252,313,38560,2,0,P|258:249|273:190,1,120,4|0,0:0|0:0,0:0:0:0:
350,129,39157,1,0,0:0:0:0:
414,297,39356,5,0,0:0:0:0:
419,302,39754,2,0,P|442:257|457:202,1,90,0|0,0:0|0:0,0:0:0:0:
478,157,40152,6,0,B|485:262,1,90,4|0,0:0|0:0,0:0:0:0:
504,317,40550,2,0,B|509:227,1,90,8|0,0:0|0:0,0:0:0:0:
474,132,40948,2,0,B|481:248,1,90,4|0,0:0|0:0,0:0:0:0:
507,341,41346,2,0,P|457:321|413:321,1,90,8|0,0:0|0:0,0:0:0:0:
319,382,41745,5,4,0:0:0:0:
236,163,42143,1,4,0:0:0:0:
156,306,42541,5,4,0:0:0:0:
156,286,42939,1,0,0:0:0:0:
96,96,43337,5,0,0:0:0:0:
96,120,43735,1,0,0:0:0:0:
156,310,44133,5,0,0:0:0:0:
156,282,44532,1,0,0:0:0:0:
96,88,44930,5,2,0:0:0:0:
133,242,45129,1,2,0:0:0:0:
161,40,45328,1,2,0:0:0:0:
50,225,45527,1,2,0:0:0:0:
224,96,45726,5,8,0:0:0:0:
244,96,46124,1,0,0:0:0:0:
384,256,46522,5,2,0:0:0:0:
349,83,46721,1,2,0:0:0:0:
256,288,46920,1,2,0:0:0:0:
427,154,47119,1,2,0:0:0:0:
320,352,47319,5,8,0:0:0:0:
146,286,47717,5,0,0:0:0:0:
136,276,48115,1,0,0:0:0:0:
126,266,48513,1,0,0:0:0:0:
116,256,48911,2,0,P|116:321|108:381,1,120,4|0,0:0|0:0,0:0:0:0:
16,293,49508,1,0,0:0:0:0:
93,162,49707,6,0,P|155:127|190:121,1,90,0|0,0:0|0:0,0:0:0:0:
236,182,50106,2,0,P|244:134|239:72,1,90,0|0,0:0|0:0,0:0:0:0:
126,28,50504,6,0,B|223:14,1,90,4|0,0:0|0:0,0:0:0:0:
352,87,50902,2,0,B|255:73,1,90,8|0,0:0|0:0,0:0:0:0:
103,22,51300,2,0,B|219:5,1,90,4|0,0:0|0:0,0:0:0:0:
374,92,51698,2,0,B|258:76,1,90,8|0,0:0|0:0,0:0:0:0:
384,0,52096,5,4,0:0:0:0:
436,203,52494,1,4,0:0:0:0:
512,0,52893,6,0,B|505:112,1,100,4|0,0:0|0:0,0:0:0:0:
441,302,53689,2,0,B|434:189,1,100,0|0,0:0|0:0,0:0:0:0:
370,0,54485,5,0,0:0:0:0:
359,9,54883,2,0,P|357:65|344:126,1,100,0|0,0:0|0:0,0:0:0:0:
296,162,55381,1,0,0:0:0:0:
198,49,55580,1,0,0:0:0:0:
202,57,55680,2,0,B|200:117,1,50,0|0,0:0|0:0,0:0:0:0:
139,203,56078,2,0,B|190:171|188:209|233:177,1,100,4|0,0:0|0:0,0:0:0:0:
286,338,56675,5,0,0:0:0:0:
296,348,56874,2,0,B|316:294,1,45,0|0,0:0|0:0,0:0:0:0:
350,200,57272,1,0,0:0:0:0:
358,189,57670,2,0,B|375:162|375:162|383:132|383:132|397:101,1,90,4|0,0:0|0:0,0:0:0:0:
478,274,58268,5,0,0:0:0:0:
478,262,58367,1,0,0:0:0:0:
478,250,58467,2,0,B|474:164,1,67.5,0|0,0:0|0:0,0:0:0:0:
470,142,58865,1,0,0:0:0:0:
430,0,59064,1,0,0:0:0:0:
306,63,59263,6,0,P|279:93|243:147,1,90,4|0,0:0|0:0,0:0:0:0:
205,321,60059,2,0,P|235:287|261:250,1,90,4|0,0:0|0:0,0:0:0:0:
64,192,60855,5,0,0:0:0:0:
64,208,61254,1,0,0:0:0:0:
132,69,61652,5,2,0:0:0:0:
170,255,61851,1,2,0:0:0:0:
206,4,62050,1,2,0:0:0:0:
234,180,62249,1,2,0:0:0:0:
0,0,62448,5,8,0:0:0:0:
16,0,62846,1,0,0:0:0:0:
234,180,63244,5,2,0:0:0:0:
342,35,63483,1,2,0:0:0:0:
407,218,63685,1,2,0:0:0:0:
333,111,63887,1,2,0:0:0:0:
512,224,64088,5,8,0:0:0:0:
416,384,64491,5,0,0:0:0:0:
416,368,64894,1,0,0:0:0:0:
416,352,65298,1,0,0:0:0:0:
416,336,65701,1,0,0:0:0:0:
416,328,65903,2,0,B|419:235,1,66,4|0,0:0|0:0,0:0:0:0:
355,137,66307,5,0,0:0:0:0:
313,287,66508,1,0,0:0:0:0:
311,270,66609,1,0,0:0:0:0:
306,253,66710,2,0,P|290:195|286:162,1,66,0|0,0:0|0:0,0:0:0:0:
205,68,67114,5,0,0:0:0:0:
197,177,67315,2,0,P|172:84|156:50,1,132,0|0,0:0|0:0,0:0:0:0:
96,352,68122,5,0,0:0:0:0:
96,336,68526,1,0,0:0:0:0:
7,189,68929,5,4,0:0:0:0:
257,225,69333,1,4,0:0:0:0:
352,0,69736,5,4,0:0:0:0:
352,16,70140,1,0,0:0:0:0:
400,256,70543,6,0,P|416:192|416:112,1,132,0|0,0:0|0:0,0:0:0:0:
256,320,71350,5,0,0:0:0:0:
272,320,71754,1,0,0:0:0:0:
147,164,72157,5,2,0:0:0:0:
168,339,72359,1,2,0:0:0:0:
290,175,72561,1,2,0:0:0:0:
56,268,72763,1,2,0:0:0:0:
400,256,72964,5,8,0:0:0:0:
416,256,73368,1,0,0:0:0:0:
288,48,73771,5,2,0:0:0:0:
147,164,73973,1,2,0:0:0:0:
142,0,74175,1,2,0:0:0:0:
338,128,74377,1,2,0:0:0:0:
0,272,74578,5,8,0:0:0:0:
16,272,74982,2,0,P|32:208|32:160,1,99,0|0,0:0|0:0,0:0:0:0:
54,110,75385,2,0,B|70:229,1,99,0|0,0:0|0:0,0:0:0:0:
97,282,75789,2,0,P|167:254|217:266,1,99,0|0,0:0|0:0,0:0:0:0:
209,339,76192,2,4,P|198:263|216:199,1,132,0|0,0:0|0:0,0:0:0:0:
289,116,76798,1,0,0:0:0:0:
332,224,76999,6,0,P|322:146|311:107,1,99,0|0,0:0|0:0,0:0:0:0:
296,85,77403,1,0,0:0:0:0:
170,155,77605,2,0,B|107:201|107:145|46:184,1,132,4|0,0:0|0:0,0:0:0:0:
122,96,78210,1,0,0:0:0:0:
92,241,78412,5,0,0:0:0:0:
27,98,78613,1,0,0:0:0:0:
33,82,78714,1,0,0:0:0:0:
42,68,78815,2,0,P|72:28|94:9,1,66,0|0,0:0|0:0,0:0:0:0:
208,0,79219,1,0,0:0:0:0:
170,155,79420,5,4,0:0:0:0:
512,304,79824,1,4,0:0:0:0:
369,38,80227,6,0,B|361:190,1,132,4|0,0:0|0:0,0:0:0:0:
176,286,81034,2,0,B|170:155,1,132,0|0,0:0|0:0,0:0:0:0:
400,304,81841,5,0,0:0:0:0:
400,320,82245,1,0,0:0:0:0:
176,286,82648,6,0,P|314:281|335:284,1,132,0|0,0:0|0:0,0:0:0:0:
240,384,83254,1,0,0:0:0:0:
181,216,83455,2,0,P|181:92|186:63,1,132,4|0,0:0|0:0,0:0:0:0:
304,0,84161,5,0,0:0:0:0:
304,0,84565,2,0,P|312:59|323:103,2,98.9999697876069
455,232,85675,5,0,0:0:0:0:
455,232,86078,2,0,P|459:166|456:113,1,99,0|0,0:0|0:0,0:0:0:0:
389,98,86482,2,0,P|385:32|388:-21,1,99,0|0,0:0|0:0,0:0:0:0:
469,100,86885,2,0,P|464:171|452:241,1,132,0|0,0:0|0:0,0:0:0:0:
341,286,87490,6,0,P|405:299|473:306,1,132
181,216,88297,2,0,P|245:203|313:195,1,132,0|0,0:0|0:0,0:0:0:0:
160,352,89104,5,2,0:0:0:0:
112,176,89306,1,2,0:0:0:0:
80,320,89508,1,2,0:0:0:0:
64,96,89710,1,2,0:0:0:0:
224,304,89911,5,8,0:0:0:0:
224,314,90315,1,0,0:0:0:0:
312,124,90718,5,2,0:0:0:0:
128,55,90920,1,2,0:0:0:0:
266,246,91122,1,2,0:0:0:0:
185,0,91324,1,2,0:0:0:0:
80,320,91525,5,8,0:0:0:0:
74,342,91929,2,0,P|100:263|109:205,1,132,0|0,0:0|0:0,0:0:0:0:
117,30,92736,1,0,0:0:0:0:
180,308,93140,5,8,0:0:0:0:
288,213,93340,1,4,0:0:0:0:
126,174,93540,5,8,0:0:0:0:
304,298,93740,1,4,0:0:0:0:
189,104,93940,5,8,0:0:0:0:
218,341,94140,1,4,0:0:0:0:
281,73,94340,5,8,0:0:0:0:
76,316,94540,1,4,0:0:0:0:
436,189,94740,5,8,0:0:0:0:
10,115,94940,1,4,0:0:0:0:
439,102,95140,5,8,0:0:0:0:
3,209,95340,1,4,0:0:0:0:
432,321,95540,5,8,0:0:0:0:
49,54,95740,1,4,0:0:0:0:
455,122,95940,5,8,0:0:0:0:
20,363,96140,1,4,0:0:0:0:
268,33,96340,6,0,P|356:17|397:23,1,100,8|4,0:0|0:0,0:0:0:0:
275,324,96740,1,8,0:0:0:0:
280,104,96940,1,4,0:0:0:0:
506,259,97140,6,0,P|443:194|413:175,1,100,8|4,0:0|0:0,0:0:0:0:
55,97,97540,2,0,P|118:32|148:13,1,100,8|4,0:0|0:0,0:0:0:0:
228,347,97940,5,8,0:0:0:0:
214,11,98140,1,4,0:0:0:0:
377,331,98340,5,8,0:0:0:0:
0,146,98540,1,4,0:0:0:0:
440,47,98740,5,8,0:0:0:0:
17,338,98940,1,4,0:0:0:0:
501,243,99140,6,0,P|504:171|490:133,1,100,8|4,0:0|0:0,0:0:0:0:
282,278,99540,5,8,0:0:0:0:
352,108,99740,1,4,0:0:0:0:
201,186,99940,1,8,0:0:0:0:
429,227,100140,1,4,0:0:0:0:
120,363,100340,5,8,0:0:0:0:
52,154,100540,1,4,0:0:0:0:
41,321,100740,5,8,0:0:0:0:
125,140,100940,1,4,0:0:0:0:
228,347,101140,6,0,P|302:367|339:366,1,100,8|4,0:0|0:0,0:0:0:0:
365,140,101540,5,8,0:0:0:0:
197,249,101740,1,4,0:0:0:0:
468,253,101940,5,8,0:0:0:0:
238,142,102140,1,4,0:0:0:0:
473,133,102340,5,8,0:0:0:0:
258,288,102540,1,4,0:0:0:0:
313,6,102740,6,0,P|263:5|214:11,1,100,8|4,0:0|0:0,0:0:0:0:
125,235,103140,1,8,0:0:0:0:
141,59,103340,1,4,0:0:0:0:
258,288,103540,6,0,P|303:331|355:366,1,100,8|4,0:0|0:0,0:0:0:0:
473,133,103940,2,0,B|412:129|423:166|379:159,1,100,8|4,0:0|0:0,0:0:0:0:
73,90,104340,5,8,0:0:0:0:
371,56,104540,1,4,0:0:0:0:
52,163,104740,5,8,0:0:0:0:
414,0,104940,1,4,0:0:0:0:
180,263,105140,5,8,0:0:0:0:
112,8,105340,1,4,0:0:0:0:
329,253,105540,6,0,B|334:365,1,100,8|4,0:0|0:0,0:0:0:0:
52,163,105940,6,0,P|116:115|152:103,1,100,8|4,0:0|0:0,0:0:0:0:
213,301,106340,1,8,0:0:0:0:
241,142,106540,1,4,0:0:0:0:
127,249,106740,1,8,0:0:0:0:
339,173,106940,1,4,0:0:0:0:
32,75,107140,5,8,0:0:0:0:
127,249,107340,1,4,0:0:0:0:
249,17,107540,5,8,0:0:0:0:
15,172,107740,1,4,0:0:0:0:
338,104,107940,5,8,0:0:0:0:
99,29,108140,1,4,0:0:0:0:
353,16,108340,5,8,0:0:0:0:
241,142,108540,1,4,0:0:0:0:
444,77,108740,5,8,0:0:0:0:
249,17,108940,1,4,0:0:0:0:
459,296,109140,6,0,P|446:247|430:200,1,100,8|4,0:0|0:0,0:0:0:0:
251,198,109540,1,8,0:0:0:0:
357,345,109740,1,4,0:0:0:0:
299,122,109940,5,8,0:0:0:0:
287,356,110140,1,4,0:0:0:0:
188,106,110340,1,8,0:0:0:0:
360,253,110540,1,4,0:0:0:0:
135,278,110740,6,0,P|72:229|43:187,1,100,8|4,0:0|0:0,0:0:0:0:
112,41,111140,2,0,P|175:90|204:132,1,100,8|4,0:0|0:0,0:0:0:0:
210,332,111540,5,8,0:0:0:0:
269,80,111740,1,4,0:0:0:0:
310,321,111940,5,8,0:0:0:0:
193,225,112140,1,4,0:0:0:0:
512,189,112340,6,0,P|462:196|413:195,1,100,8|4,0:0|0:0,0:0:0:0:
169,85,112740,2,0,P|218:77|268:79,1,100,8|4,0:0|0:0,0:0:0:0:
508,238,113140,6,0,P|458:235|409:224,1,100,8|4,0:0|0:0,0:0:0:0:
191,70,113540,2,0,P|240:72|289:83,1,100,8|4,0:0|0:0,0:0:0:0:
230,243,113940,5,8,0:0:0:0:
368,147,114140,1,4,0:0:0:0:
169,167,114340,1,8,0:0:0:0:
358,255,114540,1,4,0:0:0:0:
211,61,114740,5,8,0:0:0:0:
79,202,114940,1,4,0:0:0:0:
289,83,115140,1,8,0:0:0:0:
12,116,115340,1,4,0:0:0:0:
318,309,115540,5,8,0:0:0:0:
289,83,115740,1,4,0:0:0:0:
116,277,115940,1,8,0:0:0:0:
441,148,116140,1,4,0:0:0:0:
157,44,116340,6,0,P|79:57|23:78,1,100,8|4,0:0|0:0,0:0:0:0:
116,277,116740,2,0,P|194:264|250:243,1,100,8|4,0:0|0:0,0:0:0:0:
345,115,117140,5,8,0:0:0:0:
161,184,117340,1,4,0:0:0:0:
401,205,117540,5,8,0:0:0:0:
200,102,117740,1,4,0:0:0:0:
263,369,117940,5,8,0:0:0:0:
345,115,118140,1,4,0:0:0:0:
361,367,118340,6,0,P|302:374|231:358,1,100,8|4,0:0|0:0,0:0:0:0:
482,263,118740,5,8,0:0:0:0:
146,304,118940,1,4,0:0:0:0:
394,94,119140,5,8,0:0:0:0:
399,384,119340,1,4,0:0:0:0:
200,102,119540,5,8,0:0:0:0:
512,192,119740,1,4,0:0:0:0:
146,304,119940,5,8,0:0:0:0:
317,66,120140,1,4,0:0:0:0:
431,320,120340,5,8,0:0:0:0:
45,220,120540,1,4,0:0:0:0:
421,151,120740,5,8,0:0:0:0:
0,313,120940,1,4,0:0:0:0:
491,270,121140,5,8,0:0:0:0:
28,130,121340,1,4,0:0:0:0:
510,130,121540,5,8,0:0:0:0:
3,384,121740,1,4,0:0:0:0:
130,6,121940,6,0,P|233:15|266:24,1,100,8|4,0:0|0:0,0:0:0:0:
286,314,122340,1,8,0:0:0:0:
92,213,122540,1,4,0:0:0:0:
391,83,122740,5,8,0:0:0:0:
131,364,122940,1,4,0:0:0:0:
463,184,123140,5,8,0:0:0:0:
2,185,123340,1,4,0:0:0:0:
419,351,123540,5,8,0:0:0:0:
130,6,123740,1,4,0:0:0:0:
64,384,123940,5,8,0:0:0:0:
433,8,124140,1,4,0:0:0:0:
59,119,124340,5,8,0:0:0:0:
458,178,124540,1,4,0:0:0:0:
164,280,124740,6,0,P|123:250|91:212,1,100,8|4,0:0|0:0,0:0:0:0:
319,145,125140,5,8,0:0:0:0:
309,337,125340,1,4,0:0:0:0:
400,103,125540,1,8,0:0:0:0:
279,261,125740,1,4,0:0:0:0:
493,189,125940,5,8,0:0:0:0:
246,163,126140,1,4,0:0:0:0:
437,301,126340,1,8,0:0:0:0:
318,72,126540,1,4,0:0:0:0:
225,330,126740,5,8,0:0:0:0:
451,110,126940,1,4,0:0:0:0:
154,179,127140,5,8,0:0:0:0:
493,189,127340,1,4,0:0:0:0:
160,288,127540,5,8,0:0:0:0:
451,110,127740,1,4,0:0:0:0:
134,109,127940,5,8,0:0:0:0:
437,301,128140,1,4,0:0:0:0:
192,38,128340,6,0,P|95:25|65:27,1,100,8|4,0:0|0:0,0:0:0:0:
43,269,128740,1,8,0:0:0:0:
248,144,128940,1,4,0:0:0:0:
437,301,129140,6,0,P|463:223|470:188,1,100,8|4,0:0|0:0,0:0:0:0:
277,48,129540,2,0,P|251:126|244:161,1,100,8|4,0:0|0:0,0:0:0:0:
512,64,129940,5,8,0:0:0:0:
256,320,130140,1,4,0:0:0:0:
240,0,130340,5,8,0:0:0:0:
336,368,130540,1,4,0:0:0:0:
320,0,130740,5,8,0:0:0:0:
176,384,130940,1,4,0:0:0:0:
30,163,131140,6,0,P|24:215|21:262,1,100,8|4,0:0|0:0,0:0:0:0:
367,287,131540,5,8,0:0:0:0:
120,128,131740,1,4,0:0:0:0:
336,368,131940,5,8,0:0:0:0:
248,144,132140,1,4,0:0:0:0:
87,372,132340,5,8,0:0:0:0:
331,184,132540,1,4,0:0:0:0:
30,163,132740,5,8,0:0:0:0:
367,287,132940,1,4,0:0:0:0:
40,85,133140,5,8,0:0:0:0:
256,368,133340,1,4,0:0:0:0:
316,75,133540,5,8,0:0:0:0:
21,262,133740,1,4,0:0:0:0:
410,219,133940,5,8,0:0:0:0:
40,85,134140,1,4,0:0:0:0:
256,368,134340,5,8,0:0:0:0:
316,75,134540,1,4,0:0:0:0:
21,262,134740,5,8,0:0:0:0:
410,219,134940,1,4,0:0:0:0:
40,85,135140,5,8,0:0:0:0:
256,368,135340,1,4,0:0:0:0:
192,0,135540,5,8,0:0:0:0:
105,295,135740,1,4,0:0:0:0:
316,75,135940,5,8,0:0:0:0:
21,262,136140,1,4,0:0:0:0:
409,302,136340,5,8,0:0:0:0:
111,108,136540,1,4,0:0:0:0:
320,384,136740,5,8,0:0:0:0:
384,96,136940,1,4,0:0:0:0:
105,295,137140,5,8,0:0:0:0:
405,226,137340,1,4,0:0:0:0:
111,108,137540,6,0,P|53:103|-12:111,1,100,8|4,0:0|0:0,0:0:0:0:
256,384,137940,5,0,0:0:0:0:
256,192,138040,12,0,144140,0:0:0:0:
192,192,144340,6,0,P|256:144|320:208,1,175,8|0,0:0|0:0,0:0:0:0:
331,197,145140,2,0,P|257:134|220:142,1,120,8|8,0:0|0:0,0:0:0:0:
140,250,145740,1,0,0:0:0:0:
140,250,145940,6,0,B|80:128|192:144|130:20,2,240,0|8|8,0:0|0:0|0:0,0:0:0:0:
214,374,147940,5,8,0:0:0:0:
286,292,148140,1,0,0:0:0:0:
214,374,148340,6,0,P|160:381|100:373,1,90,0|0,0:0|0:0,0:0:0:0:
49,359,148740,2,0,P|91:344|130:321,1,90,8|0,0:0|0:0,0:0:0:0:
200,290,149140,2,0,P|252:281|345:303,1,120,8|0,0:0|0:0,0:0:0:0:
369,353,149540,2,0,P|361:294|366:220,1,105,0|0,0:0|0:0,0:0:0:0:
426,212,149940,2,0,P|388:248|356:290,1,97.49999,8|0,0:0|0:0,0:0:0:0:
436,301,150340,2,0,P|473:264|505:222,1,90,8|0,0:0|0:0,0:0:0:0:
481,165,150740,6,0,P|448:131|329:176,1,175,0|0,0:0|0:0,0:0:0:0:
285,205,151540,2,0,P|284:118|287:104,1,90,8|0,0:0|0:0,0:0:0:0:
352,0,152140,5,0,0:0:0:0:
352,0,152340,2,0,P|303:42|196:-2,2,180,8|0|8,0:0|0:0|0:0,0:0:0:0:
144,96,154340,5,0,0:0:0:0:
208,192,154540,1,0,0:0:0:0:
144,96,154740,6,0,P|131:151|131:177,1,67.5,8|0,0:0|0:0,0:0:0:0:
146,233,155140,1,8,0:0:0:0:
146,233,155340,2,0,B|91:241,2,45,0|0|0,0:0|0:0|0:0,0:0:0:0:
283,345,155940,2,0,P|274:281|272:260,1,67.5,8|0,0:0|0:0,0:0:0:0:
327,226,156340,2,0,P|335:168|336:149,1,63,8|0,0:0|0:0,0:0:0:0:
287,108,156740,2,0,P|278:50|277:31,1,60,0|0,0:0|0:0,0:0:0:0:
384,48,157140,6,0,B|354:99,1,60,8|0,0:0|0:0,0:0:0:0:
462,134,157540,2,0,B|403:164,1,63,8|0,0:0|0:0,0:0:0:0:
460,255,157940,2,0,B|394:248,1,66,8|0,0:0|0:0,0:0:0:0:
392,356,158340,2,0,B|336:310,1,69,8|0,0:0|0:0,0:0:0:0:
261,197,158740,6,0,P|294:209|326:225,1,72,8|0,0:0|0:0,0:0:0:0:
204,248,159140,2,0,P|237:265|273:278,1,75,8|0,0:0|0:0,0:0:0:0:
189,166,159540,2,0,P|226:179|261:197,1,78,8|0,0:0|0:0,0:0:0:0:
129,216,159940,2,0,P|165:234|204:248,1,81,8|0,0:0|0:0,0:0:0:0:
160,384,160340,6,0,P|141:329|136:302,1,84,8|0,0:0|0:0,0:0:0:0:
203,247,160740,2,0,P|212:212|216:176,1,58,8|0,0:0|0:0,0:0:0:0:
133,77,161140,2,0,P|124:112|120:148,1,58,8|0,0:0|0:0,0:0:0:0:
341,65,161540,2,0,P|279:49|242:38,1,93,8|0,0:0|0:0,0:0:0:0:
308,132,161940,6,0,P|324:189|326:232,1,96,8|0,0:0|0:0,0:0:0:0:
214,190,162340,2,0,P|217:239|232:286,1,99,8|0,0:0|0:0,0:0:0:0:
326,225,162740,2,0,P|342:282|344:325,1,102,8|0,0:0|0:0,0:0:0:0:
232,286,163140,2,0,P|235:344|253:400,1,105,8|0,0:0|0:0,0:0:0:0:
344,324,163540,5,8,0:0:0:0:
326,225,163740,1,8,0:0:0:0:
452,343,163940,1,8,0:0:0:0:
425,222,164140,1,8,0:0:0:0:
335,333,164340,5,8,0:0:0:0:
313,214,164540,1,8,0:0:0:0:
465,355,164740,1,8,0:0:0:0:
432,210,164940,1,8,0:0:0:0:
321,347,165140,5,8,0:0:0:0:
294,197,165340,1,8,0:0:0:0:
486,376,165540,1,8,0:0:0:0:
444,192,165740,1,8,0:0:0:0:
232,286,165940,6,0,P|177:252|148:228,1,82,8|8,0:0|0:0,0:0:0:0:
185,65,166340,1,8,0:0:0:0:
3,161,166540,1,8,0:0:0:0:
309,190,166740,5,8,0:0:0:0:
329,186,166840,1,8,0:0:0:0:
348,178,166940,1,8,0:0:0:0:
365,167,167040,1,8,0:0:0:0:
379,152,167140,1,8,0:0:0:0:
390,135,167240,1,8,0:0:0:0:
398,116,167340,1,8,0:0:0:0:
401,96,167440,1,8,0:0:0:0:
401,75,167540,6,8,B|400:22,3,41,8|8|8|8,0:0|0:0|0:0|0:0,0:0:0:0:
483,127,167940,2,8,B|482:168,3,41,8|8|8|8,0:0|0:0|0:0|0:0,0:0:0:0:
418,212,168340,6,0,B|417:332,1,104,0|0,0:0|0:0,0:0:0:0:
94,212,169140,6,0,B|95:332,1,104,0|0,0:0|0:0,0:0:0:0:
208,64,169940,6,0,B|196:249,1,150,4|0,0:0|0:0,0:0:0:0:
304,64,170340,2,0,B|316:249,1,150
208,64,170740,6,0,B|188:227,1,157.5,4|0,0:0|0:0,0:0:0:0:
304,64,171140,2,0,B|323:227,1,157.5
208,64,171540,6,0,B|174:225,1,165,4|0,0:0|0:0,0:0:0:0:
304,64,171940,2,0,B|337:225,1,165
208,64,172340,6,0,B|149:235,1,172.5,4|0,0:0|0:0,0:0:0:0:
304,64,172740,2,0,B|362:235,1,172.5
94,315,173140,5,4,0:0:0:0:
94,315,173540,2,0,B|81:194,1,62.5,4|0,0:0|0:0,0:0:0:0:
176,165,173740,2,0,B|163:286,1,62.5,4|0,0:0|0:0,0:0:0:0:
230,359,173940,6,0,P|310:231|384:235,1,195,4|0,0:0|0:0,0:0:0:0:
328,295,174340,2,0,P|270:229|350:265,1,202.5,0|0,0:0|0:0,0:0:0:0:
403,268,174740,6,0,P|389:143|333:51,1,210,4|0,0:0|0:0,0:0:0:0:
284,113,175140,2,0,B|513:75,1,217.5,0|0,0:0|0:0,0:0:0:0:
260,186,175540,2,0,B|489:224,1,217.5,4|0,0:0|0:0,0:0:0:0:
182,130,175940,2,0,B|480:81,2,290,0|4|0,0:0|0:0|0:0,0:0:0:0:
80,281,176940,5,0,0:0:0:0:
80,281,177140,2,0,P|77:199|110:54,1,217.5,4|0,0:0|0:0,0:0:0:0:
150,0,177540,2,0,P|181:49|203:103,1,72.5,0|0,0:0|0:0,0:0:0:0:
193,201,177740,2,0,P|182:143|181:84,1,72.5,0|0,0:0|0:0,0:0:0:0:
288,0,177940,6,0,B|272:224,1,217.5,4|0,0:0|0:0,0:0:0:0:
350,55,178340,2,0,B|366:279,1,217.5,0|0,0:0|0:0,0:0:0:0:
273,326,178740,6,0,B|288:109,1,217.5,4|0,0:0|0:0,0:0:0:0:
365,271,179140,2,0,B|349:54,1,217.5,0|0,0:0|0:0,0:0:0:0:
288,0,179540,5,4,0:0:0:0:
288,0,179940,2,0,P|369:5|424:15,1,72.5,4|0,0:0|0:0,0:0:0:0:
488,63,180140,2,0,P|411:37|356:25,1,72.5,4|0,0:0|0:0,0:0:0:0:
205,76,180340,6,0,B|452:33,1,217.5,4|0,0:0|0:0,0:0:0:0:
236,136,180740,2,0,B|481:188,1,217.5,0|0,0:0|0:0,0:0:0:0:
241,202,181140,6,0,B|448:342,1,217.5,4|0,0:0|0:0,0:0:0:0:
180,174,181540,2,0,B|319:382,1,217.5,0|0,0:0|0:0,0:0:0:0:
148,114,181940,2,0,B|199:359,1,217.5,4|0,0:0|0:0,0:0:0:0:
168,50,182340,2,0,B|123:296,1,217.5,0|0,0:0|0:0,0:0:0:0:
79,317,182740,5,4,0:0:0:0:
32,112,182940,1,0,0:0:0:0:
0,311,183140,1,4,0:0:0:0:
148,114,183340,1,0,0:0:0:0:
161,371,183540,5,4,0:0:0:0:
32,112,183740,1,0,0:0:0:0:
236,136,183940,1,4,0:0:0:0:
79,317,184140,1,0,0:0:0:0:
95,59,184340,5,4,0:0:0:0:
202,263,184540,1,0,0:0:0:0:
324,92,184740,1,4,0:0:0:0:
124,209,184940,1,0,0:0:0:0:
397,209,185140,5,4,0:0:0:0:
191,71,185340,1,0,0:0:0:0:
466,59,185540,1,4,0:0:0:0:
271,236,185740,1,0,0:0:0:0:
352,0,185940,5,4,0:0:0:0:
512,168,186140,1,0,0:0:0:0:
271,236,186340,1,4,0:0:0:0:
438,11,186540,1,0,0:0:0:0:
424,293,186740,5,4,0:0:0:0:
299,88,186940,1,0,0:0:0:0:
323,352,187140,1,4,0:0:0:0:
389,129,187340,1,0,0:0:0:0:
192,353,187540,5,4,0:0:0:0:
121,118,187740,1,0,0:0:0:0:
103,354,187940,5,4,0:0:0:0:
208,112,188140,1,0,0:0:0:0:
13,278,188340,5,4,0:0:0:0:
296,272,188540,1,0,0:0:0:0:
3,159,188740,5,4,0:0:0:0:
192,353,188940,1,0,0:0:0:0:
121,118,189140,5,4,0:0:0:0:
128,83,189240,1,0,0:0:0:0:
150,55,189340,1,4,0:0:0:0:
183,40,189440,1,0,0:0:0:0:
219,41,189540,1,4,0:0:0:0:
250,59,189640,1,0,0:0:0:0:
270,89,189740,1,4,0:0:0:0:
274,125,189840,1,0,0:0:0:0:
262,158,189940,1,4,0:0:0:0:
235,200,190040,1,0,0:0:0:0:
233,250,190140,1,4,0:0:0:0:
256,295,190240,1,0,0:0:0:0:
298,321,190340,1,4,0:0:0:0:
348,324,190440,1,0,0:0:0:0:
393,301,190540,1,4,0:0:0:0:
420,258,190640,1,0,0:0:0:0:
438,201,190740,6,0,P|437:119|433:89,3,72.5,4|0|4|0,0:0|0:0|0:0|0:0,0:0:0:0:
274,52,191140,2,0,P|272:88|274:125,3,72.5,4|0|4|0,0:0|0:0|0:0|0:0,0:0:0:0:
100,332,191540,5,4,0:0:0:0:
95,275,191640,1,0,0:0:0:0:
129,230,191740,1,4,0:0:0:0:
185,220,191840,1,0,0:0:0:0:
233,250,191940,1,4,0:0:0:0:
293,286,192040,1,0,0:0:0:0:
361,267,192140,1,4,0:0:0:0:
393,204,192240,1,0,0:0:0:0:
369,138,192340,1,4,0:0:0:0:
299,105,192440,1,0,0:0:0:0:
227,135,192540,1,4,0:0:0:0:
199,207,192640,1,0,0:0:0:0:
234,277,192740,6,0,P|283:339|293:347,3,72.5,4|0|4|0,0:0|0:0|0:0|0:0,0:0:0:0:
64,155,193140,5,4,0:0:0:0:
99,77,193240,1,4,0:0:0:0:
176,41,193340,1,4,0:0:0:0:
258,64,193440,1,4,0:0:0:0:
306,134,193540,1,4,0:0:0:0:
296,219,193640,1,4,0:0:0:0:
234,277,193740,1,4,0:0:0:0:
149,281,193840,1,4,0:0:0:0:
82,228,193940,6,0,P|54:169|94:73,1,175,2|0,0:0|0:0,0:0:0:0:
265,340,195540,6,0,P|253:166|263:65,1,210,2|0,0:0|0:0,0:0:0:0:
82,228,195940,2,0,P|196:96|275:32,1,210,2|0,0:0|0:0,0:0:0:0:
430,228,196340,2,0,P|315:96|236:32,1,210,2|0,0:0|0:0,0:0:0:0:
254,238,196740,6,0,B|268:107,1,70,2|0,0:0|0:0,0:0:0:0:
230,3,196940,2,0,B|216:134,1,70,2|0,0:0|0:0,0:0:0:0:
0,296,197140,6,0,P|-2:203|86:253,1,210,2|0,0:0|0:0,0:0:0:0:
93,320,197540,2,0,P|167:263|62:255,1,225,2|0,0:0|0:0,0:0:0:0:
274,326,197940,2,0,P|233:224|209:341,1,232.5,2|0,0:0|0:0,0:0:0:0:
274,326,198340,2,0,P|248:230|284:149,1,160,2|0,0:0|0:0,0:0:0:0:
371,224,198640,5,2,0:0:0:0:
397,144,198740,2,0,P|395:58|255:-7,1,240,2|0,0:0|0:0,0:0:0:0:
118,107,199140,6,0,B|311:43,1,110,2|0,0:0|0:0,0:0:0:0:
501,109,199340,2,0,B|308:173,1,110,2|0,0:0|0:0,0:0:0:0:
169,281,199540,6,0,P|199:168|310:233,1,255,2|0,0:0|0:0,0:0:0:0:
274,326,199940,2,0,P|193:239|46:256,1,255,2|0,0:0|0:0,0:0:0:0:
164,356,200340,6,0,B|152:166,1,120,6|0,0:0|0:0,0:0:0:0:
222,72,200540,2,0,B|210:262,1,120,6|2,0:0|0:0,0:0:0:0:
96,358,200740,6,0,B|142:222,1,120,6|0,0:0|0:0,0:0:0:0:
289,69,200940,2,0,B|226:198,1,120,6|0,0:0|0:0,0:0:0:0:
274,326,201140,6,0,P|374:200|281:337,1,480,2|2,0:0|0:0,0:0:0:0:
512,166,201840,5,2,0:0:0:0:
481,83,201940,2,0,P|354:46|186:92,1,270,2|0,0:0|0:0,0:0:0:0:
266,275,202340,6,0,P|268:134|230:-15,1,270,2|0,0:0|0:0,0:0:0:0:
134,245,202740,2,0,P|350:189|407:143,1,270,2|0,0:0|0:0,0:0:0:0:
98,98,203140,2,0,P|67:206|100:366,1,270,2|0,0:0|0:0,0:0:0:0:
384,163,203540,6,0,B|140:28,1,270,2|0,0:0|0:0,0:0:0:0:
172,357,203940,2,0,B|94:89,1,270,2|0,0:0|0:0,0:0:0:0:
401,147,204340,6,0,B|126:-4,1,270,2|0,0:0|0:0,0:0:0:0:
154,372,204740,2,0,B|85:131,1,180,2|0,0:0|0:0,0:0:0:0:
90,46,205040,5,2,0:0:0:0:
6,133,205140,2,0,P|101:227|218:294,1,270,2|0,0:0|0:0,0:0:0:0:
458,228,205540,6,0,P|352:211|331:212,1,105,2|0,0:0|0:0,0:0:0:0:
154,372,205740,2,0,P|261:368|281:363,1,105,2|0,0:0|0:0,0:0:0:0:
458,228,205940,6,0,P|383:212|121:248,1,300,2|0,0:0|0:0,0:0:0:0:
29,362,206340,2,0,P|25:270|27:224,1,100,2|0,0:0|0:0,0:0:0:0:
161,68,206540,2,0,P|130:154|111:196,1,100,2|0,0:0|0:0,0:0:0:0:
258,369,206740,6,0,P|330:211|344:207,1,150,6|0,0:0|0:0,0:0:0:0:
492,91,206940,2,0,P|420:249|406:253,1,150,6|2,0:0|0:0,0:0:0:0:
249,374,207140,6,0,P|327:203|342:199,1,150,6|0,0:0|0:0,0:0:0:0:
507,85,207340,2,0,P|506:159|466:221,1,150,6|0,0:0|0:0,0:0:0:0:
275,80,207540,5,2,0:0:0:0:
275,80,207940,2,0,P|248:280|214:387,1,300,2|0,0:0|0:0,0:0:0:0:
9,137,208340,6,0,P|87:171|-16:243,1,225,2|0,0:0|0:0,0:0:0:0:
92,290,208740,2,0,P|95:191|24:261,1,255,2|0,0:0|0:0,0:0:0:0:
54,325,209140,2,0,P|137:276|23:286,1,285,2|0,0:0|0:0,0:0:0:0:
139,122,209540,6,0,P|213:195|217:226,1,100,2|0,0:0|0:0,0:0:0:0:
242,303,209740,2,0,P|290:312|338:298,1,100,2|0,0:0|0:0,0:0:0:0:
438,130,209940,6,0,B|450:384,1,255,2|0,0:0|0:0,0:0:0:0:
254,48,210340,2,0,B|241:302,1,255,2|0,0:0|0:0,0:0:0:0:
449,130,210740,6,0,B|461:384,1,255,2|0,0:0|0:0,0:0:0:0:
244,48,211140,2,0,B|233:277,1,170,2|0,0:0|0:0,0:0:0:0:
150,384,211440,5,2,0:0:0:0:
280,356,211540,2,0,P|326:236|232:218,1,255,2|0,0:0|0:0,0:0:0:0:
57,284,211940,6,0,P|122:157|142:136,1,100,2|0,0:0|0:0,0:0:0:0:
243,47,212140,2,0,P|266:91|281:139,1,100,2|0,0:0|0:0,0:0:0:0:
150,384,212340,6,0,P|142:204|145:57,1,255,2|0,0:0|0:0,0:0:0:0:
357,160,212740,2,0,P|248:246|104:285,1,240,2|0,0:0|0:0,0:0:0:0:
72,0,213140,6,0,P|58:175|55:309,1,285,2|0,0:0|0:0,0:0:0:0:
280,356,213540,2,0,B|263:47,1,270,2|0,0:0|0:0,0:0:0:0:
87,25,213940,6,0,B|72:289,1,255,2|0,0:0|0:0,0:0:0:0:
251,90,214340,1,2,0:0:0:0:
251,90,214540,6,0,P|260:127|315:214,1,115,2|0,0:0|0:0,0:0:0:0:
512,201,214740,6,0,P|345:192|166:224,1,330,2|0,0:0|0:0,0:0:0:0:
512,352,215140,2,0,P|349:378|185:369,1,330,2|0,0:0|0:0,0:0:0:0:
512,191,215540,6,0,P|345:182|166:214,1,330,2|0,0:0|0:0,0:0:0:0:
512,363,215940,2,0,P|349:389|185:380,1,330,2|0,0:0|0:0,0:0:0:0:
296,194,216340,6,0,P|355:80|207:155,1,330,2|0,0:0|0:0,0:0:0:0:
171,260,216740,6,0,P|252:297|171:233,1,300,2|0,0:0|0:0,0:0:0:0:
171,260,217140,2,0,P|251:308|171:233,1,345,2|0,0:0|0:0,0:0:0:0:
171,260,217540,2,0,P|249:320|171:233,1,405,2|0,0:0|0:0,0:0:0:0:
243,249,217940,6,0,P|265:104|261:18,1,155,2|0,0:0|0:0,0:0:0:0:
64,0,218140,2,0,P|70:77|86:152,1,155,2|0,0:0|0:0,0:0:0:0:
243,249,218340,6,0,P|265:104|139:254,1,465,2|0,0:0|0:0,0:0:0:0:
480,384,218740,6,0,P|340:271|315:259,1,160,2|0,0:0|0:0,0:0:0:0:
4,219,218940,2,0,P|144:332|169:344,1,160,2|0,0:0|0:0,0:0:0:0:
480,384,219140,6,0,P|441:202|359:375,1,480,2|0,0:0|0:0,0:0:0:0:
128,384,219540,5,4,0:0:0:0:
320,0,219740,1,4,0:0:0:0:
64,384,219940,5,4,0:0:0:0:
384,0,220140,1,4,0:0:0:0:
1,266,220340,6,0,B|255:195,1,210,2|4,0:0|0:0,0:0:0:0:
347,363,220740,2,0,B|144:306,1,210,2|4,0:0|0:0,0:0:0:0:
292,74,221140,6,0,B|438:204|304:266|479:383,1,375,2|0,0:0|0:0,0:0:0:0:
463,133,221540,2,0,P|265:192|384:253,1,375,2|0,0:0|0:0,0:0:0:0:
487,276,221940,2,0,P|313:176|283:342,1,375,2|0,0:0|0:0,0:0:0:0:
479,383,222340,6,0,P|366:294|273:266,1,125,2|0,0:0|0:0,0:0:0:0:
260,286,222540,2,0,P|208:250|164:206,1,125,2|0,0:0|0:0,0:0:0:0:
301,11,222740,6,0,P|264:137|133:11,1,375,2|0,0:0|0:0,0:0:0:0:
281,209,223140,2,0,B|443:177|499:83|414:26|347:-2|303:90,1,375,2|0,0:0|0:0,0:0:0:0:
487,276,223540,2,0,P|503:145|425:273,1,375,2|0,0:0|0:0,0:0:0:0:
347,369,223940,2,0,P|272:179|295:64,1,250,2|0,0:0|0:0,0:0:0:0:
320,0,224240,5,2,0:0:0:0:
274,138,224340,2,0,P|136:150|250:32,1,375,2|0,0:0|0:0,0:0:0:0:
147,297,224740,6,0,P|183:135|201:105,1,125,2|0,0:0|0:0,0:0:0:0:
320,0,224940,2,0,P|335:60|338:122,1,125,2|0,0:0|0:0,0:0:0:0:
62,109,225140,6,0,B|262:37|224:230|398:209,1,375,2|0,0:0|0:0,0:0:0:0:
503,152,225540,2,0,P|544:274|423:168,1,375,2|0,0:0|0:0,0:0:0:0:
250,0,225940,6,0,B|251:112|267:110|267:198,1,200,6|0,0:0|0:0,0:0:0:0:
213,384,226140,2,0,B|211:271|195:273|195:185,1,200,6|2,0:0|0:0,0:0:0:0:
265,0,226340,6,0,B|266:112|282:110|282:198,1,200,6|0,0:0|0:0,0:0:0:0:
198,384,226540,2,0,B|196:271|180:273|180:185,1,200,6|0,0:0|0:0,0:0:0:0:
265,0,226740,6,0,P|374:237|169:146,1,600,2|0,0:0|0:0,0:0:0:0:
298,127,227140,1,2,0:0:0:0:
298,127,227340,6,0,P|224:112|149:106,1,150,2|0,0:0|0:0,0:0:0:0:
304,338,227540,6,0,B|381:287|404:230|354:208|348:167|344:131|373:83|389:73|444:65|505:81|539:127|534:177|502:221|477:229|459:229|504:171,1,399,2|0,0:0|0:0,0:0:0:0:
487,347,227940,2,0,B|241:345|405:187|155:175,1,399,2|0,0:0|0:0,0:0:0:0:
50,285,228340,2,0,P|232:263|77:199,1,399,2|0,0:0|0:0,0:0:0:0:
100,32,228740,2,0,P|2:172|163:159,1,399,2|0,0:0|0:0,0:0:0:0:
441,156,229140,6,0,P|207:80|63:142,1,399,2|0,0:0|0:0,0:0:0:0:
389,323,229540,2,0,P|354:177|318:359,1,399,2|0,0:0|0:0,0:0:0:0:
487,347,229940,2,0,P|459:155|283:78,1,399,2|0,0:0|0:0,0:0:0:0:
205,367,230340,2,0,B|84:317|212:187|94:149,1,266,2|0,0:0|0:0,0:0:0:0:
32,256,230640,5,2,0:0:0:0:
97,149,230740,2,0,P|259:30|258:177,1,399,2|0,0:0|0:0,0:0:0:0:
293,313,231140,6,0,P|437:382|449:379,1,138,2|0,0:0|0:0,0:0:0:0:
469,166,231340,2,0,P|330:87|317:89,1,138,2|0,0:0|0:0,0:0:0:0:
202,378,231540,2,0,B|134:158|307:199|175:0,1,399,2|0,0:0|0:0,0:0:0:0:
24,308,231940,2,0,P|159:188|293:332,1,399,2|0,0:0|0:0,0:0:0:0:
0,185,232340,6,0,P|80:131|176:115,1,195,6|0,0:0|0:0,0:0:0:0:
512,146,232541,2,0,P|431:200|335:216,1,195,6|2,0:0|0:0,0:0:0:0:
0,170,232740,6,0,P|80:116|176:100,1,195,6|0,0:0|0:0,0:0:0:0:
512,161,232941,2,0,P|431:215|335:231,1,195,6|0,0:0|0:0,0:0:0:0:
106,37,233140,5,2,0:0:0:0:
106,37,233540,2,0,P|194:287|180:32,1,585,2|0,0:0|0:0,0:0:0:0:
509,148,233940,6,0,B|379:-15|314:198|180:-17,1,375,2|0,0:0|0:0,0:0:0:0:
461,0,234340,2,0,P|438:207|522:161,1,375,2|0,0:0|0:0,0:0:0:0:
425,284,234740,2,0,P|250:100|298:-13,1,375,2|0,0:0|0:0,0:0:0:0:
509,148,235140,6,0,P|492:293|465:332,1,125,2|0,0:0|0:0,0:0:0:0:
352,384,235340,2,0,P|259:271|249:224,1,125,2|0,0:0|0:0,0:0:0:0:
184,119,235540,6,0,P|74:264|236:237,1,375,2|0,0:0|0:0,0:0:0:0:
204,55,235940,2,0,P|76:176|215:288,1,375,2|0,0:0|0:0,0:0:0:0:
252,0,236340,2,0,P|129:110|207:301,1,375,2|0,0:0|0:0,0:0:0:0:
476,114,236740,2,0,B|387:76|342:206|242:116,1,250,2|0,0:0|0:0,0:0:0:0:
199,0,237040,5,2,0:0:0:0:
243,117,237140,2,0,P|177:253|111:86,1,375,2|0,0:0|0:0,0:0:0:0:
337,16,237540,6,0,P|356:161|344:236,1,125,2|0,0:0|0:0,0:0:0:0:
325,299,237740,2,0,P|198:373|125:391,1,125,2|0,0:0|0:0,0:0:0:0:
72,178,237940,6,0,B|238:49|206:296|412:190,1,375,2|0,0:0|0:0,0:0:0:0:
505,0,238340,2,0,P|339:123|422:197,1,375,2|0,0:0|0:0,0:0:0:0:
512,384,238740,6,0,P|543:194|410:69,1,375,2|0,0:0|0:0,0:0:0:0:
154,217,239140,2,0,P|374:328|449:176,1,375,2|0,0:0|0:0,0:0:0:0:
344,0,239540,2,0,P|214:185|368:298,1,375,2|0,0:0|0:0,0:0:0:0:
346,164,239940,5,2,0:0:0:0:
346,164,240140,2,0,P|396:62|416:4,1,150,2|0,0:0|0:0,0:0:0:0:
140,29,240340,6,0,B|4:222|273:207|106:379,1,390,2|0,0:0|0:0,0:0:0:0:
0,160,240740,2,0,P|215:182|232:331,1,390,2|0,0:0|0:0,0:0:0:0:
434,377,241140,6,0,B|337:206|540:204|407:26,1,375,2|0,0:0|0:0,0:0:0:0:
242,123,241540,2,0,P|433:203|447:96,1,375,2|0,0:0|0:0,0:0:0:0:
140,29,241940,6,0,P|317:90|367:306,1,360,2|0,0:0|0:0,0:0:0:0:
131,300,242340,2,0,P|195:100|276:183,1,360,2|0,0:0|0:0,0:0:0:0:
290,384,242740,6,0,B|179:215|403:243|292:68,1,345,2|0,0:0|0:0,0:0:0:0:
459,273,243140,2,0,P|271:106|184:209,1,345,2|0,0:0|0:0,0:0:0:0:
22,341,243540,6,0,P|78:206|122:318,1,330,2|0,0:0|0:0,0:0:0:0:
22,341,243940,2,0,P|28:224|116:329,1,300,2|0,0:0|0:0,0:0:0:0:
22,341,244340,2,0,P|35:232|116:329,1,270,2|0,0:0|0:0,0:0:0:0:
22,341,244740,2,0,P|37:243|116:329,1,240,2|0,0:0|0:0,0:0:0:0:
224,370,245140,6,0,B|212:250,1,100,2|0,0:0|0:0,0:0:0:0:
224,370,245340,2,0,B|212:250,1,110,2|2,0:0|0:0,0:0:0:0:
305,283,245540,6,0,B|317:163,1,100,2|0,0:0|0:0,0:0:0:0:
305,283,245740,2,0,B|317:163,1,110,2|2,0:0|0:0,0:0:0:0:
224,370,245940,6,0,B|194:75,1,285,6|0,0:0|0:0,0:0:0:0:
305,283,246340,6,0,B|334:-11,1,285,6|0,0:0|0:0,0:0:0:0:
418,348,246740,6,0,B|428:229,1,100,8|0,0:0|0:0,0:0:0:0:
319,141,247140,2,0,B|310:240,1,100,8|0,0:0|0:0,0:0:0:0:
426,348,247540,2,0,B|436:229,1,100,8|0,0:0|0:0,0:0:0:0:
311,141,247940,2,0,B|302:240,1,100,8|0,0:0|0:0,0:0:0:0:
434,347,248340,6,0,B|444:228,1,100,8|0,0:0|0:0,0:0:0:0:
303,141,248740,2,0,B|294:240,1,100,8|0,0:0|0:0,0:0:0:0:
442,347,249140,2,0,B|452:228,1,100,8|0,0:0|0:0,0:0:0:0:
295,141,249540,2,0,B|286:240,1,100,8|0,0:0|0:0,0:0:0:0:
128,384,249940,6,0,P|111:273|112:239,1,100,8|0,0:0|0:0,0:0:0:0:
232,128,250340,2,0,P|226:177|215:226,1,100,8|0,0:0|0:0,0:0:0:0:
120,384,250740,2,0,P|103:273|104:239,1,100,8|0,0:0|0:0,0:0:0:0:
240,128,251140,2,0,P|234:177|223:226,1,100,8|0,0:0|0:0,0:0:0:0:
112,384,251540,6,0,P|95:273|96:239,1,100,8|0,0:0|0:0,0:0:0:0:
248,128,251940,2,0,P|242:177|231:226,1,100,8|0,0:0|0:0,0:0:0:0:
104,384,252340,2,0,P|87:273|88:239,1,100,8|0,0:0|0:0,0:0:0:0:
239,226,252740,2,0,P|250:177|255:127,1,100,8|0,0:0|0:0,0:0:0:0:
256,128,253140,6,0,B|385:102,1,110,8|0,0:0|0:0,0:0:0:0:
512,272,253540,2,0,B|404:250,1,110,8|0,0:0|0:0,0:0:0:0:
256,112,253940,2,0,B|385:86,1,110,8|0,0:0|0:0,0:0:0:0:
512,272,254340,2,0,B|404:250,1,110,8|0,0:0|0:0,0:0:0:0:
256,96,254740,6,0,B|385:70,1,110,8|0,0:0|0:0,0:0:0:0:
512,288,255140,2,0,B|404:266,1,110,8|0,0:0|0:0,0:0:0:0:
256,80,255540,2,0,B|385:54,1,110,8|0,0:0|0:0,0:0:0:0:
512,304,255940,2,0,B|404:282,1,110,8|0,0:0|0:0,0:0:0:0:
87,285,256340,6,0,P|67:214|63:164,1,110,8|0,0:0|0:0,0:0:0:0:
288,303,256740,2,0,P|308:232|312:182,1,110,8|0,0:0|0:0,0:0:0:0:
76,284,257140,2,0,P|58:226|50:166,1,110,8|0,0:0|0:0,0:0:0:0:
298,303,257540,2,0,P|316:246|324:186,1,110,8|0,0:0|0:0,0:0:0:0:
59,283,257940,6,0,P|39:223|29:160,1,110,8|0,0:0|0:0,0:0:0:0:
315,306,258340,2,0,P|334:246|344:183,1,110,8|0,0:0|0:0,0:0:0:0:
46,282,258740,2,0,P|24:216|14:147,1,110,8|0,0:0|0:0,0:0:0:0:
357,196,259140,2,0,P|346:253|327:307,1,110,8|0,0:0|0:0,0:0:0:0:
192,112,259540,5,8,0:0:0:0:
208,272,259740,1,4,0:0:0:0:
208,96,259940,1,8,0:0:0:0:
192,288,260140,1,4,0:0:0:0:
176,80,260340,5,8,0:0:0:0:
224,304,260540,1,4,0:0:0:0:
224,64,260740,1,8,0:0:0:0:
176,320,260940,1,4,0:0:0:0:
371,90,261140,5,8,0:0:0:0:
462,180,261340,1,4,0:0:0:0:
371,271,261540,1,8,0:0:0:0:
281,180,261740,1,4,0:0:0:0:
371,71,261940,5,8,0:0:0:0:
481,179,262140,1,4,0:0:0:0:
371,289,262340,1,8,0:0:0:0:
263,179,262540,1,4,0:0:0:0:
141,81,262740,5,8,0:0:0:0:
40,180,262940,1,4,0:0:0:0:
141,280,263140,1,8,0:0:0:0:
240,180,263340,1,4,0:0:0:0:
141,60,263540,5,8,0:0:0:0:
20,178,263740,1,4,0:0:0:0:
141,299,263940,1,8,0:0:0:0:
259,178,264140,1,4,0:0:0:0:
256,336,264340,5,8,0:0:0:0:
256,48,264540,1,4,0:0:0:0:
240,352,264740,5,8,0:0:0:0:
272,32,264940,1,4,0:0:0:0:
224,368,265140,5,8,0:0:0:0:
288,16,265340,1,4,0:0:0:0:
208,384,265540,5,8,0:0:0:0:
304,0,265740,1,4,0:0:0:0:
416,192,265940,5,0,0:0:0:0:
416,208,266040,1,4,0:0:0:0:
416,224,266140,1,8,0:0:0:0:
416,240,266240,1,4,0:0:0:0:
400,256,266340,5,8,0:0:0:0:
400,273,266440,1,4,0:0:0:0:
400,291,266540,1,8,0:0:0:0:
400,308,266640,1,4,0:0:0:0:
400,320,266740,5,8,0:0:0:0:
380,352,266840,1,4,0:0:0:0:
346,369,266940,1,8,0:0:0:0:
308,364,267040,1,4,0:0:0:0:
280,339,267140,1,8,0:0:0:0:
249,307,267240,1,4,0:0:0:0:
210,289,267340,1,8,0:0:0:0:
166,285,267440,1,4,0:0:0:0:
124,298,267540,6,4,P|71:338|57:351,3,55,8|4|8|0,0:0|0:0|0:0|0:0,0:0:0:0:
146,190,267940,2,0,P|124:206|101:222,3,55,8|4|8|4,0:0|0:0|0:0|0:0,0:0:0:0:
204,23,268340,5,8,0:0:0:0:
245,9,268440,1,4,0:0:0:0:
288,16,268540,1,8,0:0:0:0:
323,41,268640,1,4,0:0:0:0:
343,81,268740,1,8,0:0:0:0:
352,132,268840,1,4,0:0:0:0:
386,172,268940,1,8,0:0:0:0:
433,192,269040,1,4,0:0:0:0:
486,189,269140,6,0,P|551:157|556:153,3,55,8|4|8|4,0:0|0:0|0:0|0:0,0:0:0:0:
412,293,269540,2,0,P|347:261|342:257,3,55,8|4|4|8,0:0|0:0|0:0|0:0,0:0:0:0:
202,373,269940,5,8,0:0:0:0:
139,356,270040,1,4,0:0:0:0:
101,304,270140,1,8,0:0:0:0:
103,239,270240,1,4,0:0:0:0:
146,190,270340,1,8,0:0:0:0:
209,179,270440,1,4,0:0:0:0:
266,209,270540,1,8,0:0:0:0:
291,269,270640,1,4,0:0:0:0:
274,331,270740,6,0,B|238:401,3,73.33334,8|8|8|8,0:0|0:0|0:0|0:0,0:0:0:0:
146,190,271540,6,0,B|182:120,3,73.33334,12|4|4|4,0:0|0:0|0:0|0:0,0:0:0:0:
256,192,272340,5,14,0:0:0:0:
