osu file format v14

[General]
AudioFilename: audio.mp3
AudioLeadIn: 0
PreviewTime: 221100
Countdown: 0
SampleSet: None
StackLeniency: 0.3
Mode: 0
LetterboxInBreaks: 0
WidescreenStoryboard: 1

[Editor]
Bookmarks: 28275,110345,118745,137945,149145,168345,169945,182745,193945,195545,219545,237745
DistanceSpacing: 0.8
BeatDivisor: 4
GridSize: 32
TimelineZoom: 2

[Metadata]
Title:Griechischer Wein (HBz Hard-Bounce Remix)
TitleUnicode:Griechischer Wein (HBz Hard-Bounce Remix)
Artist:Udo Juergens
ArtistUnicode:Udo Jürgens
Creator:Yonoshix
Version:Alkfrei
Source:Ich war noch niemals in New York
Tags:Ich war noch niemals in New York Hardstyle Hard Bounce Deutsch German Musical /8
BeatmapID:3147771
BeatmapSetID:979623

[Difficulty]
HPDrainRate:1
CircleSize:3.8
OverallDifficulty:4
ApproachRate:8.3
SliderMultiplier:1.7
SliderTickRate:1

[Events]
//Background and Video events
0,0,"I bims 2 Besssssssssoffffennne menschen namens udo fucking juergens looool pog xddddddddd d d du stinkst.png",0,0
//Break Periods
//Storyboard Layer 0 (Background)
//Storyboard Layer 1 (Fail)
//Storyboard Layer 2 (Pass)
//Storyboard Layer 3 (Foreground)
//Storyboard Layer 4 (Overlay)
//Storyboard Sound Samples

[TimingPoints]
350,400,4,1,2,75,1,0
6750,-88.4955752212389,4,1,2,75,0,0
8350,-86.2068965517241,4,1,2,75,0,0
9950,-84.0336134453781,4,1,2,75,0,0
11550,-81.9672131147541,4,1,2,75,0,0
19550,-100,4,1,2,75,0,0
24350,-500,4,1,2,75,0,0
37372,398.142,4,2,2,49,1,0
37372,-133.333333333333,4,2,2,49,0,0
38572,397.614314115308,4,2,2,49,1,0
38572,-133.333333333333,4,2,2,49,0,0
47310,398.671096345515,4,2,2,49,1,0
47310,-133.333333333333,4,2,2,49,0,0
64095,403.497,4,2,2,49,1,0
64095,-133.333333333333,4,2,2,49,0,0
91936,-100,4,2,2,49,0,0
92339,-95.2380952380952,4,2,2,49,0,0
92743,-90.9090909090909,4,2,2,49,0,0
93045,-86.9565217391304,4,2,2,5,0,0
93145,400,4,1,2,88,1,0
93145,-83.3333333333333,4,1,2,88,0,0
137945,-333.333333333333,4,1,2,88,0,0
144145,-66.6666666666667,4,1,2,5,0,0
144345,-250,4,1,2,60,0,0
144945,-250,4,1,2,88,0,0
145145,-250,4,1,2,60,0,0
146545,-250,4,1,2,88,0,0
146745,-250,4,1,2,60,0,0
147345,-250,4,1,2,88,0,0
147545,-250,4,1,2,60,0,0
151345,-250,4,1,2,88,0,0
151545,-250,4,1,2,60,0,0
152945,-250,4,1,2,88,0,0
154345,-250,4,1,2,60,0,0
155545,-250,4,1,2,88,0,0
155945,-250,4,1,2,60,0,0
157145,-166.666666666667,4,1,2,60,0,0
157545,-166.666666666667,4,1,2,70,0,0
158545,-166.666666666667,4,1,2,88,0,0
158745,-166.666666666667,4,1,2,70,0,0
161745,-166.666666666667,4,1,2,88,0,0
161945,-166.666666666667,4,1,2,70,0,0
165945,-166.666666666667,4,1,2,75,0,0
166145,-166.666666666667,4,1,2,88,0,0
166345,-166.666666666667,4,1,2,75,0,0
166745,-166.666666666667,4,1,2,80,0,0
167645,-166.666666666667,4,1,2,88,0,0
167945,-166.666666666667,4,1,2,80,0,0
168045,-166.666666666667,4,1,2,88,0,0
168345,-166.666666666667,4,1,2,30,0,0
169945,-133.333333333333,4,1,3,85,0,0
174645,-133.333333333333,4,2,3,5,0,0
174745,-133.333333333333,4,1,3,85,0,0
175045,-133.333333333333,4,2,3,5,0,0
175145,-133.333333333333,4,1,3,85,0,0
176245,-133.333333333333,4,2,3,5,0,0
176345,-133.333333333333,4,1,3,90,0,0
182745,-133.333333333333,4,1,3,93,0,0
189145,-133.333333333333,4,1,3,95,0,0
193945,-500,4,1,3,90,0,0
195445,-500,4,2,3,5,0,0
195545,-100,4,1,3,100,0,0
197045,-100,4,1,3,5,0,0
197145,-100,4,1,3,100,0,0
200345,-83.3333333333333,4,1,3,100,0,0
201145,-100,4,1,3,100,0,0
201444,-100,4,2,3,5,0,0
201545,-100,4,1,3,100,0,0
201945,-90.9090909090909,4,1,3,100,0,0
203345,-90.9090909090909,4,1,3,88,0,0
203444,-90.9090909090909,4,1,3,100,0,0
206645,-90.9090909090909,4,1,3,5,0,0
206745,-83.3333333333333,4,1,3,100,0,0
207545,-125,4,1,3,100,0,0
207845,-125,4,2,3,5,0,0
207945,-90.9090909090909,4,1,3,100,0,0
208345,-95.2380952380952,4,1,3,100,0,0
208745,-95.2380952380952,4,1,3,100,0,0
214645,-95.2380952380952,4,1,3,88,0,0
214745,-86.9565217391304,4,1,3,100,0,0
215145,-86.9565217391304,4,1,3,100,0,0
215545,-86.9565217391304,4,1,3,100,0,0
215945,-86.9565217391304,4,1,3,100,0,0
216345,-86.9565217391304,4,1,3,100,0,0
216745,-86.9565217391304,4,1,3,100,0,0
217545,-86.9565217391304,4,1,3,100,0,0
218045,-86.9565217391304,4,1,3,88,0,0
218145,-86.9565217391304,4,1,3,100,0,0
218245,-86.9565217391304,4,1,3,88,0,0
218345,-86.9565217391304,4,1,3,100,0,0
218645,-86.9565217391304,4,2,3,5,0,0
218745,-86.9565217391304,4,1,3,100,0,0
218845,-86.9565217391304,4,1,3,5,0,0
218945,-86.9565217391304,4,1,3,100,0,0
219045,-86.9565217391304,4,1,3,5,0,0
219145,-86.9565217391304,4,1,3,100,0,0
219545,-86.9565217391304,4,1,3,70,0,0
220345,-133.333333333333,4,1,3,70,0,0
220645,-86.9565217391304,4,2,3,5,0,0
220745,-86.9565217391304,4,1,3,70,0,0
221045,-86.9565217391304,4,2,3,5,0,0
221145,-80,4,1,3,100,0,1
222645,-80,4,1,3,5,0,1
222745,-80,4,1,3,100,0,1
225945,-71.4285714285714,4,1,3,100,0,1
227345,-83.3333333333333,4,1,3,100,0,1
227445,-83.3333333333333,4,1,3,5,0,1
227545,-74.0740740740741,4,1,3,100,0,1
232345,-68.9655172413793,4,1,3,100,0,1
233145,-125,4,1,3,100,0,1
233445,-125,4,2,3,5,0,1
233545,-74.0740740740741,4,1,3,100,0,1
233945,-76.9230769230769,4,1,3,100,0,1
235445,-76.9230769230769,4,1,3,5,0,1
235545,-76.9230769230769,4,1,3,100,0,1
237945,-76.9230769230769,4,1,3,100,0,1
240245,-76.9230769230769,4,1,3,88,0,1
240345,-71.4285714285714,4,1,3,100,0,1
241545,-74.0740740740741,4,1,3,100,0,1
241945,-76.9230769230769,4,1,3,100,0,1
242745,-80,4,1,3,100,0,1
243145,-80,4,1,3,100,0,1
243545,-83.3333333333333,4,1,3,100,0,1
244345,-86.9565217391304,4,1,3,100,0,1
245145,-95.2380952380952,4,1,3,80,0,1
245945,-100,4,1,3,80,0,0
246144,-100,4,1,3,88,0,0
246345,-100,4,1,3,80,0,0
246544,-100,4,1,3,88,0,0
246745,-100,4,1,2,60,0,0
253145,-90.9090909090909,4,1,2,60,0,0
253345,-90.9090909090909,4,1,2,88,0,0
253545,-90.9090909090909,4,1,2,60,0,0
253745,-90.9090909090909,4,1,2,88,0,0
253945,-90.9090909090909,4,1,2,60,0,0
254145,-90.9090909090909,4,1,2,88,0,0
254345,-90.9090909090909,4,1,2,60,0,0
254545,-90.9090909090909,4,1,2,88,0,0
254745,-83.3333333333333,4,1,2,60,0,0
256345,-76.9230769230769,4,1,2,60,0,0
257945,-71.4285714285714,4,1,2,60,0,0
267545,-100,4,1,2,60,0,0
267645,-100,4,1,2,88,0,0
267945,-100,4,1,2,60,0,0
268045,-100,4,1,2,88,0,0
268345,-100,4,1,2,60,0,0
269245,-100,4,1,2,88,0,0
269545,-100,4,1,2,60,0,0
269645,-100,4,1,2,88,0,0
269945,-100,4,1,2,60,0,0

[Colours]
Combo1 : 209,157,1
Combo2 : 245,63,67
Combo3 : 255,28,107

[HitObjects]
217,185,37372,6,0,L|213:50,2,127.500004863739,0|0|0,0:0|0:0|3:0,0:0:0:0:
233,305,38572,6,0,P|298:281|355:320,1,127.500004863739,0|0,3:0|3:0,3:0:0:0:
415,376,39234,1,0,3:0:0:0:
415,376,39367,2,0,P|426:303|421:248,1,127.500004863739
346,83,40162,6,0,L|350:193,1,85.0000032424928,2|0,0:0|0:0,0:0:0:0:
261,210,40560,2,0,L|264:125,1,85.0000032424928,8|0,0:0|0:0,0:0:0:0:
179,63,40957,2,0,L|182:147,1,85.0000032424928,2|0,0:0|0:0,0:0:0:0:
97,211,41355,2,8,L|100:126,1,85.0000032424928,8|0,0:0|0:0,0:0:0:0:
17,14,41752,5,4,0:0:0:0:
17,14,42150,5,4,0:0:0:0:
17,14,42548,6,0,P|-5:85|9:142,1,127.500004863739,8|0,0:0|0:0,0:0:0:0:
139,153,43343,2,0,P|76:143|17:165,1,127.500004863739
14,315,44138,2,0,P|23:252|1:193,1,127.500004863739
1,193,44933,5,2,0:0:0:0:
99,263,45132,1,2,0:0:0:0:
209,212,45331,1,2,0:0:0:0:
321,256,45530,1,2,0:0:0:0:
427,197,45729,5,8,0:0:0:0:
427,197,46126,1,0,0:0:0:0:
427,197,46524,5,2,0:0:0:0:
321,256,46723,1,2,0:0:0:0:
209,212,46921,1,2,0:0:0:0:
99,263,47120,1,2,0:0:0:0:
1,193,47310,5,8,0:0:0:0:
1,193,47708,6,0,L|-3:61,2,127.500004863739
20,325,48904,6,0,P|77:289|148:321,1,127.500004863739
241,384,49569,1,0,0:0:0:0:
240,384,49702,2,0,P|266:327|246:268,1,127.500004863739
162,110,50499,6,0,L|154:226,1,85.0000032424928,2|0,0:0|0:0,0:0:0:0:
246,268,50898,2,0,L|238:152,1,85.0000032424928,8|0,0:0|0:0,0:0:0:0:
330,99,51296,2,0,L|322:215,1,85.0000032424928,2|0,0:0|0:0,0:0:0:0:
414,257,51695,2,0,L|406:141,1,85.0000032424928,8|0,0:0|0:0,0:0:0:0:
471,56,52094,5,4,0:0:0:0:
471,56,52492,1,4,0:0:0:0:
471,56,52891,6,0,P|475:130|470:197,1,127.500004863739,4|0,0:0|0:0,0:0:0:0:
323,213,53688,2,0,P|396:209|463:213,1,127.500004863739
478,356,54486,2,0,P|474:282|478:215,1,127.500004863739
481,198,55017,6,0,L|392:194,1,85.0000032424928
338,137,55416,2,0,L|398:71,2,85.0000032424928
276,219,56080,2,0,B|168:271|153:175|73:220,1,212.500008106232,4|0,0:0|0:0,0:0:0:0:
20,277,56878,5,0,0:0:0:0:
120,286,57143,1,0,0:0:0:0:
120,286,57276,2,0,P|188:279|234:287,1,85.0000032424928
289,328,57675,6,0,P|335:333|354:198,1,212.500008106232,4|0,0:0|0:0,0:0:0:0:
301,150,58472,1,0,0:0:0:0:
318,261,58738,1,0,0:0:0:0:
318,261,58871,2,0,P|321:314|316:348,1,85.0000032424928
238,384,59270,1,0,0:0:0:0:
148,300,59535,1,0,0:0:0:0:
148,300,59668,2,0,P|100:295|56:301,1,85.0000032424928
4,240,60067,6,0,P|6:173|33:108,1,127.500004863739
173,93,60864,2,0,P|113:115|50:116,1,127.500004863739
50,116,61662,5,2,0:0:0:0:
144,191,61861,1,2,0:0:0:0:
246,126,62060,1,2,0:0:0:0:
346,194,62260,1,2,0:0:0:0:
443,102,62459,5,4,0:0:0:0:
443,102,62858,1,0,0:0:0:0:
443,102,63256,5,2,0:0:0:0:
346,194,63455,1,2,0:0:0:0:
246,126,63655,1,2,0:0:0:0:
144,191,63854,1,2,0:0:0:0:
50,116,64054,1,0,0:0:0:0:
50,116,64498,6,0,P|118:102|164:116,1,85.0000032424928
206,153,64901,2,0,P|274:167|320:153,1,85.0000032424928
358,111,65305,2,0,P|426:97|472:111,1,85.0000032424928
498,159,65708,6,0,P|507:98|505:5,1,127.500004863739
315,87,66515,2,0,P|360:131|411:169,1,127.500004863739
322,271,67322,2,0,P|385:270|448:261,1,127.500004863739
345,119,68129,6,0,P|283:106|241:119,1,85.0000032424928
201,164,68533,2,0,P|139:177|97:164,1,85.0000032424928
51,111,68936,5,4,0:0:0:0:
51,111,69340,1,4,0:0:0:0:
51,111,69743,6,0,P|45:200|24:251,1,127.500004863739,8|0,0:0|0:0,0:0:0:0:
183,216,70550,2,0,P|115:274|64:295,1,127.500004863739
195,384,71357,2,0,P|105:378|55:357,1,127.500004863739
5,309,72164,5,2,0:0:0:0:
103,238,72366,1,2,0:0:0:0:
16,153,72568,1,2,0:0:0:0:
116,85,72770,1,2,0:0:0:0:
10,11,72971,5,4,0:0:0:0:
10,11,73375,1,0,0:0:0:0:
10,11,73778,5,2,0:0:0:0:
116,85,73979,1,2,0:0:0:0:
16,153,74181,1,2,0:0:0:0:
103,238,74383,1,2,0:0:0:0:
5,309,74585,1,4,3:0:0:0:
5,309,74989,6,0,P|70:298|116:316,1,85.0000032424928
155,354,75392,2,0,P|220:365|266:347,1,85.0000032424928
311,314,75796,2,0,P|376:303|422:321,1,85.0000032424928
472,358,76199,6,0,P|490:290|473:208,1,127.500004863739
311,314,77006,2,0,P|371:278|417:208,1,127.500004863739
238,153,77813,2,0,P|305:171|388:154,1,127.500004863739
486,35,78620,6,0,P|441:26|392:33,1,85.0000032424928
328,73,79024,2,0,P|283:82|234:75,1,85.0000032424928
170,21,79427,1,4,0:0:0:0:
170,21,79831,1,4,0:0:0:0:
170,21,80234,6,0,P|126:74|66:108,1,127.500004863739,4|0,0:0|0:0,0:0:0:0:
190,196,81041,2,0,P|121:202|54:183,1,127.500004863739
92,352,81848,2,0,P|39:308|5:248,2,127.500004863739
238,293,83059,1,0,0:0:0:0:
237,293,83462,6,0,P|300:282|363:292,1,127.500004863739,0|0,0:0|2:0,0:0:0:0:
341,160,84269,2,0,P|392:196|429:248,1,127.500004863739,0|0,2:0|0:0,2:0:0:0:
505,136,85076,2,0,P|515:198|505:261,2,127.500004863739,0|0|0,0:0|0:0|3:0,0:0:0:0:
375,25,86287,1,0,0:0:0:0:
375,25,86690,6,0,P|287:19|230:26,1,127.500004863739,0|0,3:0|3:0,0:0:0:0:
283,206,87497,2,0,P|225:139|179:104,1,127.500004863739
73,291,88304,2,0,P|79:203|71:146,1,127.500004863739
74,42,89111,5,0,0:0:0:0:
176,106,89313,1,0,0:0:0:0:
75,164,89515,1,0,0:0:0:0:
177,228,89717,1,0,0:0:0:0:
85,321,89918,5,0,0:0:0:0:
85,321,90322,1,0,0:0:0:0:
85,321,90725,5,0,0:0:0:0:
177,228,90926,1,0,0:0:0:0:
75,164,91128,1,0,0:0:0:0:
176,106,91330,1,0,0:0:0:0:
74,42,91532,1,0,0:0:0:0:
74,42,91936,6,0,P|138:69|200:48,1,113.333333333333
249,16,92339,2,0,P|318:3|374:38,1,118.999996368408
440,104,92743,1,0,0:0:0:0:
440,104,93145,6,0,L|444:215,1,101.999996887207,0|4,0:0|0:0,0:0:0:0:
345,273,93545,2,0,L|348:171,1,101.999996887207,8|4,0:0|0:0,0:0:0:0:
250,92,93945,1,8,0:0:0:0:
250,92,94145,1,4,0:0:0:0:
189,211,94345,1,8,0:0:0:0:
189,211,94545,1,4,0:0:0:0:
101,83,94745,6,0,L|-15:77,1,101.999996887207,8|4,0:0|0:0,0:0:0:0:
21,170,95145,2,0,L|137:164,1,101.999996887207,8|4,0:0|0:0,0:0:0:0:
111,73,95545,2,0,L|-5:67,1,101.999996887207,8|4,0:0|0:0,0:0:0:0:
31,160,95945,2,0,L|147:154,1,101.999996887207,8|4,0:0|0:0,0:0:0:0:
252,79,96345,6,0,L|372:82,1,101.999996887207,8|4,0:0|0:0,0:0:0:0:
445,193,96745,1,8,0:0:0:0:
319,157,96945,1,4,0:0:0:0:
229,270,97145,6,0,L|95:265,1,101.999996887207,8|4,0:0|0:0,0:0:0:0:
26,177,97545,2,0,L|160:172,1,101.999996887207,8|4,0:0|0:0,0:0:0:0:
252,79,97945,5,8,0:0:0:0:
289,200,98145,1,4,0:0:0:0:
350,64,98345,5,8,0:0:0:0:
387,185,98545,1,4,0:0:0:0:
448,49,98745,5,8,0:0:0:0:
485,170,98945,1,4,0:0:0:0:
512,96,99145,1,8,0:0:0:0:
512,96,99545,6,0,L|515:206,1,101.999996887207,8|4,0:0|0:0,0:0:0:0:
421,292,99945,2,0,L|424:182,1,101.999996887207,8|4,0:0|0:0,0:0:0:0:
335,101,100345,1,8,0:0:0:0:
335,101,100545,1,4,0:0:0:0:
259,212,100745,1,8,0:0:0:0:
259,212,100945,1,4,0:0:0:0:
139,122,101145,6,0,L|133:2,1,101.999996887207,8|4,0:0|0:0,0:0:0:0:
43,79,101545,2,0,L|37:199,1,101.999996887207,8|4,0:0|0:0,0:0:0:0:
149,112,101945,2,0,L|143:-8,1,101.999996887207,8|4,0:0|0:0,0:0:0:0:
53,69,102345,2,0,L|47:189,1,101.999996887207,8|4,0:0|0:0,0:0:0:0:
154,255,102745,6,0,L|293:250,1,101.999996887207,8|4,0:0|0:0,0:0:0:0:
371,155,103145,1,8,0:0:0:0:
232,167,103345,1,4,0:0:0:0:
323,53,103545,6,0,L|440:48,1,101.999996887207,8|4,0:0|0:0,0:0:0:0:
472,159,103945,2,0,L|370:154,1,101.999996887207,8|4,0:0|0:0,0:0:0:0:
245,52,104345,5,8,0:0:0:0:
193,172,104545,1,4,0:0:0:0:
151,26,104745,5,8,0:0:0:0:
99,146,104945,1,4,0:0:0:0:
57,0,105145,5,8,0:0:0:0:
5,120,105345,1,4,0:0:0:0:
0,47,105545,1,8,0:0:0:0:
0,47,105945,6,0,L|-8:162,1,101.999996887207,8|4,0:0|0:0,0:0:0:0:
106,247,106345,2,0,L|98:145,1,101.999996887207,8|4,0:0|0:0,0:0:0:0:
197,38,106745,1,8,0:0:0:0:
197,38,106945,1,4,0:0:0:0:
265,148,107145,1,8,0:0:0:0:
265,148,107345,1,4,0:0:0:0:
372,57,107545,6,0,L|477:54,1,101.999996887207,8|4,0:0|0:0,0:0:0:0:
453,166,107945,2,0,L|348:169,1,101.999996887207,8|4,0:0|0:0,0:0:0:0:
362,47,108345,2,0,L|467:44,1,101.999996887207,8|4,0:0|0:0,0:0:0:0:
443,156,108745,2,0,L|338:159,1,101.999996887207,8|4,0:0|0:0,0:0:0:0:
193,139,109145,6,0,L|197:23,1,101.999996887207,8|4,0:0|0:0,0:0:0:0:
315,20,109545,1,8,0:0:0:0:
272,125,109745,1,4,0:0:0:0:
383,200,109945,6,0,L|379:320,1,101.999996887207,8|4,0:0|0:0,0:0:0:0:
277,372,110345,2,0,L|273:252,1,101.999996887207,8|4,0:0|0:0,0:0:0:0:
193,139,110745,5,8,0:0:0:0:
152,263,110945,1,4,0:0:0:0:
116,113,111145,5,8,0:0:0:0:
76,240,111345,1,4,0:0:0:0:
203,129,111545,5,8,0:0:0:0:
162,253,111745,1,4,0:0:0:0:
126,103,111945,5,8,0:0:0:0:
86,230,112145,1,0,0:0:0:0:
37,111,112345,6,0,L|37:-5,1,101.999996887207,8|4,0:0|0:0,0:0:0:0:
126,103,112745,2,0,L|126:219,1,101.999996887207,8|4,0:0|0:0,0:0:0:0:
205,102,113145,2,0,L|205:-14,1,101.999996887207,8|4,0:0|0:0,0:0:0:0:
294,94,113545,2,0,L|294:210,1,101.999996887207,8|4,0:0|0:0,0:0:0:0:
378,291,113945,6,0,L|380:181,1,101.999996887207,8|4,0:0|0:0,0:0:0:0:
294,94,114345,1,8,0:0:0:0:
294,94,114545,1,4,0:0:0:0:
217,183,114745,1,8,0:0:0:0:
217,183,114945,1,4,0:0:0:0:
128,85,115145,1,8,0:0:0:0:
128,85,115345,1,4,0:0:0:0:
27,205,115545,6,0,L|21:318,1,101.999996887207,8|4,0:0|0:0,0:0:0:0:
131,383,115945,1,8,0:0:0:0:
223,287,116145,1,4,0:0:0:0:
305,384,116345,1,8,0:0:0:0:
397,288,116545,1,4,0:0:0:0:
509,377,116745,6,0,L|516:248,1,101.999996887207,8|4,0:0|0:0,0:0:0:0:
424,216,117145,2,0,L|417:87,1,101.999996887207,8|4,0:0|0:0,0:0:0:0:
295,13,117545,6,0,L|288:142,1,101.999996887207,8|4,0:0|0:0,0:0:0:0:
176,232,117945,2,0,L|181:130,1,101.999996887207,8|4,0:0|0:0,0:0:0:0:
89,27,118345,1,8,0:0:0:0:
89,27,118745,6,0,L|239:20,1,101.999996887207,8|4,0:0|0:0,0:0:0:0:
391,119,119145,2,0,L|241:112,1,101.999996887207,8|4,0:0|0:0,0:0:0:0:
118,161,119545,5,8,0:0:0:0:
213,93,119745,1,4,0:0:0:0:
160,244,119945,1,8,0:0:0:0:
248,178,120145,1,4,0:0:0:0:
260,329,120345,6,0,L|385:325,1,101.999996887207,8|4,0:0|0:0,0:0:0:0:
496,240,120745,2,0,L|371:236,1,101.999996887207,8|4,0:0|0:0,0:0:0:0:
298,137,121145,5,8,0:0:0:0:
298,137,121345,1,4,0:0:0:0:
235,252,121545,1,8,0:0:0:0:
235,252,121745,1,4,0:0:0:0:
118,161,121945,6,0,L|117:36,1,101.999996887207,8|4,0:0|0:0,0:0:0:0:
1,2,122345,1,8,0:0:0:0:
42,139,122545,1,4,0:0:0:0:
176,12,122745,6,0,L|305:5,1,101.999996887207,8|4,0:0|0:0,0:0:0:0:
403,106,123145,2,0,L|274:99,1,101.999996887207,8|4,0:0|0:0,0:0:0:0:
118,161,123545,5,8,0:0:0:0:
286,180,123745,1,4,0:0:0:0:
166,293,123945,1,8,0:0:0:0:
212,135,124145,1,4,0:0:0:0:
306,302,124345,5,8,0:0:0:0:
377,198,124545,1,4,0:0:0:0:
433,308,124745,1,8,0:0:0:0:
433,308,125145,6,0,L|436:189,1,101.999996887207,8|4,0:0|0:0,0:0:0:0:
342,28,125545,2,0,L|345:147,1,101.999996887207,8|4,0:0|0:0,0:0:0:0:
306,302,125945,1,8,0:0:0:0:
271,188,126145,1,4,0:0:0:0:
217,318,126345,1,8,0:0:0:0:
182,204,126545,1,4,0:0:0:0:
101,336,126745,6,0,L|-16:334,1,101.999996887207,8|4,0:0|0:0,0:0:0:0:
80,205,127145,2,0,L|197:203,1,101.999996887207,8|4,0:0|0:0,0:0:0:0:
285,290,127545,1,8,0:0:0:0:
285,290,127745,1,4,0:0:0:0:
365,201,127945,1,8,0:0:0:0:
365,201,128145,1,4,0:0:0:0:
232,127,128345,6,0,L|227:15,1,101.999996887207,8|4,0:0|0:0,0:0:0:0:
44,65,128745,1,8,0:0:0:0:
80,205,128945,1,4,0:0:0:0:
232,127,129145,2,0,L|349:123,1,101.999996887207,8|4,0:0|0:0,0:0:0:0:
466,204,129545,2,0,L|349:200,1,101.999996887207,8|4,0:0|0:0,0:0:0:0:
204,237,129945,5,8,0:0:0:0:
371,323,130145,1,4,0:0:0:0:
203,340,130345,1,8,0:0:0:0:
290,214,130545,1,4,0:0:0:0:
324,384,130745,5,8,0:0:0:0:
436,285,130945,1,4,0:0:0:0:
512,384,131145,1,8,0:0:0:0:
512,384,131545,6,0,L|516:270,1,101.999996887207,8|4,0:0|0:0,0:0:0:0:
462,102,131945,2,0,L|466:216,1,101.999996887207,8|4,0:0|0:0,0:0:0:0:
405,334,132345,1,8,0:0:0:0:
366,239,132545,1,4,0:0:0:0:
321,361,132745,1,8,0:0:0:0:
282,266,132945,1,4,0:0:0:0:
197,365,133145,6,0,L|95:360,1,101.999996887207,8|4,0:0|0:0,0:0:0:0:
3,252,133545,2,0,L|116:247,1,101.999996887207,8|4,0:0|0:0,0:0:0:0:
203,123,133945,1,8,0:0:0:0:
203,123,134145,1,4,0:0:0:0:
312,187,134345,1,8,0:0:0:0:
312,187,134545,1,4,0:0:0:0:
200,297,134745,2,0,L|191:159,1,101.999996887207,8|4,0:0|0:0,0:0:0:0:
279,29,135145,5,8,0:0:0:0:
372,141,135345,1,4,0:0:0:0:
193,195,135545,2,0,L|199:71,1,101.999996887207,8|4,0:0|0:0,0:0:0:0:
83,189,135945,2,0,L|89:313,1,101.999996887207,8|4,0:0|0:0,0:0:0:0:
244,370,136345,5,8,0:0:0:0:
185,221,136545,1,4,0:0:0:0:
138,375,136745,1,8,0:0:0:0:
277,282,136945,1,4,0:0:0:0:
118,181,137145,5,8,0:0:0:0:
154,303,137345,1,4,0:0:0:0:
257,211,137545,1,8,0:0:0:0:
257,211,137945,6,0,P|266:145|263:106,1,101.999996887207
64,32,139545,6,0,L|60:88,1,50.9999984436036
132,162,140345,2,0,L|136:218,1,50.9999984436036
225,318,141145,6,0,L|229:268,1,50.9999984436036
315,219,141945,2,0,L|311:168,1,50.9999984436036
255,61,142945,1,0,0:0:0:0:
255,61,144345,6,0,P|269:136|253:199,2,136,8|8|0,0:0|0:0|0:0,0:0:0:0:
178,137,146745,1,8,0:0:0:0:
254,213,147545,1,8,0:0:0:0:
320,344,147945,6,0,L|323:295,1,34,8|0,0:0|0:0,0:0:0:0:
363,225,148345,2,0,L|366:298,1,68,0|8,0:0|0:0,0:0:0:0:
454,129,149145,2,0,L|451:202,1,68,8|0,0:0|0:0,0:0:0:0:
355,49,149945,2,0,L|358:122,1,68,8|8,0:0|0:0,0:0:0:0:
210,198,150745,6,0,P|136:213|77:196,2,136,0|8|8,0:0|0:0|0:0,0:0:0:0:
132,120,153145,1,0,0:0:0:0:
55,196,153945,1,0,0:0:0:0:
154,273,154345,6,0,L|193:263,1,34
246,218,154745,2,0,L|171:213,1,68,8|8,0:0|0:0,0:0:0:0:
329,288,155545,2,0,L|254:293,1,68,0|8,0:0|0:0,0:0:0:0:
406,219,156345,2,0,L|331:214,1,68,8|0,0:0|0:0,0:0:0:0:
469,339,157145,5,8,0:0:0:0:
469,257,157545,1,8,0:0:0:0:
469,175,157945,1,8,0:0:0:0:
469,93,158345,1,8,0:0:0:0:
338,50,158745,5,8,0:0:0:0:
338,132,159145,1,8,0:0:0:0:
338,214,159545,1,8,0:0:0:0:
338,296,159945,1,8,0:0:0:0:
206,345,160345,5,8,0:0:0:0:
206,263,160745,1,8,0:0:0:0:
206,181,161145,1,8,0:0:0:0:
206,99,161545,1,8,0:0:0:0:
65,34,161945,5,8,0:0:0:0:
65,116,162345,1,8,0:0:0:0:
65,198,162745,1,8,0:0:0:0:
65,280,163145,1,8,0:0:0:0:
182,342,163545,6,0,L|236:337,7,50.9999984436036,8|8|8|8|8|8|8|8,0:0|0:0|0:0|0:0|0:0|0:0|0:0|0:0,0:0:0:0:
268,254,165145,2,0,L|322:259,7,50.9999984436036,8|8|8|8|8|0|8|8,0:0|0:0|0:0|0:0|0:0|0:0|0:0|0:0,0:0:0:0:
371,343,166745,2,0,L|405:336,16,25.4999992218018,8|8|8|8|8|8|8|8|8|0|0|0|8|0|0|0|0,0:0|0:0|0:0|0:0|0:0|0:0|0:0|0:0|0:0|0:0|0:0|0:0|0:0|0:0|0:0|0:0|0:0,0:0:0:0:
411,184,169945,6,0,L|412:334,1,127.500004863739,4|0,0:0|0:0,0:0:0:0:
337,155,170745,2,0,L|338:305,1,127.500004863739,4|0,0:0|0:0,0:0:0:0:
265,125,171545,2,0,L|266:275,1,127.500004863739,4|0,0:0|0:0,0:0:0:0:
188,92,172345,2,0,L|189:242,1,127.500004863739,4|0,0:0|0:0,0:0:0:0:
91,308,173145,5,4,0:0:0:0:
91,308,173545,2,0,L|86:227,1,63.7500024318696,4|4,0:0|0:0,0:0:0:0:
47,132,173945,2,0,L|34:274,1,127.500004863739,4|0,0:0|0:0,0:0:0:0:
157,81,174745,6,0,L|135:163,1,63.7500024318696,4|0,0:0|0:0,0:0:0:0:
249,65,175145,2,0,L|227:147,1,63.7500024318696
350,58,175545,2,0,L|328:140,1,63.7500024318696,4|0,0:0|0:0,0:0:0:0:
447,58,175945,2,0,L|425:140,1,63.7500024318696
434,246,176345,6,0,L|429:103,1,127.500004863739,4|0,0:0|0:0,0:0:0:0:
354,227,177145,2,0,L|349:84,1,127.500004863739,4|0,0:0|0:0,0:0:0:0:
272,195,177945,2,0,L|267:52,1,127.500004863739,4|0,0:0|0:0,0:0:0:0:
189,162,178745,2,0,L|184:19,1,127.500004863739,4|0,0:0|0:0,0:0:0:0:
50,27,179545,1,4,0:0:0:0:
50,27,179945,6,0,L|42:112,1,63.7500024318696,4|4,0:0|0:0,0:0:0:0:
85,173,180345,2,0,L|81:45,1,127.500004863739,4|0,0:0|0:0,0:0:0:0:
158,238,181145,2,0,L|166:166,1,63.7500024318696,4|0,0:0|0:0,0:0:0:0:
231,276,181545,2,0,L|239:204,1,63.7500024318696
302,324,181945,2,0,L|310:252,1,63.7500024318696,4|0,0:0|0:0,0:0:0:0:
376,373,182345,2,0,L|384:301,1,63.7500024318696
466,211,182745,6,0,L|467:277,3,63.7500024318696,4|0|4|0,0:0|0:0|0:0|0:0,0:0:0:0:
388,139,183545,2,0,L|387:205,3,63.7500024318696,4|0|4|0,0:0|0:0|0:0|0:0,0:0:0:0:
309,223,184345,2,0,L|310:289,3,63.7500024318696,4|0|4|0,0:0|0:0|0:0|0:0,0:0:0:0:
231,151,185145,2,0,L|230:217,3,63.7500024318696,4|0|4|0,0:0|0:0|0:0|0:0,0:0:0:0:
152,83,185945,6,0,L|155:155,1,63.7500024318696,4|0,0:0|0:0,0:0:0:0:
61,147,186345,2,0,L|58:219,1,63.7500024318696,4|0,0:0|0:0,0:0:0:0:
144,226,186745,2,0,L|147:298,1,63.7500024318696,4|0,0:0|0:0,0:0:0:0:
57,300,187145,2,0,L|54:372,1,63.7500024318696,4|0,0:0|0:0,0:0:0:0:
175,307,187545,6,0,L|183:243,1,63.7500024318696,4|0,0:0|0:0,0:0:0:0:
269,256,187945,2,0,L|260:192,1,63.7500024318696,4|0,0:0|0:0,0:0:0:0:
174,159,188345,2,0,L|182:95,1,63.7500024318696,4|0,0:0|0:0,0:0:0:0:
264,90,188745,2,0,L|255:26,1,63.7500024318696,4|0,0:0|0:0,0:0:0:0:
143,64,189145,6,0,L|140:19,7,31.8750012159348,4|0|4|0|4|0|4|0,0:0|0:0|0:0|0:0|0:0|0:0|0:0|0:0,0:0:0:0:
70,144,189945,2,0,L|73:99,7,31.8750012159348,4|0|4|0|4|0|4|0,0:0|0:0|0:0|0:0|0:0|0:0|0:0|0:0,0:0:0:0:
150,214,190745,2,0,L|147:169,7,31.8750012159348,4|0|4|0|4|0|4|0,0:0|0:0|0:0|0:0|0:0|0:0|0:0|0:0,0:0:0:0:
66,277,191545,2,0,L|69:232,7,31.8750012159348,4|0|4|0|4|0|4|0,0:0|0:0|0:0|0:0|0:0|0:0|0:0|0:0,0:0:0:0:
137,342,192345,5,4,0:0:0:0:
162,342,192445,1,0,0:0:0:0:
187,342,192545,1,4,0:0:0:0:
212,342,192645,1,0,0:0:0:0:
237,342,192745,2,0,L|282:338,3,31.8750012159348,4|0|4|0,0:0|0:0|0:0|0:0,0:0:0:0:
281,261,193145,5,4,0:0:0:0:
306,261,193245,1,4,0:0:0:0:
331,261,193345,1,4,0:0:0:0:
356,261,193445,1,4,0:0:0:0:
381,261,193545,2,0,L|426:257,3,31.8750012159348,4|4|4|4,0:0|0:0|0:0|0:0,0:0:0:0:
467,184,193945,5,2,0:0:0:0:
467,184,195545,6,0,L|470:348,1,127.5,2|0,0:0|0:0,0:0:0:0:
395,364,195945,2,0,L|398:200,1,127.5,2|0,0:0|0:0,0:0:0:0:
321,180,196345,2,0,L|324:344,1,127.5,2|0,0:0|0:0,0:0:0:0:
247,366,196745,2,0,L|250:202,1,127.5,2|0,0:0|0:0,0:0:0:0:
180,228,197145,6,0,L|33:225,1,127.5,2|0,0:0|0:0,0:0:0:0:
0,154,197545,2,0,L|147:151,1,127.5,2|0,0:0|0:0,0:0:0:0:
210,77,197945,2,0,L|63:74,1,127.5,2|0,0:0|0:0,0:0:0:0:
0,2,198345,2,0,L|116:2,1,85,2|0,0:0|0:0,0:0:0:0:
112,4,198645,1,2,0:0:0:0:
112,4,198745,1,2,0:0:0:0:
112,4,199145,5,2,0:0:0:0:
203,106,199345,1,2,0:0:0:0:
310,34,199545,2,0,L|394:36,1,85,2|0,0:0|0:0,0:0:0:0:
484,120,199945,2,0,L|399:122,1,85,2|0,0:0|0:0,0:0:0:0:
320,230,200345,5,6,0:0:0:0:
320,230,200545,1,6,0:0:0:0:
426,298,200745,1,6,0:0:0:0:
426,298,200945,1,6,0:0:0:0:
319,373,201145,6,0,L|221:377,1,85,2|0,0:0|0:0,0:0:0:0:
22,180,201845,5,2,0:0:0:0:
22,180,201945,2,0,L|16:19,1,140.25000428009,2|0,0:0|0:0,0:0:0:0:
100,0,202345,2,0,L|94:161,1,140.25000428009,2|0,0:0|0:0,0:0:0:0:
174,184,202745,2,0,L|168:23,1,140.25000428009,2|0,0:0|0:0,0:0:0:0:
249,11,203145,2,0,L|243:172,1,140.25000428009,2|0,0:0|0:0,0:0:0:0:
318,162,203545,6,0,L|465:158,1,140.25000428009,2|0,0:0|0:0,0:0:0:0:
486,237,203945,2,0,L|339:233,1,140.25000428009,2|0,0:0|0:0,0:0:0:0:
329,313,204345,2,0,L|476:309,1,140.25000428009,2|0,0:0|0:0,0:0:0:0:
497,384,204745,2,0,L|369:377,1,93.5000028533936,2|0,0:0|0:0,0:0:0:0:
366,377,205045,1,2,0:0:0:0:
366,377,205145,1,2,0:0:0:0:
366,377,205545,5,2,0:0:0:0:
233,304,205745,1,2,0:0:0:0:
317,207,205945,2,0,L|326:109,1,93.5000028533936,2|0,0:0|0:0,0:0:0:0:
233,45,206345,2,0,L|242:143,1,93.5000028533936,2|2,0:0|0:0,0:0:0:0:
176,224,206745,5,6,0:0:0:0:
176,224,206945,1,6,0:0:0:0:
90,140,207145,1,6,0:0:0:0:
90,140,207345,1,6,0:0:0:0:
233,45,207945,5,2,0:0:0:0:
233,45,208345,2,0,L|75:49,1,133.874995914459,2|0,0:0|0:0,0:0:0:0:
21,119,208745,2,0,L|179:123,1,133.874995914459,2|0,0:0|0:0,0:0:0:0:
246,196,209145,2,0,L|88:200,1,133.874995914459,2|0,0:0|0:0,0:0:0:0:
44,274,209545,2,0,L|202:278,1,133.874995914459,2|0,0:0|0:0,0:0:0:0:
232,354,209945,6,0,L|228:195,1,133.874995914459,2|0,0:0|0:0,0:0:0:0:
310,135,210345,2,0,L|306:294,1,133.874995914459,2|0,0:0|0:0,0:0:0:0:
386,341,210745,2,0,L|382:182,1,133.874995914459,2|0,0:0|0:0,0:0:0:0:
466,129,211145,2,0,L|463:252,1,89.2499972763062,2|0,0:0|0:0,0:0:0:0:
465,245,211445,1,2,0:0:0:0:
465,245,211545,1,2,0:0:0:0:
465,245,211945,5,2,0:0:0:0:
439,363,212145,1,2,0:0:0:0:
343,258,212345,2,0,L|342:160,1,89.2499972763062,2|0,0:0|0:0,0:0:0:0:
255,77,212745,2,0,L|254:175,1,89.2499972763062,2|0,0:0|0:0,0:0:0:0:
175,307,213145,6,0,L|176:209,1,89.2499972763062,2|0,0:0|0:0,0:0:0:0:
270,65,213545,2,0,L|271:163,1,89.2499972763062,2|0,0:0|0:0,0:0:0:0:
329,312,213945,2,0,L|330:214,1,89.2499972763062,2|0,0:0|0:0,0:0:0:0:
449,98,214545,5,2,0:0:0:0:
324,1,214745,2,0,L|157:-2,1,146.62500279665,2|0,0:0|0:0,0:0:0:0:
107,77,215145,2,0,L|274:74,1,146.62500279665,2|0,0:0|0:0,0:0:0:0:
322,153,215545,2,0,L|155:150,1,146.62500279665,2|0,0:0|0:0,0:0:0:0:
100,233,215945,2,0,L|267:230,1,146.62500279665,2|0,0:0|0:0,0:0:0:0:
291,318,216345,6,0,L|293:155,1,146.62500279665,2|0,0:0|0:0,0:0:0:0:
363,105,216745,2,0,L|365:268,1,146.62500279665,2|0,0:0|0:0,0:0:0:0:
437,331,217145,2,0,L|439:168,1,146.62500279665,2|0,0:0|0:0,0:0:0:0:
510,131,217545,2,0,L|512:294,1,146.62500279665,2|0,0:0|0:0,0:0:0:0:
505,354,217945,5,2,0:0:0:0:
413,269,218145,1,2,0:0:0:0:
344,360,218345,1,2,0:0:0:0:
344,360,218745,5,2,0:0:0:0:
252,275,218945,1,2,0:0:0:0:
183,366,219145,1,2,0:0:0:0:
183,366,219545,5,4,0:0:0:0:
116,240,219745,1,4,0:0:0:0:
252,275,219945,1,4,0:0:0:0:
185,149,220145,1,4,0:0:0:0:
340,224,220345,6,0,P|417:237|475:220,1,127.500004863739,2|2,0:0|0:0,0:0:0:0:
461,66,221145,6,0,P|467:162|458:263,1,159.375,2|0,0:0|0:0,0:0:0:0:
365,323,221545,2,0,P|361:243|367:164,1,159.375,2|0,0:0|0:0,0:0:0:0:
465,53,221945,2,0,P|471:149|462:251,1,159.375,2|0,0:0|0:0,0:0:0:0:
360,335,222345,2,0,P|356:248|362:160,1,159.375,2|0,0:0|0:0,0:0:0:0:
376,67,222745,6,0,P|297:53|219:63,1,159.375,2|0,0:0|0:0,0:0:0:0:
122,148,223145,2,0,P|200:161|278:151,1,159.375,2|0,0:0|0:0,0:0:0:0:
402,58,223545,2,0,P|308:41|212:53,1,159.375,2|0,0:0|0:0,0:0:0:0:
95,156,223945,2,0,P|189:173|242:167,1,106.25,2|0,0:0|0:0,0:0:0:0:
227,170,224245,1,2,0:0:0:0:
227,170,224345,1,2,0:0:0:0:
37,51,224745,5,2,0:0:0:0:
37,209,224945,1,2,0:0:0:0:
160,104,225145,2,0,P|172:39|168:-10,1,106.25,2|0,0:0|0:0,0:0:0:0:
275,76,225545,2,0,P|256:126|227:170,1,106.25,2|0,0:0|0:0,0:0:0:0:
124,250,225945,5,6,0:0:0:0:
276,219,226145,1,6,0:0:0:0:
147,332,226345,1,6,0:0:0:0:
299,301,226545,1,6,0:0:0:0:
403,384,226745,1,2,0:0:0:0:
403,384,227345,5,2,0:0:0:0:
495,279,227545,2,0,P|505:182|497:108,1,172.125000656605,2|0,0:0|0:0,0:0:0:0:
405,48,227945,2,0,P|395:145|403:219,1,172.125000656605,2|0,0:0|0:0,0:0:0:0:
504,303,228345,2,0,P|516:185|506:96,1,172.125000656605,2|0,0:0|0:0,0:0:0:0:
395,23,228745,2,0,P|382:140|392:229,1,172.125000656605,2|0,0:0|0:0,0:0:0:0:
385,282,229145,6,0,P|315:307|198:275,1,172.125000656605,2|0,0:0|0:0,0:0:0:0:
151,214,229545,2,0,P|234:195|315:221,1,172.125000656605,2|0,0:0|0:0,0:0:0:0:
409,289,229945,2,0,P|331:316|202:281,1,172.125000656605,2|0,0:0|0:0,0:0:0:0:
126,206,230345,2,0,P|198:183|269:215,1,114.750000437737,2|0,0:0|0:0,0:0:0:0:
257,203,230645,1,2,0:0:0:0:
257,203,230745,1,2,0:0:0:0:
124,337,231145,5,2,0:0:0:0:
0,274,231345,1,2,0:0:0:0:
88,150,231545,2,0,P|89:80|77:30,1,114.750000437737,2|0,0:0|0:0,0:0:0:0:
189,96,231945,2,0,P|178:152|154:204,1,114.750000437737,2|0,0:0|0:0,0:0:0:0:
124,337,232345,5,6,0:0:0:0:
231,230,232545,1,6,0:0:0:0:
194,384,232745,1,6,0:0:0:0:
301,277,232945,1,6,0:0:0:0:
405,320,233145,1,2,0:0:0:0:
405,320,233545,6,0,L|411:137,1,172.125000656605,2|0,0:0|0:0,0:0:0:0:
401,60,233945,6,0,P|315:48|227:74,1,165.749992412568,2|0,0:0|0:0,0:0:0:0:
175,141,234345,2,0,P|254:160|336:148,1,165.749992412568,2|0,0:0|0:0,0:0:0:0:
424,51,234745,2,0,P|320:36|214:68,1,165.749992412568,2|0,0:0|0:0,0:0:0:0:
151,149,235145,2,0,P|247:173|346:158,1,165.749992412568,2|0,0:0|0:0,0:0:0:0:
396,120,235545,6,0,P|395:229|362:288,1,165.749992412568,2|0,0:0|0:0,0:0:0:0:
287,325,235945,2,0,P|288:216|321:157,1,165.749992412568,2|0,0:0|0:0,0:0:0:0:
407,98,236345,2,0,P|406:230|366:301,1,165.749992412568,2|0,0:0|0:0,0:0:0:0:
275,346,236745,2,0,P|276:252|316:201,1,110.499994941712,2|0,0:0|0:0,0:0:0:0:
303,216,237045,1,2,0:0:0:0:
303,216,237145,1,2,0:0:0:0:
149,138,237545,5,2,0:0:0:0:
256,52,237745,1,2,0:0:0:0:
380,155,237945,2,0,P|450:159|494:146,1,110.499994941712,2|0,0:0|0:0,0:0:0:0:
405,250,238345,2,0,P|350:241|302:215,1,110.499994941712,2|0,0:0|0:0,0:0:0:0:
221,107,238745,6,0,P|205:192|215:302,1,165.749992412568,2|0,0:0|0:0,0:0:0:0:
289,379,239145,2,0,P|305:294|295:184,1,165.749992412568,2|0,0:0|0:0,0:0:0:0:
220,103,239545,2,0,P|203:190|213:303,1,165.749992412568,2|0,0:0|0:0,0:0:0:0:
289,382,239945,1,2,0:0:0:0:
398,281,240145,5,2,0:0:0:0:
265,189,240345,2,0,P|176:181|89:198,1,178.499994552612,2|0,0:0|0:0,0:0:0:0:
30,257,240745,2,0,P|117:274|205:266,1,178.499994552612,2|0,0:0|0:0,0:0:0:0:
276,185,241145,2,0,P|179:177|83:196,1,178.499994552612,2|0,0:0|0:0,0:0:0:0:
18,260,241545,2,0,P|114:279|211:271,1,172.125000656605,2|0,0:0|0:0,0:0:0:0:
286,182,241945,2,0,P|181:173|78:194,1,165.749992412568,2|0,0:0|0:0,0:0:0:0:
8,263,242345,2,0,P|111:283|216:274,1,165.749992412568,2|0,0:0|0:0,0:0:0:0:
291,181,242745,2,0,P|187:172|84:192,1,159.375,2|0,0:0|0:0,0:0:0:0:
3,264,243145,2,0,P|104:284|207:275,1,159.375,2|0,0:0|0:0,0:0:0:0:
244,245,243545,6,0,P|341:232|404:255,1,152.999995330811,2|0,0:0|0:0,0:0:0:0:
461,314,243945,2,0,P|387:332|312:317,1,152.999995330811,2|0,0:0|0:0,0:0:0:0:
244,245,244345,6,0,P|147:232|84:255,1,146.62500279665,2|0,0:0|0:0,0:0:0:0:
27,314,244745,2,0,P|100:332|175:317,1,146.62500279665,2|0,0:0|0:0,0:0:0:0:
244,245,245145,1,2,0:0:0:0:
244,245,245345,1,2,0:0:0:0:
156,156,245545,1,2,0:0:0:0:
156,156,245745,1,2,0:0:0:0:
249,64,245945,6,0,L|354:63,3,85,6|0|6|0,0:0|0:0|0:0|0:0,0:0:0:0:
427,142,246745,1,8,0:0:0:0:
