osu file format v14

[General]
AudioFilename: audio.mp3
AudioLeadIn: 0
PreviewTime: 6851
Countdown: 0
SampleSet: Soft
StackLeniency: 0.5
Mode: 0
LetterboxInBreaks: 0
WidescreenStoryboard: 1

[Editor]
Bookmarks: 54993
DistanceSpacing: 0.4
BeatDivisor: 8
GridSize: 16
TimelineZoom: 2.1

[Metadata]
Title:Aku no Hana
TitleUnicode:惡の華
Artist:Uchuujin
ArtistUnicode:宇宙人
Creator:mnyui
Version:Flowering
Source:惡の華
Tags:YOU ARE ALL WORMS gelidium aku no kafu anime opening op japanese pop rock flowers of evil les fleurs du mal charles baudelaire kasuga takao 春日高男 sawa nakamura 仲村佐和 nanako saeki 佐伯奈々子 asako shinosaki しのさき あさこ kenta komatsu こまつ けんた hidehiro niiya にいや ひでひろ makoto wada わだ まこと uchujin uchūjin uchu-jin
BeatmapID:3886190
BeatmapSetID:1647703

[Difficulty]
HPDrainRate:6.6
CircleSize:3.8
OverallDifficulty:9
ApproachRate:9.4
SliderMultiplier:2.65
SliderTickRate:1

[Events]
//Background and Video events
0,0,"god.jpg",0,0
//Break Periods
//Storyboard Layer 0 (Background)
//Storyboard Layer 1 (Fail)
//Storyboard Layer 2 (Pass)
//Storyboard Layer 3 (Foreground)
//Storyboard Layer 4 (Overlay)
//Storyboard Sound Samples

[TimingPoints]
6994,571.428571428571,4,2,1,70,1,0
8136,-142.857142857143,4,2,1,70,0,0
8422,-200,4,2,1,70,0,0
8708,-71.4285714285714,4,2,1,70,0,0
9565,-166.666666666666,4,2,1,70,0,0
9851,-66.6666666666667,4,2,1,70,0,0
10136,-100,4,2,1,70,0,0
10422,-66.6666666666667,4,2,1,70,0,0
10708,-250,4,2,1,70,0,0
10993,-55.5555555555556,4,2,1,70,0,0
12707,-142.857142857143,4,2,1,70,0,0
12993,-200,4,2,1,70,0,0
13279,-71.4285714285714,4,2,1,70,0,0
14136,-166.666666666666,4,2,1,70,0,0
14422,-66.6666666666667,4,2,1,70,0,0
14707,-100,4,2,1,70,0,0
14993,-66.6666666666667,4,2,1,70,0,0
15279,-250,4,2,1,70,0,0
15564,-55.5555555555556,4,2,1,70,0,0
15708,-100,4,2,1,70,0,0
15851,-66.6666666666667,4,2,1,70,0,0
16136,-100,4,2,1,70,0,0
17565,-83.3333333333333,4,2,1,70,0,0
17851,-66.6666666666667,4,2,1,70,0,0
19565,-125,4,2,1,70,0,0
19851,-71.4285714285714,4,2,1,70,0,0
20136,-66.6666666666667,4,2,1,70,0,0
20708,-83.3333333333333,4,2,1,70,0,0
21279,-76.9230769230769,4,2,1,70,0,0
21565,-125,4,2,1,70,0,0
22422,-62.5,4,2,1,70,0,0
22708,-100,4,2,1,70,0,0
22993,-62.5,4,2,1,70,0,0
23565,-83.3333333333333,4,2,1,70,0,0
24136,-71.4285714285714,4,2,1,70,0,0
25279,-1000,4,2,1,65,0,0
29279,-100,4,2,1,70,0,0
29851,285.714285714286,4,2,1,70,1,0
29851,-125,4,2,1,70,0,0
30136,-111.111111111111,4,2,1,70,0,0
30422,-100,4,2,1,70,0,0
30993,-142.857142857143,4,2,1,70,0,0
31279,-100,4,2,1,70,0,0
31565,-142.857142857143,4,2,1,70,0,0
31851,-100,4,2,1,70,0,0
32136,-500,4,2,1,70,0,0
32422,-76.9230769230769,4,2,1,70,0,0
32708,-66.6666666666667,4,2,1,70,0,0
32993,-333.333333333333,4,2,1,70,0,0
34993,571.428571428571,4,2,1,70,1,0
34993,-66.6666666666667,4,2,1,70,0,0
35564,-58.8235294117647,4,2,1,70,0,0
36135,-52.6315789473684,4,2,1,70,0,0
36707,-100,4,2,1,70,0,0
37850,-99.009900990099,4,2,1,70,0,0
40707,-83.3333333333333,4,2,1,70,0,0
41279,285.714285714286,4,2,1,70,1,0
41279,-166.666666666667,4,2,1,70,0,0
41564,-83.3333333333333,4,2,1,70,0,0
41850,-166.666666666667,4,2,1,70,0,0
42136,-76.9230769230769,4,2,1,70,0,0
42421,-166.666666666667,4,2,1,70,0,0
42707,-76.923076923077,4,2,1,70,0,0
42993,-142.857142857143,4,2,1,70,0,0
43279,-66.6666666666667,4,2,1,70,0,0
43564,-83.3333333333333,4,2,1,70,0,0
43850,-100,4,2,1,70,0,0
44136,-125,4,2,1,70,0,0
44421,-166.666666666667,4,2,1,70,0,0
44707,-76.9230769230769,4,2,1,70,0,0
45279,-66.6666666666667,4,2,1,70,0,0
45850,-125,4,2,1,70,0,0
46136,-76.9230769230769,4,2,1,70,0,0
46421,-166.666666666667,4,2,1,70,0,0
46707,-76.9230769230769,4,2,1,70,0,0
46993,-142.857142857143,4,2,1,70,0,0
47279,-76.9230769230769,4,2,1,70,0,0
47564,-142.857142857143,4,2,1,70,0,0
47850,-71.4285714285714,4,2,1,70,0,0
48136,-166.666666666667,4,2,1,70,0,0
48421,-125,4,2,1,70,0,0
48707,-100,4,2,1,70,0,0
48993,-83.3333333333333,4,2,1,70,0,0
49279,-71.4285714285714,4,2,1,70,0,0
49850,-55.5555555555556,4,2,1,70,0,0
50421,-166.666666666667,4,2,1,70,0,0
50707,-83.3333333333333,4,2,1,70,0,0
51564,-111.111111111111,4,2,1,70,0,0
51850,-83.3333333333333,4,2,1,70,0,0
52707,-200,4,2,1,70,0,0
52993,-71.4285714285714,4,2,1,70,0,0
53279,-200,4,2,1,70,0,0
53564,-83.3333333333333,4,2,1,70,0,0
53850,-76.9230769230769,4,2,1,70,0,0
54421,-666.666666666667,4,2,1,70,0,0
54993,-66.6666666666667,4,2,1,80,0,0
55136,-100,4,2,1,80,0,0
55279,-66.6666666666667,4,2,1,80,0,0
55850,-71.4285714285714,4,2,1,80,0,0
56136,-166.666666666667,4,2,1,80,0,0
56421,-66.6666666666667,4,2,1,80,0,0
56707,-62.5,4,2,1,80,0,0
56993,-66.6666666666667,4,2,1,80,0,0
57279,-83.3333333333333,4,2,1,80,0,0
57564,-66.6666666666667,4,2,1,80,0,0
57850,-90.9090909090909,4,2,1,80,0,0
57993,-83.3333333333333,4,2,1,80,0,0
58136,-71.4285714285714,4,2,1,80,0,0
58421,-100,4,2,1,80,0,0
58707,-76.9230769230769,4,2,1,80,0,0
58993,-90.9090909090909,4,2,1,80,0,0
59279,-66.6666666666667,4,2,1,80,0,0
59564,-83.3333333333333,4,2,1,80,0,0
59707,-90.9090909090909,4,2,1,80,0,0
59850,-66.6666666666667,4,2,1,80,0,0
60136,-100,4,2,1,80,0,0
60279,-71.4285714285714,4,2,1,80,0,0
60421,-62.5,4,2,1,80,0,0
60707,-62.5,4,2,1,70,0,0
60850,-62.5,4,2,1,71,0,0
60993,-62.5,4,2,1,72,0,0
61136,-62.5,4,2,1,73,0,0
61279,-62.5,4,2,1,74,0,0
61421,-62.5,4,2,1,75,0,0
61564,-62.5,4,2,1,76,0,0
61707,-62.5,4,2,1,77,0,0
61850,-62.5,4,2,1,78,0,0
61993,-62.5,4,2,1,79,0,0
62136,-62.5,4,2,1,80,0,0
62279,-62.5,4,2,1,81,0,0
62421,-62.5,4,2,1,82,0,0
62564,-62.5,4,2,1,83,0,0
62707,-62.5,4,2,1,84,0,0
62850,-62.5,4,2,1,85,0,0
62993,-62.5,4,2,1,86,0,0
63136,-62.5,4,2,1,87,0,0
63279,-62.5,4,2,1,88,0,0
63421,-62.5,4,2,1,89,0,0
63564,-62.5,4,2,1,90,0,0
64136,-66.6666666666667,4,2,1,90,0,0
64564,-71.4285714285714,4,2,1,90,0,0
65421,-62.5,4,2,1,90,0,0
65993,-76.9230769230769,4,2,1,90,0,0
66421,-66.6666666666667,4,2,1,90,0,0
66707,-76.9230769230769,4,2,1,90,0,0
66850,-66.6666666666667,4,2,1,90,0,0
67136,-62.5,4,2,1,90,0,0
67707,-71.4285714285714,4,2,1,90,0,0
67850,-66.6666666666667,4,2,1,90,0,0
68421,-76.9230769230769,4,2,1,90,0,0
68707,-52.6315789473684,4,2,1,90,0,0
68993,-200,4,2,1,90,0,0
69136,-71.4285714285714,4,2,1,90,0,0
69279,-55.5555555555556,4,2,1,90,0,0
69564,-76.9230769230769,4,2,1,90,0,0
69707,-66.6666666666667,4,2,1,90,0,0
70421,-76.9230769230769,4,2,1,90,0,0
70564,-71.4285714285714,4,2,1,90,0,0
70707,-58.8235294117647,4,2,1,90,0,0
70993,-66.6666666666667,4,2,1,90,0,0
71564,-58.8235294117647,4,2,1,90,0,0
71850,-71.4285714285714,4,2,1,90,0,0
71993,-55.5555555555556,4,2,1,90,0,0
72421,-55.5555555555556,4,2,1,90,0,0
73279,-333.333333333333,4,2,1,60,0,0
73850,-500,4,2,1,60,0,0
74421,-666.666666666667,4,2,1,60,0,0
75564,-50,4,2,1,80,0,0
75707,-400,4,2,1,80,0,0
76136,-142.857142857143,4,2,1,60,0,0
77850,571.428571428571,4,2,1,70,1,0
77850,-142.857142857143,4,2,1,70,0,0
78421,-40,4,2,1,90,0,0
78992,-142.857142857143,4,2,1,70,0,0
79564,-40,4,2,1,90,0,0
80135,-142.857142857143,4,2,1,70,0,0
80707,-40,4,2,1,90,0,0
81278,-142.857142857143,4,2,1,70,0,0
81849,-40,4,2,1,90,0,0
82421,-142.857142857143,4,2,1,70,0,0
82992,-40,4,2,1,90,0,0
83564,-142.857142857143,4,2,1,70,0,0
84135,-40,4,2,1,90,0,0
84707,-142.857142857143,4,2,1,70,0,0
85278,-40,4,2,1,90,0,0
85850,-142.857142857143,4,2,1,70,0,0
86421,-40,4,2,1,90,0,0
86992,-71.4285714285714,4,2,1,60,0,0
87278,-55.5555555555556,4,2,1,70,0,0
87564,-52.6315789473684,4,2,1,80,0,0
88135,-111.111111111111,4,2,1,70,0,0
88992,-76.9230769230769,4,2,1,80,0,0
89849,-76.9230769230769,4,2,1,70,0,0
90421,-58.8235294117647,4,2,1,70,0,0
91564,-71.4285714285714,4,2,1,70,0,0
93564,-250,4,2,1,70,0,0
96135,491.803278688525,4,2,2,70,1,0
96135,-100,4,2,2,60,0,0
96257,-100,4,2,2,65,0,0
96380,-100,4,2,2,70,0,0
96503,-100,4,2,2,75,0,0
96626,-100,4,2,2,80,0,0
96872,-100,4,2,2,60,0,0
96995,-100,4,2,2,65,0,0
97118,-100,4,2,2,70,0,0
97241,-100,4,2,2,75,0,0
97364,-100,4,2,2,80,0,0
97610,-100,4,2,2,60,0,0
97733,-100,4,2,2,65,0,0
97856,-100,4,2,2,70,0,0
97979,-100,4,2,2,75,0,0
98102,-100,4,2,2,80,0,0
98348,-100,4,2,2,60,0,0
98839,-76.9230769230769,4,2,2,70,0,0
99331,-100,4,2,2,70,0,0
100069,-83.3333333333333,4,2,2,70,0,0
100438,-71.4285714285714,4,2,2,70,0,0
100807,-83.3333333333333,4,2,2,70,0,0
102405,-71.4285714285714,4,2,2,70,0,0
102774,-83.3333333333333,4,2,2,70,0,0
104372,-71.4285714285714,4,2,2,70,0,0
104741,-83.3333333333333,4,2,2,70,0,0
106462,-71.4285714285714,4,2,2,70,0,0
106831,-83.3333333333333,4,2,2,70,0,0
107938,-166.666666666667,4,2,2,75,0,0
108184,-58.8235294117647,4,2,2,80,0,0
108430,-43.4782608695652,4,2,2,85,0,0
108675,-43.4782608695652,4,2,2,90,0,0
109167,-66.6666666666667,4,2,2,65,0,0
109905,491.803278688525,4,2,2,70,1,0
109905,-500,4,2,2,70,0,0
110396,-66.6666666666667,4,2,2,70,0,0
110888,-100,4,2,2,70,0,0
111380,-66.6666666666667,4,2,2,70,0,0
111626,-71.4285714285714,4,2,2,70,0,0
112118,-90.9090909090909,4,2,2,70,0,0
112364,-71.4285714285714,4,2,2,70,0,0
112855,-83.3333333333333,4,2,2,70,0,0
113347,-71.4285714285714,4,2,2,70,0,0
113593,-83.3333333333333,4,2,2,70,0,0
113839,-333.333333333333,4,2,2,70,0,0
114331,-62.5,4,2,2,70,0,0
114823,-83.3333333333333,4,2,2,70,0,0
115314,-66.6666666666667,4,2,2,70,0,0
115560,-111.111111111111,4,2,2,70,0,0
116052,-90.9090909090909,4,2,2,70,0,0
116298,-66.6666666666667,4,2,2,70,0,0
116544,-100,4,2,2,70,0,0
116790,-76.9230769230769,4,2,2,70,0,0
117282,-66.6666666666667,4,2,2,70,0,0
117527,-100,4,2,2,70,0,0
117773,-333.333333333333,4,2,2,70,0,0
118265,-66.6666666666667,4,2,2,70,0,0
118757,-83.3333333333333,4,2,2,70,0,0
119249,-200,4,2,2,70,0,0
119495,-66.6666666666667,4,2,2,70,0,0
119986,-100,4,2,2,70,0,0
120232,-76.9230769230769,4,2,2,70,0,0
120724,-83.3333333333333,4,2,2,70,0,0
121216,-66.6666666666667,4,2,2,70,0,0
121708,-111.111111111111,4,2,2,70,0,0
122200,-76.9230769230769,4,2,2,70,0,0
122445,-100,4,2,2,70,0,0
122691,-111.111111111111,4,2,2,70,0,0
123060,-66.6666666666667,4,2,2,70,0,0
123429,-100,4,2,2,70,0,0
123921,-111.111111111111,4,2,2,70,0,0
124167,-71.4285714285714,4,2,2,70,0,0
125642,-83.3333333333333,4,2,2,70,0,0
126011,-100,4,2,2,70,0,0
126380,-76.9230769230769,4,2,2,70,0,0
126872,-142.857142857143,4,2,2,70,0,0
127118,-71.4285714285714,4,2,2,70,0,0
127609,-83.3333333333333,4,2,2,70,0,0
128839,-166.666666666667,4,2,2,70,0,0
129823,-166.666666666667,4,2,2,80,0,0
130068,-66.6666666666667,4,2,2,80,0,0
130314,-166.666666666667,4,2,2,80,0,0
130560,-66.6666666666667,4,2,2,80,0,0
130806,-66.6666666666667,4,2,2,65,0,0
131544,-142.857142857143,4,2,2,70,0,0
131790,-200,4,2,2,70,0,0
132036,-66.6666666666667,4,2,2,75,0,0
132527,-76.9230769230769,4,2,2,70,0,0
133019,-71.4285714285714,4,2,2,70,0,0
133265,-76.9230769230769,4,2,2,70,0,0
133757,-166.666666666667,4,2,2,70,0,0
134003,-66.6666666666667,4,2,2,70,0,0
134495,-76.9230769230769,4,2,2,70,0,0
134986,-71.4285714285714,4,2,2,70,0,0
135232,-142.857142857143,4,2,2,70,0,0
135478,-500,4,2,2,70,0,0
135970,-71.4285714285714,4,2,2,70,0,0
136462,-111.111111111111,4,2,2,70,0,0
136954,-90.9090909090909,4,2,2,70,0,0
137445,-111.111111111111,4,2,2,70,0,0
137937,-90.9090909090909,4,2,2,70,0,0
138429,-111.111111111111,4,2,2,70,0,0
138921,-76.9230769230769,4,2,2,70,0,0
139413,-100,4,2,2,70,0,0
139905,-71.4285714285714,4,2,2,70,0,0
140396,-100,4,2,2,70,0,0
140888,-76.9230769230769,4,2,2,70,0,0
141626,-90.9090909090909,4,2,2,70,0,0
141872,-76.9230769230769,4,2,2,70,0,0
142364,-100,4,2,2,70,0,0
142855,-76.9230769230769,4,2,2,70,0,0
143101,-100,4,2,2,70,0,0
143347,-71.4285714285714,4,2,2,70,0,0
143839,-66.6666666666667,4,2,2,70,0,0
144331,-76.9230769230769,4,2,2,70,0,0
145068,-66.6666666666667,4,2,2,70,0,0
145499,-166.666666666667,4,2,2,70,0,0
145806,-76.9230769230769,4,2,2,70,0,0
146298,-76.9230769230769,4,2,2,72,0,0
146421,-76.9230769230769,4,2,2,74,0,0
146544,-76.9230769230769,4,2,2,76,0,0
146667,-76.9230769230769,4,2,2,78,0,0
146790,-76.9230769230769,4,2,2,76,0,0
146913,-76.9230769230769,4,2,2,74,0,0
147036,-76.9230769230769,4,2,2,70,0,0
147159,-76.9230769230769,4,2,2,60,0,0
147282,-76.9230769230769,4,2,2,70,0,0
148265,-100,4,2,2,70,0,0
148511,-83.3333333333333,4,2,2,70,0,0
148757,-76.9230769230769,4,2,2,70,0,0
149249,-71.4285714285714,4,2,2,70,0,0
149741,-100,4,2,2,70,0,0
149986,-83.3333333333333,4,2,2,70,0,0
150478,-111.111111111111,4,2,2,70,0,0
151216,-111.111111111111,4,2,2,80,0,0
151708,-66.6666666666667,4,2,2,70,0,0
151954,-90.9090909090909,4,2,2,70,0,0
152200,-71.4285714285714,4,2,2,70,0,0
152445,-100,4,2,2,73,0,0
152691,-71.4285714285714,4,2,2,76,0,0
152937,-100,4,2,2,79,0,0
153183,-83.3333333333333,4,2,2,80,0,0
153675,-71.4285714285714,4,2,2,70,0,0
154167,-90.9090909090909,4,2,2,70,0,0
155150,-83.3333333333333,4,2,2,80,0,0
155642,-71.4285714285714,4,2,2,70,0,0
155888,-100,4,2,2,70,0,0
156134,-83.3333333333333,4,2,2,70,0,0
156380,-83.3333333333333,4,2,2,73,0,0
156626,-71.4285714285714,4,2,2,76,0,0
156872,-100,4,2,2,79,0,0
157118,-83.3333333333333,4,2,2,80,0,0
157609,-71.4285714285714,4,2,2,70,0,0
157855,-83.3333333333333,4,2,2,70,0,0
158347,-100,4,2,2,70,0,0
159085,-90.9090909090909,4,2,2,85,0,0
159577,-71.4285714285714,4,2,2,70,0,0
160068,-100,4,2,2,70,0,0
160314,-83.3333333333333,4,2,2,73,0,0
160560,-71.4285714285714,4,2,2,76,0,0
160806,-71.4285714285714,4,2,2,79,0,0
161052,-66.6666666666667,4,2,2,85,0,0
161544,-55.5555555555556,4,2,2,70,0,0
161913,-100,4,2,2,70,0,0
163019,-333.333333333333,4,2,2,70,0,0
163265,-166.666666666667,4,2,2,70,0,0
163511,-58.8235294117647,4,2,2,80,0,0
163757,-100,4,2,2,70,0,0
164003,-62.5,4,2,2,80,0,0
164249,-125,4,2,2,70,0,0
164495,-66.6666666666667,4,2,2,80,0,0
164741,-50,4,2,2,85,0,0
165478,-66.6666666666667,4,2,2,70,0,0
165724,-90.9090909090909,4,2,2,70,0,0
165970,-83.3333333333333,4,2,2,70,0,0
166462,-66.6666666666667,4,2,2,70,0,0
166708,-100,4,2,2,70,0,0
166954,-333.333333333333,4,2,2,70,0,0
167200,-166.666666666667,4,2,2,70,0,0
167445,-58.8235294117647,4,2,2,80,0,0
167691,-100,4,2,2,70,0,0
167937,-62.5,4,2,2,80,0,0
168183,-125,4,2,2,70,0,0
168429,-66.6666666666667,4,2,2,80,0,0
168675,-50,4,2,2,85,0,0
169413,-66.6666666666667,4,2,2,70,0,0
170150,-100,4,2,2,70,0,0
170888,-166.666666666667,4,2,2,70,0,0
171134,-125,4,2,2,70,0,0
171380,-66.6666666666667,4,2,2,80,0,0
171626,-100,4,2,2,70,0,0
171872,-83.3333333333333,4,2,2,70,0,0
172118,-100,4,2,2,70,0,0
172364,-125,4,2,2,70,0,0
172609,-66.6666666666667,4,2,2,85,0,0
173101,-100,4,2,2,70,0,0
173347,-66.6666666666667,4,2,2,70,0,0
173593,-83.3333333333333,4,2,2,70,0,0
174331,-66.6666666666667,4,2,2,70,0,0
174823,-125,4,2,2,70,0,0
175068,-100,4,2,2,70,0,0
175314,-83.3333333333333,4,2,2,70,0,0
175560,-71.4285714285714,4,2,2,70,0,0
175806,-100,4,2,2,70,0,0
176544,-500,4,2,2,80,0,0
176974,-100,4,2,2,70,0,0
177282,-83.3333333333333,4,2,2,70,0,0
177527,-100,4,2,2,70,0,0
178757,-125,4,2,2,70,0,0
179002,-100,4,2,2,70,0,0
179248,-83.3333333333333,4,2,2,70,0,0
179494,-71.4285714285714,4,2,2,70,0,0
179740,-100,4,2,2,70,0,0
180478,-500,4,2,2,80,0,0
180908,-100,4,2,2,70,0,0
181216,-83.3333333333333,4,2,2,70,0,0
181461,-100,4,2,2,70,0,0
182200,-66.6666666666667,4,2,2,70,0,0
182691,-500,4,2,2,70,0,0
183183,-50,4,2,2,85,0,0
183675,-50,4,2,2,85,0,0
184044,-62.5,4,2,2,85,0,0
184413,-100,4,2,2,80,0,0
184659,545.454545454546,4,2,3,65,1,0
189022,-83.3333333333333,4,2,3,65,0,0
189295,-111.111111111111,4,2,3,65,0,0
189568,-58.8235294117647,4,2,3,65,0,0
190113,-100,4,2,3,65,0,0
190386,-71.4285714285714,4,2,3,65,0,0
190659,-66.6666666666667,4,2,3,65,0,0
191204,-76.9230769230769,4,2,3,65,0,0
191477,-111.111111111111,4,2,3,65,0,0
191749,-66.6666666666667,4,2,3,65,0,0
192295,-125,4,2,3,65,0,0
192568,-55.5555555555556,4,2,3,65,0,0
193113,-125,4,2,3,65,0,0
193386,-66.6666666666667,4,2,3,65,0,0
193931,-76.9230769230769,4,2,3,65,0,0
194749,-142.857142857143,4,2,3,65,0,0
195022,-66.6666666666667,4,2,3,65,0,0
195295,-200,4,2,3,65,0,0
195568,-100,4,2,3,65,0,0
197749,-76.9230769230769,4,2,3,70,0,0
198295,-66.6666666666667,4,2,3,70,0,0
198704,-71.4285714285714,4,2,3,70,0,0
199113,-100,4,2,3,70,0,0
199386,-66.6666666666667,4,2,3,70,0,0
201295,-125,4,2,3,70,0,0
201568,-66.6666666666667,4,2,3,70,0,0
202113,-76.9230769230769,4,2,3,70,0,0
202386,-100,4,2,3,70,0,0
202659,-71.4285714285714,4,2,3,70,0,0
203204,-90.9090909090909,4,2,3,70,0,0
203749,-76.9230769230769,4,2,3,70,0,0
204022,-66.6666666666667,4,2,3,70,0,0
204568,-111.111111111111,4,2,3,70,0,0
204840,-58.8235294117647,4,2,3,70,0,0
205386,-71.4285714285714,4,2,3,70,0,0
205931,-66.6666666666667,4,2,3,70,0,0
206204,-83.3333333333333,4,2,3,70,0,0
206477,-71.4285714285714,4,2,3,70,0,0
207022,-66.6666666666667,4,2,3,70,0,0
207431,-76.9230769230769,4,2,3,70,0,0
208113,-66.6666666666667,4,2,3,70,0,0
208386,-100,4,2,3,70,0,0
208659,-66.6666666666667,4,2,3,70,0,0
208931,-100,4,2,3,70,0,0
209340,-83.3333333333333,4,2,3,70,0,0
209613,-66.6666666666667,4,2,3,70,0,0
210022,-100,4,2,3,70,0,0
210295,-58.8235294117647,4,2,3,70,0,0
210568,-166.666666666667,4,2,3,70,0,0
210840,-66.6666666666667,4,2,3,70,0,0
211386,-76.9230769230769,4,2,3,70,0,0
212477,-166.666666666667,4,2,3,70,0,0
212749,-66.6666666666667,4,2,3,70,0,0
213295,-83.3333333333333,4,2,3,70,0,0
213568,-71.4285714285714,4,2,3,70,0,0
214249,-83.3333333333333,4,2,3,70,0,0
215204,-100,4,2,3,70,0,0
215749,-66.6666666666667,4,2,3,70,0,0
216159,-100,4,2,3,70,0,0
216568,-76.9230769230769,4,2,3,70,0,0
216840,-66.6666666666667,4,2,3,70,0,0
217386,-100,4,2,3,70,0,0
217931,-62.5,4,2,3,70,0,0
218340,-100,4,2,3,70,0,0
218613,-76.9230769230769,4,2,3,70,0,0
219022,-166.666666666667,4,2,3,70,0,0
219295,-58.8235294117647,4,2,3,70,0,0
219568,-71.4285714285714,4,2,3,70,0,0
220113,-58.8235294117647,4,2,3,70,0,0
220522,-90.9090909090909,4,2,3,70,0,0
220931,-76.9230769230769,4,2,3,70,0,0
221204,-66.6666666666667,4,2,3,70,0,0
221477,-100,4,2,3,70,0,0
222022,-142.857142857143,4,2,3,70,0,0
222295,-66.6666666666667,4,2,3,70,0,0
222704,-76.9230769230769,4,2,3,70,0,0
223659,-142.857142857143,4,2,3,70,0,0
223931,-66.6666666666667,4,2,3,70,0,0
224749,-90.9090909090909,4,2,3,70,0,0
225568,-66.6666666666667,4,2,3,70,0,0
226113,-83.3333333333333,4,2,3,70,0,0
226659,-66.6666666666667,4,2,3,70,0,0
227204,-83.3333333333333,4,2,3,70,0,0
227749,-66.6666666666667,4,2,3,70,0,0
228295,-125,4,2,3,70,0,0
228840,-100,4,2,3,70,0,0
229386,-83.3333333333333,4,2,3,70,0,0
229931,-71.4285714285714,4,2,3,70,0,0
230204,-55.5555555555556,4,2,3,70,0,0
232659,-55.5555555555556,4,2,3,75,0,0
233204,-58.8235294117647,4,2,3,75,0,0
233749,-58.8235294117647,4,2,3,65,0,0
234295,-166.666666666667,4,2,3,65,0,0
234840,-166.666666666667,4,2,3,75,0,0
235386,-66.6666666666667,4,2,3,75,0,0
235931,-66.6666666666667,4,2,3,65,0,0
236477,-250.000000000001,4,2,3,65,0,0
237022,-250.000000000001,4,2,3,75,0,0
237568,-58.8235294117647,4,2,3,75,0,0
238113,-58.8235294117647,4,2,3,65,0,0
238659,-250.000000000001,4,2,3,65,0,0
239204,-250.000000000001,4,2,3,75,0,0
239749,-58.8235294117647,4,2,3,75,0,0
240295,-58.8235294117647,4,2,3,65,0,0
240840,-250.000000000001,4,2,3,65,0,0
241386,-250.000000000001,4,2,3,80,0,0
241931,-58.8235294117647,4,2,3,80,0,0
242477,-58.8235294117647,4,2,3,70,0,0
243022,-142.857142857143,4,2,3,70,0,0
243568,-142.857142857143,4,2,3,80,0,0
244113,-58.8235294117647,4,2,3,80,0,0
244659,-58.8235294117647,4,2,3,70,0,0
245204,-250,4,2,3,70,0,0
245749,-250,4,2,3,80,0,0
246295,-58.8235294117647,4,2,3,80,0,0
246840,-58.8235294117647,4,2,3,70,0,0
247386,-166.666666666667,4,2,3,70,0,0
248068,-200,4,2,3,70,0,0
248477,-52.6315789473684,4,2,3,85,0,0
249022,-100,4,2,3,70,0,0
249840,-142.857142857143,4,2,3,70,0,0
250113,-142.857142857143,4,2,3,85,0,0
250522,-142.857142857143,4,2,3,80,0,0
250931,-142.857142857143,4,2,3,75,0,0
251340,-142.857142857143,4,2,3,70,0,0
251749,-142.857142857143,4,2,3,68,0,0
251886,-142.857142857143,4,2,3,66,0,0
252022,-142.857142857143,4,2,3,64,0,0
252159,-142.857142857143,4,2,3,62,0,0
252295,-200,4,2,3,70,0,0
252840,-125,4,2,3,75,0,0
253386,-66.6666666666667,4,2,3,80,0,0
253659,-58.8235294117647,4,2,3,82,0,0
253931,-52.6315789473684,4,2,3,84,0,0
254204,-50,4,2,3,86,0,0
254749,-100,4,2,3,70,0,0
255022,-66.6666666666667,4,2,3,70,0,0
255840,-125,4,2,3,70,0,0
256113,-66.6666666666667,4,2,3,70,0,0
256659,-125,4,2,3,70,0,0
257204,-100,4,2,3,75,0,0
257749,-62.5,4,2,3,80,0,0
258022,-55.5555555555556,4,2,3,82,0,0
258295,-50,4,2,3,84,0,0
258568,-66.6666666666667,4,2,3,86,0,0
259113,-71.4285714285714,4,2,3,88,0,0
259386,-55.5555555555556,4,2,3,85,0,0
259659,-100,4,2,3,70,0,0
260477,-55.5555555555556,4,2,3,70,0,0
261022,-125,4,2,3,70,0,0
261568,-83.3333333333333,4,2,3,75,0,0
262113,-55.5555555555556,4,2,3,80,0,0
262386,-50,4,2,3,70,0,0
262659,-125,4,2,3,80,0,0
262931,-46.5116279069767,4,2,3,85,0,0
263477,-76.9230769230769,4,2,3,70,0,0
263749,-55.5555555555556,4,2,3,70,0,0
264022,-166.666666666667,4,2,3,70,0,0
264840,-58.8235294117647,4,2,3,70,0,0
265113,-125,4,2,3,70,0,0
265386,-55.5555555555556,4,2,3,85,0,0
265659,-100,4,2,3,70,0,0
265931,-55.5555555555556,4,2,3,70,0,0
266204,-100,4,2,3,70,0,0
266477,-142.857142857143,4,2,3,70,0,0
266886,-200,4,2,3,70,0,0
267295,-50,4,2,3,85,0,0
267840,-250,4,2,3,70,0,0
268113,-100,4,2,3,70,0,0
268659,-66.6666666666667,4,2,3,70,0,0
268931,-55.5555555555556,4,2,3,70,0,0
269204,-55.5555555555556,4,2,3,68,0,0
269340,-55.5555555555556,4,2,3,66,0,0
269477,-55.5555555555556,4,2,3,64,0,0
269613,-55.5555555555556,4,2,3,62,0,0
269749,-55.5555555555556,4,2,3,60,0,0
273022,-62.5,4,2,3,70,0,0
273568,-1000,4,2,3,75,0,0
276840,-1000,4,2,3,50,0,0
277386,-1000,4,2,3,55,0,0
277931,-1000,4,2,3,60,0,0
278477,-1000,4,2,3,65,0,0
279022,-1000,4,2,3,70,0,0
280113,292.682926829268,3,2,3,65,1,0
280113,-166.666666666667,3,2,4,65,0,0
280405,-125,3,2,4,65,0,0
280698,-83.3333333333333,3,2,4,65,0,0
280991,-125,3,2,4,65,0,0
281283,-90.9090909090909,3,2,4,65,0,0
281576,-250,3,2,4,65,0,0
281869,-142.857142857143,3,2,4,65,0,0
282161,-71.4285714285714,3,2,4,65,0,0
282747,-200,3,2,4,65,0,0
283056,292.682926829268,3,2,4,70,1,0
283056,-333.333333333333,3,2,4,70,0,0
283348,-100,3,2,4,70,0,0
283934,-125,3,2,4,70,0,0
284226,-100,3,2,4,70,0,0
285690,-125,3,2,4,70,0,0
285982,-100,3,2,4,70,0,0
286568,-142.857142857143,3,2,4,70,0,0
286860,-125,3,2,4,70,0,0
287738,-111.111111111111,3,2,4,70,0,0
289202,-142.857142857143,3,2,4,70,0,0
289495,-100,3,2,4,70,0,0
290080,-100,3,2,4,62,0,0
290373,-100,3,2,4,64,0,0
290665,-100,3,2,4,66,0,0
290958,-100,3,2,4,68,0,0
291251,-100,3,2,4,70,0,0
292429,588.235294117647,4,2,4,70,1,0
292429,-62.5,4,2,4,70,0,0
292723,-100,4,2,4,70,0,0
293017,-90.9090909090909,4,2,4,70,0,0
293311,-71.4285714285714,4,2,4,70,0,0
293605,-55.5555555555556,4,2,4,70,0,0
293899,-125,4,2,4,70,0,0
294781,-66.6666666666667,4,2,4,70,0,0
295664,-100,4,2,4,70,0,0
295958,-58.8235294117647,4,2,4,70,0,0
296252,-100,4,2,4,70,0,0
296546,-58.8235294117647,4,2,4,70,0,0
296693,-83.3333333333333,4,2,4,70,0,0
296840,-166.666666666667,4,2,4,70,0,0
297134,-58.8235294117647,4,2,4,70,0,0
297429,-100,4,2,4,70,0,0
297723,-76.9230769230769,4,2,4,70,0,0
298017,-62.5,4,2,4,70,0,0
298311,-58.8235294117647,4,2,4,70,0,0
298605,-111.111111111111,4,2,4,70,0,0
299193,-100,4,2,4,70,0,0
299487,-58.8235294117647,4,2,4,70,0,0
299781,-66.6666666666667,4,2,4,70,0,0
300076,-76.9230769230769,4,2,4,70,0,0
300370,-100,4,2,4,70,0,0
300664,-166.666666666667,4,2,4,70,0,0
301840,-58.8235294117647,4,2,4,70,0,0
302723,-166.666666666667,4,2,4,70,0,0
303017,-58.8235294117647,4,2,4,70,0,0
303311,-58.8235294117647,4,2,4,70,0,0
303899,-125,4,2,4,70,0,0
304193,-62.5,4,2,4,70,0,0
304487,-100,4,2,4,70,0,0
304781,-66.6666666666667,4,2,4,70,0,0
306252,-100,4,2,4,70,0,0
306546,-66.6666666666667,4,2,4,70,0,0
306840,-90.9090909090909,4,2,4,70,0,0
307723,-58.8235294117647,4,2,4,70,0,0
308311,-83.3333333333333,4,2,4,70,0,0
308899,-66.6666666666667,4,2,4,70,0,0
309487,-83.3333333333333,4,2,4,70,0,0
310076,-58.8235294117647,4,2,4,70,0,0
310664,-50,4,2,4,70,0,0
311031,-100,4,2,4,70,0,0
311252,-90.9090909090909,4,2,4,60,0,0
311840,-100,4,2,4,60,0,0
313017,-83.3333333333333,4,2,4,60,0,0
314193,-200,4,2,4,60,0,0
314781,-76.9230769230769,4,2,4,60,0,0
315370,-100,4,2,4,60,0,0
317723,-66.6666666666667,4,2,4,60,0,0
318017,-100,4,2,4,60,0,0
318899,-125,4,2,4,60,0,0
319193,-71.4285714285714,4,2,4,60,0,0
319487,-125,4,2,4,60,0,0
319781,-66.6666666666667,4,2,4,60,0,0
320076,-100,4,2,4,60,0,0
320370,-142.857142857143,4,2,4,60,0,0
320664,-100,4,2,4,60,0,0
321840,-125,4,2,4,60,0,0
322429,-83.3333333333333,4,2,4,60,0,0
322723,-66.6666666666667,4,2,4,60,0,0
323605,-111.111111111111,4,2,4,60,0,0
323899,-66.6666666666667,4,2,4,60,0,0
324193,-400,4,2,4,60,0,0
324781,-222.222222222222,4,2,4,60,0,0
325370,-133.333333333333,4,2,4,60,0,0
325958,-285.714285714284,4,2,4,60,0,0
326546,-285.714285714284,4,2,4,70,0,0
326840,-285.714285714284,4,2,4,60,0,0
327134,-285.714285714284,4,2,4,62,0,0
327429,-285.714285714284,4,2,4,64,0,0
327723,-285.714285714284,4,2,4,66,0,0
328311,-285.714285714284,4,2,4,68,0,0
329193,-285.714285714284,4,2,4,70,0,0
329487,-285.714285714284,4,2,4,72,0,0
329781,-285.714285714284,4,2,4,74,0,0
330076,-285.714285714284,4,2,4,76,0,0
331252,-90.9090909090909,4,2,4,65,0,0
331546,-71.4285714285714,4,2,4,67,0,0
331840,-142.857142857143,4,2,4,70,0,0
332429,-100,4,2,4,70,0,0
332723,-76.9230769230769,4,2,4,65,0,0
333017,-66.6666666666667,4,2,4,67,0,0
333311,-111.111111111111,4,2,4,70,0,0
333605,-76.9230769230769,4,2,4,75,0,0
334781,-125,4,2,4,65,0,0
335958,-125,4,2,4,60,0,0
336252,-125,4,2,4,62,0,0
336546,-125,4,2,4,64,0,0
336840,-125,4,2,4,66,0,0
337134,-125,4,2,4,68,0,0
337429,-125,4,2,4,70,0,0
337723,-125,4,2,4,72,0,0
338017,-125,4,2,4,74,0,0
338311,-125,4,2,4,76,0,0
338605,-125,4,2,4,78,0,0
338899,-125,4,2,4,80,0,0
339046,-125,4,2,4,81,0,0
339193,-125,4,2,4,82,0,0
339340,-125,4,2,4,83,0,0
339487,-250,4,2,4,85,0,0
340076,-1000,4,2,4,65,0,0
340664,588.235294117647,4,2,4,70,1,0
340664,-142.857142857143,4,2,5,70,0,0
344193,588.235294117647,4,2,5,70,1,0
344487,-142.857142857143,4,2,5,70,0,0
344781,-83.3333333333333,4,2,5,70,0,0
345369,-125,4,2,5,70,0,0
345957,-90.9090909090909,4,2,5,70,0,0
346545,-142.857142857143,4,2,5,70,0,0
346840,-125,4,2,5,70,0,0
347134,-58.8235294117647,4,2,5,70,0,0
347428,-125,4,2,5,70,0,0
347722,-76.9230769230769,4,2,5,70,0,0
348310,-33.3333333333333,4,2,5,70,0,0
348898,-142.857142857143,4,2,5,70,0,0
349193,-50,4,2,5,70,0,0
349781,-111.111111111111,4,2,5,70,0,0
350075,-142.857142857143,4,2,5,70,0,0
350663,-50,4,2,5,70,0,0
350957,-125,4,2,5,70,0,0
351251,-71.4285714285714,4,2,5,70,0,0
351545,-142.857142857143,4,2,5,70,0,0
351840,-58.8235294117647,4,2,5,70,0,0
352134,-142.857142857143,4,2,5,70,0,0
352428,-125,4,2,5,70,0,0
352722,-100,4,2,5,70,0,0
353016,-66.6666666666667,4,2,5,70,0,0
353310,-50,4,2,5,70,0,0
354193,-66.6666666666667,4,2,5,70,0,0
354487,-125,4,2,5,70,0,0
356545,-55.5555555555556,4,2,5,70,0,0
357134,-200,4,2,5,70,0,0
358898,-55.5555555555556,4,2,5,70,0,0
360663,-625,4,2,5,70,0,0
363016,-125,4,2,5,70,0,0
367654,571.428571428571,4,2,5,70,1,0

[Colours]
Combo1 : 128,128,192
Combo2 : 250,160,160
Combo3 : 194,59,34
Combo4 : 255,255,185
Combo5 : 167,199,231
Combo6 : 119,158,203
Combo7 : 248,200,220
Combo8 : 193,225,193

[HitObjects]
11,28,6994,21,2,3:2:0:0:
53,58,7136,1,2,0:2:0:0:
117,22,7279,1,2,0:2:0:0:
172,81,7422,1,2,0:2:0:0:
11,28,7565,101,10,0:2:0:0:
75,89,7708,1,2,0:2:0:0:
163,54,7851,1,2,0:2:0:0:
222,149,7993,5,10,0:2:0:0:
234,154,8065,1,8,3:2:0:0:
228,160,8136,2,0,P|218:212|215:234,1,69.562497877121,0|0,3:0|0:0,0:0:0:0:
232,223,8422,2,0,L|213:164,1,49.6875,0|0,3:0|0:0,0:0:0:0:
128,198,8708,102,2,B|87:196|87:196|292:354|292:354|269:358,1,324.624990093232,10|2,0:1|0:1,0:1:0:0:
284,335,9279,1,0,0:0:0:0:
189,375,9565,6,2,L|203:317,1,59.6249981803895,2|2,3:2|0:2,0:1:0:0:
334,276,9851,102,2,B|346:259|346:259|314:111,1,149.062505686283,8|0,0:2|0:2,0:1:0:0:
392,244,10136,6,2,B|374:180,1,66.25,0|8,0:2|0:2,0:1:0:0:
220,104,10351,101,8,0:2:0:0:
228,93,10422,2,2,B|257:240,1,149.062505686283,0|0,3:2|0:2,0:1:0:0:
180,331,10708,6,2,L|188:290,1,39.75,0|0,3:2|0:2,0:1:0:0:
295,179,10993,102,2,B|320:15|320:15|298:37,1,178.874994541168,8|0,0:2|0:2,0:1:0:0:
118,222,11279,6,2,B|126:210|126:210|176:370,1,178.874994541168,0|0,3:2|0:2,0:1:0:0:
11,28,11565,101,2,3:2:0:0:
53,58,11707,1,2,0:2:0:0:
117,22,11850,1,2,0:2:0:0:
172,81,11993,1,2,0:2:0:0:
11,28,12136,5,10,0:2:0:0:
75,89,12279,1,2,0:2:0:0:
163,54,12422,1,2,0:2:0:0:
222,149,12564,101,2,3:2:0:0:
234,154,12636,1,0,3:2:0:0:
228,160,12707,2,0,P|218:212|215:234,1,69.562497877121,0|0,3:0|0:0,0:0:0:0:
255,174,12993,2,0,L|242:112,1,49.6875,0|0,3:0|0:0,0:0:0:0:
418,33,13279,6,2,B|270:240|270:240|259:218,1,278.249991508484,8|8,0:0|0:0,0:1:0:0:
334,118,13779,1,8,0:0:0:0:
321,115,13851,1,8,0:0:0:0:
189,9,14136,102,2,L|203:67,1,59.6249981803895,2|2,3:2|0:2,0:1:0:0:
334,108,14422,6,2,B|346:125|346:125|314:273,1,149.062505686283,8|0,0:2|0:2,0:1:0:0:
392,140,14707,102,2,B|374:207,1,66.25,0|8,0:2|0:2,0:1:0:0:
213,364,14922,5,8,0:1:0:0:
228,290,14993,2,2,B|257:144,1,149.062505686283,0|0,3:2|0:2,0:1:0:0:
180,53,15279,102,2,L|188:94,1,39.75,0|0,3:2|0:2,0:1:0:0:
291,229,15565,6,0,L|307:294,1,59.6249981803895,8|0,0:0|0:0,0:0:0:0:
153,315,15708,2,0,L|160:373,1,33.125,0|0,3:0|0:0,0:0:0:0:
256,0,15851,101,8,0:0:0:0:
480,112,15993,5,8,0:2:0:0:
487,102,16065,1,8,0:2:0:0:
477,91,16136,1,6,3:2:0:0:
390,135,16279,1,2,0:0:0:0:
455,183,16422,1,2,0:0:0:0:
456,103,16565,1,2,0:0:0:0:
318,68,16708,1,10,0:2:0:0:
277,135,16851,1,2,0:2:0:0:
212,172,16993,1,2,0:0:0:0:
21,48,17136,1,10,0:0:0:0:
13,64,17208,1,8,0:0:0:0:
28,87,17279,2,0,L|42:-2,1,66.25,2|0,0:2|0:2,0:2:0:0:
101,212,17565,2,0,L|111:261,1,39.7499987869263,2|0,3:2|0:0,0:0:0:0:
133,235,17708,2,0,L|123:284,1,39.7499987869263,2|0,0:0|0:0,0:0:0:0:
0,236,17851,102,0,B|-25:272|-25:272|149:123,1,248.437509477139,10|0,0:1|0:0,0:0:0:0:
278,236,18279,5,8,0:2:0:0:
262,219,18351,1,8,0:2:0:0:
237,222,18422,1,2,3:2:0:0:
188,298,18565,1,2,0:2:0:0:
208,140,18708,1,2,0:2:0:0:
204,285,18851,1,2,0:2:0:0:
54,360,18993,1,10,0:2:0:0:
4,310,19136,1,2,0:2:0:0:
71,272,19279,1,2,0:2:0:0:
279,324,19422,1,10,0:2:0:0:
416,332,19565,102,0,B|401:308|401:308|354:290,1,79.5,2|0,0:0|0:0,0:0:0:0:
512,285,19851,6,0,B|499:350|499:350|429:368,1,139.124995754242,2|0,3:1|0:0,0:0:0:0:
385,180,20136,102,0,B|403:207|403:207|453:20|453:20|502:-2,1,248.437509477139,10|0,0:1|0:0,0:0:0:0:
461,92,20565,5,0,3:2:0:0:
470,94,20636,1,0,3:2:0:0:
467,98,20708,2,0,B|477:149|477:149|495:169,1,79.4999975738526,2|0,3:2|0:0,0:0:0:0:
346,280,20993,2,0,B|329:277|329:277|301:257|301:257|264:249,1,79.4999975738526,2|0,0:2|0:0,0:0:0:0:
467,98,21279,102,0,B|477:149|477:149|495:170|495:170|479:217,1,129.187494086266,10|0,0:0|0:0,0:0:0:0:
334,267,21565,2,0,L|282:279,1,53,2|0,0:0|0:0,0:0:0:0:
172,357,21779,5,0,3:0:0:0:
152,347,21851,1,0,3:0:0:0:
85,306,21993,1,2,0:2:0:0:
155,146,22136,1,2,3:1:0:0:
228,121,22279,1,2,0:2:0:0:
34,384,22422,102,0,B|164:331|164:331|160:355,1,159,10|0,0:1|0:0,0:0:0:0:
73,139,22708,2,0,B|10:113|10:113|60:115,1,99.375,2|0,0:0|0:0,0:0:0:0:
306,217,22993,6,0,B|372:274|372:274|407:281|407:281|243:194|243:194|290:236,1,371,2|0,3:2|0:0,0:0:0:0:
416,355,23565,2,0,B|398:381|398:381|512:326,1,158.999995147705,10|0,0:0|0:0,0:0:0:0:
512,325,23993,102,0,L|496:250,1,39.7499987869263,8|0,0:0|0:0,0:0:0:0:
356,67,24136,6,0,B|368:79|368:79|374:109|374:109|467:160,1,139.124995754242,2|0,3:2|0:0,0:0:0:0:
501,46,24422,101,2,0:2:0:0:
288,13,24565,5,8,0:2:0:0:
363,152,24708,101,10,0:2:0:0:
254,150,24851,5,0,3:2:0:0:
277,237,24993,101,8,0:3:0:0:
195,250,25136,5,4,0:3:0:0:
209,304,25279,102,0,L|183:348,1,49.6875,4|0,3:2|0:0,0:0:0:0:
110,367,26422,6,0,L|61:374,1,49.6875,4|0,3:2|0:0,0:0:0:0:
290,305,27565,102,0,L|339:313,1,49.6875,4|0,3:2|0:0,0:0:0:0:
153,236,28708,6,0,L|144:213,1,23.1875,4|0,3:2|0:0,0:0:0:0:
261,191,29279,101,10,0:2:0:0:
170,91,29422,5,10,0:2:0:0:
79,84,29565,101,2,3:2:0:0:
20,135,29708,5,2,0:2:0:0:
13,207,29851,102,0,B|52:168|52:168|-9:284,1,141.333333333333,4|0,3:2|0:0,0:0:0:0:
84,172,30136,2,0,B|52:136|52:136|12:17,1,158.999995147705,10|0,0:1|0:0,0:0:0:0:
171,90,30422,2,0,B|230:78|230:78|301:122|301:122|331:83,1,176.666666666667,2|0,3:2|0:0,0:0:0:0:
447,58,30708,5,10,0:1:0:0:
415,102,30803,1,0,3:2:0:0:
448,134,30898,1,0,3:2:0:0:
471,135,30993,102,0,B|441:169|441:169|541:126,1,123.66666289266,2|0,3:2|0:0,0:0:0:0:
405,359,31279,2,0,B|420:328|420:328|368:231|368:231|360:188,1,176.666666666667,10|0,0:1|0:0,0:0:0:0:
430,282,31565,6,0,B|493:305|493:305|510:241,1,123.66666289266,2|0,3:2|0:0,0:0:0:0:
322,343,31851,2,0,B|184:379|184:379|247:323,1,176.666666666667,10|0,0:1|0:0,0:0:0:0:
471,319,32136,102,0,L|511:331,1,35.3333333333333,2|0,3:2|0:0,0:0:0:0:
191,270,32422,6,0,B|207:331|207:331|111:194,1,229.666656153361,10|0,0:1|0:0,0:0:0:0:
293,367,32708,102,0,L|33:313,1,265.000010108948,10|0,0:1|0:0,0:0:0:0:
75,384,32993,6,0,L|127:371,1,52.9999983825684,0|0,3:2|0:0,0:0:0:0:
48,49,33279,101,2,3:1:0:0:
252,127,33422,1,10,0:2:0:0:
177,156,33565,1,10,0:2:0:0:
221,54,33708,1,10,0:2:0:0:
370,259,33851,5,10,0:2:0:0:
166,160,33993,1,10,0:2:0:0:
369,27,34136,1,2,3:2:0:0:
369,27,34208,1,0,3:2:0:0:
369,27,34279,1,2,3:2:0:0:
254,342,34422,102,0,L|259:358,1,9.93749969673158,8|0,1:2|0:0,0:0:0:0:
451,372,34993,6,0,L|104:383,1,347.812513267994,4|0,3:2|0:2,0:2:0:0:
467,293,35564,102,0,L|27:308,1,394.18750751853,4|0,3:2|0:2,0:2:0:0:
468,199,36135,6,0,B|401:187|401:187|315:212|315:212|207:192|207:192|129:228|129:228|20:203,1,440.562488235712,4|0,3:2|0:2,0:2:0:0:
491,108,36707,102,0,L|15:120,1,463.75,4|0,3:2|0:2,0:2:0:0:
499,8,37850,6,2,B|432:38|432:38|357:17|357:17|287:38|287:38|217:12|217:12|163:33|163:33|90:-1|90:-1|2:46,1,535.299989381562,4|0,3:2|0:2,0:1:0:0:
300,74,40707,102,0,B|211:118|211:118|309:22|309:22|309:76,1,278.249991508484,4|0,3:2|0:0,0:0:0:0:
102,164,41279,6,0,B|20:187|20:187|60:208,1,105.999996765137,2|0,3:2|0:0,0:0:0:0:
260,167,41564,2,0,B|97:123|97:123|82:82,1,211.999993530274,10|0,0:1|0:0,0:0:0:0:
350,222,41850,102,0,B|419:203|419:203|391:223,1,105.999996765137,2|0,3:2|0:0,0:0:0:0:
379,352,42136,2,0,B|456:177|456:177|492:189,1,229.666656153361,10|0,0:1|0:0,0:0:0:0:
316,101,42421,6,0,L|281:-17,1,105.999996765137,2|0,3:2|0:0,0:0:0:0:
503,266,42707,2,0,B|503:249|503:249|397:101|397:101|420:44,1,229.666656153361,10|0,0:1|0:0,0:0:0:0:
198,245,42993,102,0,B|133:297|133:297|73:299,1,123.66666289266,2|0,3:2|0:0,0:0:0:0:
225,351,43279,2,0,B|24:294|24:294|77:277,1,265.000010108948,10|0,0:1|0:0,0:0:0:0:
171,74,43564,6,0,B|111:-6|111:-6|-5:0,1,211.999993530274,2|0,3:1|0:0,0:0:0:0:
267,211,43850,102,0,B|250:127|250:127|162:165,1,176.666666666667,10|0,0:1|0:0,0:0:0:0:
381,300,44136,6,0,B|416:240|416:240|345:251,1,141.333333333333,2|0,3:1|0:0,0:0:0:0:
465,365,44421,102,0,B|513:347|513:347|454:349,1,105.999996765137,10|0,0:1|0:0,0:0:0:0:
79,188,44707,6,0,L|444:158,1,344.499984230042,14|0,0:1|0:0,0:0:0:0:
256,208,45136,1,0,1:0:0:0:
305,132,45279,102,0,L|206:116,1,99.3750037908555,2|0,3:2|0:0,0:0:0:0:
44,365,45850,6,0,B|-6:374|-6:374|96:331,1,141.333333333333,2|0,3:2|0:0,0:0:0:0:
234,358,46136,2,0,B|50:315|50:315|36:277,1,229.666656153361,10|0,0:1|0:0,0:0:0:0:
183,104,46421,102,0,B|148:141|148:141|89:123,1,105.999996765137,2|0,3:2|0:0,0:0:0:0:
151,311,46707,2,0,B|170:321|170:321|130:169|130:169|90:136,1,229.666656153361,10|0,0:1|0:0,0:0:0:0:
320,0,46993,6,0,B|226:25|226:25|251:30,1,123.66666289266,0|0,3:2|0:0,0:0:0:0:
343,162,47279,2,2,B|446:229|446:229|486:205|486:205|519:272,1,229.666656153361,10|0,0:1|0:2,0:1:0:0:
499,22,47564,102,0,B|459:76|459:76|352:96,1,123.66666289266,2|0,3:2|0:0,0:0:0:0:
254,113,47850,2,0,B|246:136|246:136|414:33|414:33|451:56,1,247.333325785319,10|0,0:1|0:0,0:0:0:0:
384,229,48136,6,0,B|426:294|426:294|449:311,1,105.999996765137,2|0,3:1|0:0,0:0:0:0:
287,250,48421,102,0,B|266:328|266:328|291:392,1,141.333333333333,10|0,0:1|0:0,0:0:0:0:
185,181,48707,6,0,B|100:203|100:203|71:299,1,176.666666666667,2|0,3:1|0:0,0:0:0:0:
187,47,48993,102,0,B|52:17|52:17|138:74,1,238.499992721558,10|0,0:1|0:0,0:0:0:0:
260,376,49279,6,0,L|290:10,1,367.5,6|0,3:1|0:2,0:2:0:0:
262,75,49850,102,0,L|298:325,1,238.499992721558,2|0,3:2|0:2,0:2:0:0:
40,60,50421,6,0,B|1:41|1:41|59:128,1,119.249996360779,2|0,3:2|0:0,0:0:0:0:
0,187,50707,102,0,B|53:170|53:170|66:116|66:116|138:109|138:109|188:81,1,238.499992721558,10|0,0:0|0:0,0:0:0:0:
424,145,50993,1,2,3:2:0:0:
354,188,51136,1,0,3:2:0:0:
253,36,51279,1,10,0:2:0:0:
236,21,51421,1,0,3:2:0:0:
424,145,51564,6,0,B|296:108|296:108|331:79,1,178.874994541168,2|0,3:2|0:0,0:0:0:0:
502,155,51850,2,0,B|498:178|498:178|328:213|328:213|288:289,1,238.499992721558,10|0,0:0|0:0,0:0:0:0:
238,283,52136,1,2,3:2:0:0:
375,383,52279,1,0,3:2:0:0:
272,185,52421,2,0,B|243:190|243:190|397:268|397:268|381:226,1,238.499992721558,10|0,0:0|0:0,0:0:0:0:
105,313,52707,102,0,B|34:341|34:341|13:331,1,99.375,2|0,3:2|0:0,0:0:0:0:
13,331,52993,2,0,B|133:373|133:373|110:220,1,278.249991508484,10|0,0:0|0:0,0:0:0:0:
65,103,53279,6,0,B|50:157|50:157|8:168,1,99.375,2|0,3:2|0:0,0:0:0:0:
8,167,53564,2,0,B|51:152|51:152|82:182|82:182|99:228|99:228|161:251|161:251|204:212,1,238.499992721558,10|0,0:0|0:0,0:0:0:0:
355,138,53850,102,2,B|516:35|516:35|519:-18|519:-18|346:222|346:222|382:135,1,602.874972402574,0|0,3:0|0:0,0:1:0:0:
490,37,54421,6,0,L|512:6,1,29.8124990901947,4|0,3:2|0:0,0:0:0:0:
461,164,54707,101,8,0:2:0:0:
445,97,54779,1,8,0:2:0:0:
379,53,54850,1,8,0:2:0:0:
302,69,54921,1,8,0:2:0:0:
251,132,54993,6,0,B|186:155|186:155|173:127,1,99.3750037908555,6|0,3:1|0:0,0:0:0:0:
51,46,55136,2,0,L|3:0,1,66.25,2|0,0:1|0:0,0:0:0:0:
218,195,55279,102,0,B|0:112|0:112|46:159,1,298.125011372567,10|0,0:1|0:0,0:0:0:0:
286,236,55564,1,2,3:2:0:0:
212,365,55707,1,2,3:2:0:0:
173,127,55850,6,0,B|190:187|190:187|152:228|152:228|35:281|35:281|37:227,1,278.249991508484,10|0,0:0|0:0,0:0:0:0:
284,317,56136,102,0,L|328:330,1,39.7499987869263,2|0,3:2|0:0,0:0:0:0:
398,355,56279,2,0,L|451:368,1,39.7499987869263,0|0,3:0|0:0,0:0:0:0:
435,202,56421,6,0,B|433:215|433:215|375:282|375:282|380:333|380:333|477:300|477:300|461:252,1,298.125011372567,4|0,3:3|0:0,0:3:0:0:
372,377,56707,102,2,B|356:361|356:361|442:122|442:122|390:74,1,318,0|0,3:0|0:0,0:1:0:0:
245,147,56993,6,0,B|211:144|211:144|196:44|196:44|252:12|252:12|312:100,1,298.125011372567,10|0,0:0|0:0,0:0:0:0:
92,85,57279,102,0,B|149:99|149:99|182:72,1,79.4999975738526,2|0,3:1|0:0,0:0:0:0:
344,15,57421,2,0,L|322:99,1,79.4999975738526,2|0,0:1|0:0,0:0:0:0:
138,179,57564,6,0,B|-18:271|-18:271|41:160,1,298.125011372567,10|0,0:1|0:0,0:0:0:0:
180,252,57850,2,0,L|268:275,1,72.8750022239686,2|0,3:1|0:0,0:0:0:0:
32,373,57993,2,0,B|68:344|68:344|65:291,1,79.4999975738526,2|0,0:1|0:0,0:0:0:0:
18,176,58136,102,0,B|178:321|178:321|226:366,1,278.249991508484,10|0,0:1|0:0,0:0:0:0:
124,191,58421,6,0,B|115:182|115:182|104:129,1,66.25,2|0,3:1|0:0,0:0:0:0:
12,70,58564,2,0,B|8:57|8:57|36:9,1,66.25,2|0,0:1|0:0,0:0:0:0:
138,179,58707,102,0,B|158:179|158:179|212:215,1,86.1249960575106,10|0,0:1|0:0,0:0:0:0:
37,67,58850,2,0,B|44:55|44:55|114:37,1,86.1249960575106,2|0,0:1|0:0,0:0:0:0:
149,197,58993,6,0,B|335:147|335:147|355:163,1,218.625006671906,2|0,3:2|0:2,0:2:0:0:
511,317,59279,102,0,B|495:328|495:328|349:268|349:268|431:211|431:211|440:171,1,298.125011372567,10|0,0:0|0:0,0:0:0:0:
317,32,59564,6,0,B|295:83|295:83|309:102,1,79.4999975738526,2|0,3:1|0:0,0:0:0:0:
470,259,59707,2,0,L|398:271,1,72.8750022239686,2|0,0:1|0:0,0:0:0:0:
320,373,59850,102,0,B|340:364|340:364|400:123|400:123|425:112,1,298.125011372567,10|0,0:1|0:0,0:0:0:0:
512,0,60136,6,0,L|479:87,1,66.25,2|0,3:2|0:0,0:0:0:0:
259,215,60279,2,0,B|323:254|323:254|322:236,1,92.7499971694947,2|0,0:0|0:0,0:0:0:0:
436,190,60421,102,0,B|418:220|418:220|381:188|381:188|189:230|189:230|147:209,1,318,10|0,0:1|0:0,0:0:0:0:
8,383,60707,5,2,3:2:0:0:
8,374,60850,1,2,0:2:0:0:
14,371,60993,1,10,0:2:0:0:
20,363,61136,1,2,0:2:0:0:
30,365,61279,1,2,3:2:0:0:
35,350,61421,1,2,0:2:0:0:
53,350,61564,1,10,0:2:0:0:
47,322,61707,1,2,0:2:0:0:
105,337,61850,1,2,3:2:0:0:
76,299,61993,1,2,0:2:0:0:
147,323,62136,1,10,0:2:0:0:
109,257,62279,1,2,0:2:0:0:
195,306,62421,1,2,3:2:0:0:
153,217,62564,1,2,0:2:0:0:
249,290,62707,1,10,0:2:0:0:
200,168,62850,1,2,0:2:0:0:
313,284,62993,1,2,3:2:0:0:
259,119,63136,1,2,0:2:0:0:
401,288,63279,1,10,0:2:0:0:
315,53,63421,1,2,0:2:0:0:
492,254,63564,1,2,3:2:0:0:
392,8,63707,1,2,3:2:0:0:
392,8,63779,1,0,3:2:0:0:
392,8,63850,1,10,0:2:0:0:
392,8,63921,1,8,0:2:0:0:
392,8,63993,1,10,0:2:0:0:
491,44,64136,102,0,B|516:50|516:50|401:104,1,99.3750037908555,4|0,3:2|0:0,0:0:0:0:
269,228,64279,1,10,0:2:0:0:
265,235,64350,1,2,0:2:0:0:
257,231,64421,2,0,B|228:211|180:201|180:201|175:184,1,99.3750037908555,0|0,3:0|0:0,0:0:0:0:
233,132,64564,6,0,B|255:141|255:141|404:83|404:83|398:143|398:143|368:174,1,278.249991508484,10|0,0:1|0:0,0:0:0:0:
106,218,64850,2,0,B|77:204|47:198|47:198|18:209,1,92.7499971694947,8|0,0:0|0:0,0:0:0:0:
134,15,64993,2,0,B|159:59|159:59|143:73|144:119,1,92.7499971694947,0|0,3:0|0:0,0:0:0:0:
373,338,65136,101,10,0:2:0:0:
360,331,65207,1,2,0:2:0:0:
370,329,65279,2,0,B|389:311|389:311|332:224,1,92.7499971694947,0|0,3:0|0:0,0:0:0:0:
97,41,65421,6,0,B|2:111|2:111|0:130|0:130|75:169|75:169|135:109|135:109|130:70,1,318,10|0,0:1|0:0,0:0:0:0:
352,52,65707,2,2,B|373:77|370:108|370:108|301:40|202:28|202:28|235:56|237:96,1,318,10|0,0:1|0:0,0:0:0:0:
105,371,65993,2,0,B|133:357|133:357|143:316|143:316|149:304,1,86.1249960575106,0|0,3:0|0:0,0:0:0:0:
289,201,66136,1,8,0:2:0:0:
288,190,66207,1,8,3:2:0:0:
280,199,66279,2,0,B|223:187|223:187|190:171,1,86.1249960575106,8|0,0:0|0:0,0:0:0:0:
2,324,66421,102,2,B|49:334|49:334|26:367|26:367|300:313,1,298.125011372567,0|0,3:0|0:0,0:1:0:0:
369,212,66707,2,0,B|396:192|417:186|417:186|442:147,1,86.1249960575106,0|0,3:0|0:0,0:0:0:0:
149,304,66850,2,0,B|202:316|202:316|272:320,1,99.3750037908555,8|0,0:0|0:0,0:0:0:0:
377,384,66993,5,0,3:2:0:0:
387,377,67064,1,0,3:2:0:0:
381,370,67136,2,0,B|372:365|372:365|335:292|335:292|308:282,1,106,8|0,0:2|0:2,0:2:0:0:
437,43,67279,102,2,B|451:67|451:67|414:177|414:177|401:183|401:183|301:153|301:153|364:87,1,318,0|0,3:2|0:2,0:1:0:0:
497,284,67564,6,0,B|512:311|512:311|465:306|433:259,1,106,0|0,3:0|0:0,0:0:0:0:
334,24,67707,2,0,B|323:55|323:55|339:113,1,92.7499971694947,8|0,0:0|0:0,0:0:0:0:
512,74,67850,102,2,B|509:89|509:89|264:171|264:171|260:195,1,298.125011372567,0|0,3:2|0:2,0:1:0:0:
22,312,68136,1,0,3:2:0:0:
17,321,68207,1,0,3:2:0:0:
29,325,68279,2,0,B|95:343|95:343|107:381,1,99.3750037908555,8|0,0:0|0:0,0:0:0:0:
104,372,68421,2,2,B|73:382|73:382|153:221|153:221|123:174,1,258.374988172532,0|0,3:0|0:0,0:1:0:0:
34,11,68707,6,2,B|10:40|10:40|2:109|2:109|88:151|88:151|153:62|153:62|152:42|152:42|113:7,1,377.624989916325,6|0,3:2|0:2,0:1:0:0:
205,199,68993,2,2,B|189:172|189:172|116:155,1,99.375,0|0,0:0|0:0,0:1:0:0:
0,194,69279,102,2,B|60:178|60:178|97:126|97:126|187:162|187:162|226:126|226:126|306:112,1,357.749989082337,6|0,3:2|0:0,0:1:0:0:
490,39,69564,2,0,B|426:17|426:17|420:0,1,86.1249960575106,0|0,3:0|0:0,0:0:0:0:
196,60,69707,2,0,B|168:61|168:61|254:104,1,99.3750037908555,8|0,0:0|0:0,0:0:0:0:
451,281,69850,6,0,B|437:303|437:303|288:341|288:341|329:230,1,298.125011372567,6|0,3:1|0:0,0:0:0:0:
408,384,70136,2,2,B|189:315|189:315|167:286|149:241,1,298.125011372567,2|0,0:1|0:0,0:2:0:0:
306,111,70421,2,0,B|298:126|298:126|325:158|328:210,1,86.1249960575106,2|0,3:1|0:0,0:0:0:0:
92,352,70564,2,0,B|126:344|126:344|136:330|136:330|156:330|176:320,1,92.7499971694947,2|0,3:1|0:0,0:0:0:0:
416,65,70707,102,0,B|535:6|535:6|357:209,1,337.875006444454,2|0,3:1|0:0,0:0:0:0:
210,250,70993,6,0,B|171:251|143:229|143:229|116:241,1,99.3750037908555,2|0,0:1|0:0,0:0:0:0:
48,61,71136,1,8,0:2:0:0:
14,63,71207,1,8,0:2:0:0:
9,98,71279,2,0,B|43:133|35:165|35:165|44:206,1,99.3750037908555,8|0,0:0|0:0,0:0:0:0:
250,365,71421,2,0,B|190:349|190:349|169:319,1,99.3750037908555,8|0,0:0|0:0,0:0:0:0:
0,357,71564,102,2,B|212:253|212:253|102:180,1,337.875006444454,0|0,3:0|0:0,0:1:0:0:
33,0,71850,2,0,B|40:22|40:22|-11:96,1,92.7499971694947,0|0,3:1|0:0,0:0:0:0:
289,299,71993,6,2,B|323:330|323:330|146:313|146:313|-4:249|-4:249|35:209|35:209|0:226,1,476.999985443116,8|0,0:0|3:0,0:1:0:0:
0,226,72350,1,0,3:0:0:0:
2,237,72421,101,8,0:2:0:0:
508,384,72564,5,8,0:2:0:0:
457,336,72707,101,8,0:2:0:0:
404,228,72850,5,8,0:2:0:0:
356,87,72993,101,0,3:2:0:0:
377,65,73064,5,0,3:2:0:0:
376,31,73136,101,0,3:2:0:0:
396,21,73207,5,0,3:2:0:0:
399,0,73279,102,2,P|401:46|405:0,1,139.124995754242,6|0,3:2|0:0,0:0:0:0:
79,103,73850,6,0,P|80:134|83:103,1,92.75,2|0,0:0|0:0,0:0:0:0:
257,344,74421,102,0,P|258:371|260:344,1,79.4999975738526,2|2,0:0|0:3,0:0:0:0:
256,108,75279,5,0,3:2:0:0:
256,108,75350,1,0,3:2:0:0:
256,108,75421,1,0,3:2:0:0:
256,108,75493,1,0,3:2:0:0:
270,92,75564,2,0,P|263:125|272:95,1,132.5,10|0,0:1|0:0,0:0:0:0:
243,112,75707,102,0,P|253:95|242:108,1,66.25,10|8,0:1|0:3,0:0:0:0:
172,39,76136,6,0,P|105:23|48:-8,1,92.7499971694947,8|0,0:3|0:0,0:0:0:0:
36,154,76421,1,12,0:3:0:0:
106,104,76564,2,0,B|60:131|60:131|180:238,1,185.499994338989,8|4,0:3|0:3,0:0:0:0:
359,92,76993,2,0,P|399:69|443:54,1,92.7499971694947,4|0,0:3|0:0,0:0:0:0:
365,344,77279,101,8,0:2:0:0:
255,224,77421,1,8,0:2:0:0:
327,172,77564,5,8,0:2:0:0:
211,384,77707,1,8,0:2:0:0:
82,365,77850,102,0,P|73:331|59:300,1,69.562497877121,2|0,3:2|0:0,0:0:0:0:
118,299,78135,2,0,P|104:330|98:365,1,69.562497877121,2|0,3:2|0:0,0:0:0:0:
89,376,78421,6,2,P|43:221|78:378,1,496.875,14|0,0:0|0:0,0:1:0:0:
454,328,78992,102,0,P|461:286|481:254,1,69.562497877121,2|0,3:2|0:0,0:0:0:0:
412,264,79277,2,0,P|430:294|438:328,1,69.562497877121,2|0,3:2|0:0,0:0:0:0:
433,351,79564,6,2,P|479:196|443:353,1,496.875,14|0,0:0|0:0,0:1:0:0:
145,323,80135,102,0,P|155:286|160:243,1,69.562497877121,2|0,3:2|0:0,0:0:0:0:
104,259,80420,2,0,P|121:289|129:323,1,69.562497877121,2|0,3:2|0:0,0:0:0:0:
133,335,80707,6,2,P|86:180|122:337,1,496.875,14|0,0:0|0:0,0:1:0:0:
340,257,81278,102,0,P|332:216|314:179,1,69.562497877121,2|0,3:2|0:0,0:0:0:0:
377,191,81563,2,0,P|363:223|356:257,1,69.562497877121,2|0,3:2|0:0,0:0:0:0:
343,275,81850,6,2,P|389:120|353:277,1,496.875,14|0,0:0|0:0,0:1:0:0:
100,188,82421,102,0,P|88:147|85:108,1,69.562497877121,2|0,3:2|0:0,0:0:0:0:
141,125,82706,2,0,P|122:154|116:188,1,69.562497877121,2|0,3:2|0:0,0:0:0:0:
111,204,82992,6,2,P|64:49|100:206,1,496.875,14|0,0:0|0:0,0:1:0:0:
404,267,83564,102,0,P|413:232|433:192,1,69.562497877121,2|0,3:2|0:0,0:0:0:0:
365,202,83850,2,0,P|382:232|388:267,1,69.562497877121,2|0,3:2|0:0,0:0:0:0:
392,284,84135,6,2,P|438:129|402:286,1,496.875,14|0,0:0|0:0,0:1:0:0:
85,113,84707,102,0,P|102:143|108:178,1,69.562497877121,2|0,3:2|0:0,0:0:0:0:
162,121,84992,2,0,P|139:147|123:178,1,69.562497877121,2|0,3:2|0:0,0:0:0:0:
114,193,85278,6,2,P|67:38|103:195,1,496.875,14|0,0:0|0:0,0:1:0:0:
336,125,85850,102,0,P|319:76|321:45,1,69.562497877121,2|0,3:2|0:0,0:0:0:0:
370,58,86134,2,0,P|356:90|352:125,1,69.562497877121,2|0,3:2|0:0,0:0:0:0:
342,138,86421,6,2,P|388:-16|352:140,1,496.875,14|0,0:0|0:0,0:1:0:0:
110,220,86992,102,0,B|129:246|129:246|18:212,1,139.124995754242,2|0,3:2|0:0,0:0:0:0:
0,340,87278,2,0,P|70:283|163:266,1,178.874994541168,2|0,3:2|0:0,0:0:0:0:
245,116,87564,2,0,P|161:143|126:12,1,251.74999327755,10|2,0:0|0:0,0:0:0:0:
385,235,88135,6,0,P|453:263|490:314,1,119.249996360779,6|0,3:2|0:0,0:0:0:0:
374,366,88564,2,0,P|375:273|404:238,1,119.249996360779,14|0,0:0|0:0,0:0:0:0:
507,299,88992,2,0,P|455:359|229:324,1,301.437486201287,6|0,3:2|0:0,0:0:0:0:
243,352,89564,1,0,3:0:0:0:
465,8,89849,102,0,B|439:77|439:77|491:102|494:166,1,172.249992115021,12|0,0:0|0:0,0:0:0:0:
362,56,90278,1,8,0:2:0:0:
469,162,90421,2,0,B|479:197|479:197|356:221|325:126,1,225.250004296303,0|8,3:0|0:0,0:0:0:0:
278,62,90849,1,0,0:2:0:0:
131,286,90992,5,8,0:2:0:0:
203,213,91135,1,0,3:2:0:0:
127,173,91278,1,8,0:3:0:0:
216,241,91421,1,8,0:3:0:0:
64,242,91564,102,0,B|18:235|-18:248|-18:248|80:274|141:369,1,278.249991508484,6|0,3:2|0:0,0:0:0:0:
135,361,92135,2,0,P|158:294|208:265,1,92.7499971694947,8|0,0:0|0:0,0:0:0:0:
326,197,92421,2,0,P|305:128|276:95,1,92.7499971694947,0|0,3:0|0:0,0:0:0:0:
0,378,92707,6,0,B|137:340|137:340|54:387,1,231.874992923737,6|0,3:2|0:0,0:0:0:0:
294,279,93135,2,0,B|445:314|445:314|467:281,1,185.499994338989,2|0,3:2|0:0,0:0:0:0:
290,8,93564,102,0,L|256:377,1,371,6|0,3:2|0:2,0:2:0:0:
256,377,96135,53,10,0:2:0:0:
249,322,96257,1,10,0:2:0:0:
274,235,96380,1,10,0:0:0:0:
344,144,96503,1,10,0:0:0:0:
467,89,96626,1,10,0:1:0:0:
256,377,96872,101,10,0:2:0:0:
263,322,96994,1,10,0:2:0:0:
238,235,97117,1,10,0:0:0:0:
168,144,97240,1,10,0:0:0:0:
45,89,97363,1,10,0:1:0:0:
256,377,97610,37,10,0:0:0:0:
256,322,97733,1,10,0:0:0:0:
256,235,97856,1,10,0:0:0:0:
256,144,97979,1,10,0:0:0:0:
256,0,98102,1,10,0:1:0:0:
170,42,98348,85,0,3:0:0:0:
335,112,98594,1,0,3:0:0:0:
107,321,98839,102,0,B|189:323|189:323|-7:396,1,258.374988172532,10|0,0:1|3:0,0:0:0:0:
15,379,99270,1,8,0:0:0:0:
18,368,99331,2,0,P|13:335|0:305,1,66.25,8|0,0:0|0:0,0:0:0:0:
220,201,99577,37,8,0:2:0:0:
281,243,99700,1,8,0:2:0:0:
209,276,99823,2,0,P|201:300|197:332,3,33.125,0|2|2|2,3:0|0:0|0:0|0:0,0:0:0:0:
163,107,100069,86,0,P|202:110|240:122,1,79.4999975738526,4|0,3:2|0:0,0:0:0:0:
463,78,100315,1,2,0:2:0:0:
408,24,100438,2,0,B|305:32|351:86|228:99,1,185.499994338989,0|0,3:0|0:0,0:0:0:0:
437,154,100807,2,0,P|487:172|528:168,1,79.4999975738526,2|0,3:2|0:0,0:0:0:0:
311,381,101053,102,0,P|295:336|270:309,1,79.4999975738526,2|0,0:0|0:0,0:0:0:0:
389,337,101298,2,0,P|405:292|430:265,1,79.4999975738526,2|0,3:0|3:0,0:0:0:0:
323,202,101483,37,0,3:0:0:0:
297,168,101544,2,0,P|334:242|322:159,1,238.499992721558,8|0,0:0|0:0,0:0:0:0:
146,347,102036,86,0,P|79:369|50:384,1,79.4999975738526,0|0,3:0|0:0,0:0:0:0:
201,283,102282,1,2,0:2:0:0:
0,158,102405,2,0,P|46:219|160:214,1,185.499994338989,0|0,3:0|3:0,0:0:0:0:
151,212,102712,1,0,3:0:0:0:
159,216,102774,2,0,P|162:179|188:140,1,79.4999975738526,0|0,3:0|0:0,0:0:0:0:
405,329,103020,102,0,P|412:281|431:250,1,79.4999975738526,2|0,0:0|0:0,0:0:0:0:
320,300,103265,2,0,P|301:265|271:239,1,79.4999975738526,2|0,3:2|3:0,0:0:0:0:
359,155,103450,37,0,3:0:0:0:
352,113,103511,2,0,P|354:196|378:117,1,238.499992721558,8|0,0:0|0:0,0:0:0:0:
188,227,104003,86,0,P|148:221|113:204,1,79.4999975738526,0|0,3:0|0:0,0:0:0:0:
202,74,104249,1,2,0:2:0:0:
8,214,104372,2,0,B|127:201|67:156|190:143,1,185.499994338989,0|0,3:0|0:0,0:0:0:0:
331,41,104741,2,0,P|282:28|250:11,1,79.4999975738526,2|0,3:2|0:0,0:0:0:0:
390,284,104987,102,0,P|374:239|349:212,1,79.4999975738526,2|0,0:0|0:0,0:0:0:0:
468,240,105232,2,0,P|484:195|509:168,1,79.4999975738526,2|0,3:0|3:0,0:0:0:0:
402,105,105417,37,0,3:0:0:0:
376,71,105478,2,0,P|413:145|401:62,1,238.499992721558,8|0,0:0|0:0,0:0:0:0:
167,159,105971,86,0,P|160:119|147:82,1,79.4999975738526,0|0,3:0|0:0,0:0:0:0:
70,60,106216,1,2,0:0:0:0:
240,106,106339,1,2,3:2:0:0:
100,224,106462,2,0,P|45:242|7:261,1,92.7499971694947,2|0,0:0|0:0,0:0:0:0:
240,106,106708,2,0,P|256:23|262:8,1,92.7499971694947,2|0,3:2|0:0,0:0:0:0:
359,206,106954,101,2,0:2:0:0:
319,145,107077,1,8,0:2:0:0:
451,225,107200,2,0,P|472:158|496:138,1,79.4999975738526,2|0,3:2|0:0,0:0:0:0:
404,78,107446,37,8,0:2:0:0:
404,78,107569,1,8,0:2:0:0:
409,55,107692,2,0,P|400:100|423:67,1,119.249996360779,4|0,0:3|0:0,0:0:0:0:
56,384,107938,86,0,L|8:348,1,59.6249981803895,2|0,3:1|0:0,0:0:0:0:
117,114,108184,102,0,L|153:280,1,168.937503222227,2|0,3:1|0:0,0:0:0:0:
344,172,108430,38,0,L|493:0,1,228.562504359484,2|0,3:1|0:0,0:0:0:0:
234,203,108675,85,2,3:1:0:0:
493,0,108798,1,2,3:1:0:0:
488,362,109044,101,0,3:2:0:0:
466,336,109106,1,0,3:0:0:0:
433,345,109167,2,0,B|439:355|439:355|337:324,1,99.3750037908555,8|0,0:0|0:0,0:0:0:0:
123,216,109413,37,8,0:2:0:0:
283,278,109536,1,8,0:2:0:0:
152,346,109659,85,8,0:3:0:0:
66,380,109782,1,4,0:3:0:0:
95,137,109905,102,0,L|81:90,1,46.375,4|0,3:2|0:0,0:0:0:0:
11,185,110396,38,0,P|87:123|184:113,1,198.750007581711,10|0,0:2|3:0,0:0:0:0:
184,113,110888,2,0,P|142:65|144:1,1,132.5,2|0,3:2|0:2,0:0:0:0:
260,142,111257,1,2,3:2:0:0:
327,97,111380,2,0,P|348:67|351:-2,1,99.3750037908555,8|0,0:0|0:0,0:0:0:0:
509,187,111626,86,0,P|420:209|335:174,1,185.499994338989,2|0,3:2|0:0,0:0:0:0:
181,96,111995,1,0,0:0:0:0:
227,0,112118,2,0,P|250:40|252:76,1,72.8750022239686,2|0,3:2|0:0,0:0:0:0:
128,228,112364,2,0,P|96:196|52:184,1,92.7499971694947,10|0,0:0|0:0,0:0:0:0:
190,334,112609,1,2,0:2:0:0:
65,384,112732,1,0,3:2:0:0:
109,303,112855,2,0,P|170:252|247:239,1,158.999995147705,2|0,3:2|3:0,0:0:0:0:
325,276,113224,1,0,0:2:0:0:
190,334,113347,102,0,P|217:371|279:371,1,92.7499971694947,10|0,0:0|3:0,0:0:0:0:
316,191,113593,2,0,P|297:152|299:115,1,79.4999975738526,2|0,0:0|0:0,0:0:0:0:
468,345,113839,38,0,P|441:324|408:318,1,69.562497877121,2|0,3:2|0:0,0:0:0:0:
407,318,114331,86,0,B|429:345|429:345|500:339|520:256|477:207,1,212,10|0,0:0|3:0,0:0:0:0:
421,155,114700,1,0,0:2:0:0:
315,46,114823,2,0,P|260:114|263:188,1,158.999995147705,2|0,3:2|0:0,0:0:0:0:
493,127,115191,2,0,L|476:66,1,39.7499987869263,2|0,3:0|0:0,0:0:0:0:
286,193,115314,2,0,P|316:234|410:232,1,149.062505686283,8|0,0:0|0:0,0:0:0:0:
201,279,115560,102,0,P|129:290|66:376,1,178.874994541168,2|0,3:2|0:0,0:0:0:0:
0,272,116052,2,0,L|76:291,1,72.8750022239686,2|0,3:2|3:0,0:0:0:0:
77,297,116236,1,0,3:0:0:0:
84,293,116298,2,0,P|104:225|96:163,1,99.3750037908555,10|0,0:0|0:0,0:0:0:0:
227,45,116544,2,0,P|232:87|250:125,1,66.25,2|0,3:2|3:0,0:0:0:0:
20,177,116790,2,0,B|81:162|81:162|132:180|132:180|190:166,1,172.249992115021,2|0,3:2|3:0,0:0:0:0:
186,167,117282,38,0,P|154:108|76:74,1,149.062505686283,8|0,0:0|0:0,0:0:0:0:
11,37,117527,2,0,B|0:73|0:73|12:109,1,66.25,2|0,0:0|0:0,0:0:0:0:
260,206,117773,86,0,L|328:220,1,69.562497877121,2|0,3:2|0:0,0:0:0:0:
328,220,118265,102,0,P|265:260|344:301,1,198.750007581711,10|0,0:0|3:0,0:0:0:0:
404,251,118634,1,0,3:2:0:0:
343,302,118757,2,0,B|263:285|281:334|183:314,1,158.999995147705,2|0,3:2|0:0,0:0:0:0:
391,374,119126,1,2,3:2:0:0:
484,291,119249,38,0,P|473:318|466:351,1,49.6875,8|0,0:0|0:0,0:0:0:0:
468,337,119495,86,0,P|446:200|481:142,1,198.750007581711,2|0,3:2|0:0,0:0:0:0:
472,152,119986,2,0,P|429:136|396:114,1,66.25,2|0,3:2|0:0,0:0:0:0:
204,250,120232,2,0,P|243:233|286:225,1,86.1249960575106,10|0,0:0|0:0,0:0:0:0:
379,206,120478,1,2,0:0:0:0:
379,206,120601,1,0,3:2:0:0:
220,154,120724,2,0,P|127:114|106:34,1,158.999995147705,2|0,3:2|3:0,0:0:0:0:
106,65,121216,102,0,P|60:80|11:89,1,99.3750037908555,10|0,0:0|0:0,0:0:0:0:
114,228,121462,1,2,3:2:0:0:
139,154,121585,1,0,0:2:0:0:
39,213,121708,2,0,B|111:195|111:195|171:216|171:216|240:199,1,208.687493631363,2|0,3:2|0:0,0:0:0:0:
240,199,122200,2,0,P|244:156|260:116,1,86.1249960575106,10|0,0:0|0:0,0:0:0:0:
81,4,122445,2,0,P|100:42|107:84,1,66.25,2|0,3:2|0:0,0:0:0:0:
333,175,122691,38,0,P|374:215|478:215,1,149.062495450974,2|0,3:2|0:0,0:0:0:0:
462,222,123060,2,0,B|393:238|393:238|372:284,1,99.3750037908555,10|0,0:0|0:0,0:0:0:0:
226,346,123306,1,0,0:2:0:0:
508,373,123429,86,0,P|415:308|301:311,1,231.875,6|0,3:2|0:0,0:0:0:0:
301,311,123921,2,0,L|285:245,1,59.6249981803895,0|0,3:0|0:0,0:0:0:0:
200,110,124167,102,0,B|133:103|73:157|73:157|90:133|92:86,1,185.499994338989,8|0,0:0|0:0,0:0:0:0:
36,56,124536,1,8,0:0:0:0:
8,345,124659,37,2,3:2:0:0:
149,283,124782,1,2,0:2:0:0:
68,195,124905,1,10,0:2:0:0:
18,255,125027,1,10,0:2:0:0:
144,376,125150,85,8,3:2:0:0:
220,336,125273,101,0,3:2:0:0:
237,267,125396,37,8,0:3:0:0:
214,236,125519,85,4,0:3:0:0:
251,155,125642,102,0,L|285:0,1,158.999995147705,6|0,3:2|0:0,0:0:0:0:
339,129,126011,2,0,L|320:65,2,66.25,0|0|0,0:0|3:0|0:0,0:0:0:0:
483,240,126380,2,0,L|315:206,1,172.249992115021,0|0,3:0|3:0,0:0:0:0:
483,240,126872,2,0,L|419:250,1,46.3749985847474,0|0,3:0|0:0,0:0:0:0:
180,326,127118,38,0,L|315:361,1,139.124995754242,8|0,0:0|0:0,0:0:0:0:
180,326,127364,1,2,0:0:0:0:
103,360,127486,1,0,3:0:0:0:
199,235,127609,86,0,L|149:-8,2,238.499992721558,2|0|0,3:2|3:0|3:0,0:0:0:0:
199,235,128593,101,0,0:2:0:0:
82,94,128839,2,0,L|16:71,1,59.6249981803895,0|0,3:0|0:0,0:0:0:0:
21,82,129085,37,10,0:2:0:0:
74,102,129208,1,0,3:2:0:0:
123,77,129331,1,8,0:3:0:0:
131,18,129454,1,4,0:3:0:0:
6,195,129577,85,8,0:2:0:0:
6,195,129823,102,2,L|21:257,1,59.6249981803895,4|0,3:2|0:2,0:1:0:0:
23,271,130068,2,0,L|66:110,1,149.062505686283,10|0,0:1|0:0,0:0:0:0:
204,227,130314,38,0,L|155:261,1,59.6249981803895,2|0,3:1|0:0,0:0:0:0:
266,338,130560,2,0,L|412:363,1,149.062505686283,10|0,0:1|0:0,0:0:0:0:
473,321,130806,85,0,3:2:0:0:
482,316,130868,1,0,3:0:0:0:
477,308,130929,1,8,0:2:0:0:
337,204,131052,1,8,0:2:0:0:
410,162,131175,1,0,3:0:0:0:
410,162,131421,1,0,3:0:0:0:
347,81,131544,102,0,P|341:103|333:125,1,46.3749985847474,4|0,3:2|0:0,0:0:0:0:
398,288,131790,2,0,P|404:263|413:239,1,49.6875,2|0,0:0|0:0,0:0:0:0:
495,152,132036,38,0,B|432:164|432:164|387:208|387:208|316:222,1,198.750007581711,10|0,0:0|0:0,0:0:0:0:
175,132,132405,1,0,0:2:0:0:
253,160,132527,2,0,P|216:137|174:132,1,86.1249960575106,2|0,3:2|0:0,0:0:0:0:
98,175,132773,1,0,0:0:0:0:
98,175,132896,1,0,3:0:0:0:
237,243,133019,86,0,P|185:289|106:269,1,139.124995754242,10|0,0:0|0:0,0:0:0:0:
186,367,133265,2,0,P|119:315|35:319,1,172.249992115021,2|0,0:0|3:0,0:0:0:0:
35,319,133757,2,0,L|53:387,1,59.6249981803895,2|0,3:2|0:0,0:0:0:0:
120,280,134003,2,0,P|96:235|106:180,1,99.3750037908555,10|0,0:0|0:0,0:0:0:0:
172,150,134249,101,2,3:2:0:0:
172,150,134372,1,0,0:2:0:0:
10,74,134495,2,0,B|101:45|88:93|179:65,1,172.249992115021,2|0,3:2|0:0,0:0:0:0:
246,112,134864,1,0,3:0:0:0:
341,7,134986,38,0,P|298:25|252:31,1,92.7499971694947,10|0,0:0|0:0,0:0:0:0:
248,198,135232,2,0,P|262:235|271:283,1,69.562497877121,2|0,3:2|0:0,0:0:0:0:
436,322,135478,86,0,L|448:273,1,46.375,2|0,3:2|0:0,0:0:0:0:
509,384,135970,102,0,B|404:376|444:330|327:326,1,185.499994338989,8|2,0:0|3:2,0:0:0:0:
252,352,136339,1,0,0:2:0:0:
371,250,136462,2,0,P|387:185|393:122,1,119.249996360779,2|0,3:2|0:0,0:0:0:0:
335,80,136831,1,0,3:2:0:0:
182,207,136954,2,0,P|154:141|143:69,1,145.750004447937,10|0,0:0|3:0,0:0:0:0:
203,20,137323,1,0,0:2:0:0:
267,195,137445,38,0,L|254:266,1,59.6249981803895,2|0,3:2|0:0,0:0:0:0:
126,347,137691,2,0,L|115:288,1,59.6249981803895,2|0,3:2|0:0,0:0:0:0:
341,127,137937,86,0,P|350:183|360:204,1,72.8750022239686,10|0,0:0|0:0,0:0:0:0:
14,384,138183,2,0,P|26:349|29:313,1,72.8750022239686,2|0,0:0|0:0,0:0:0:0:
181,146,138429,102,0,P|122:134|69:107,1,119.249996360779,2|0,3:2|3:0,0:0:0:0:
158,62,138798,1,0,0:2:0:0:
26,203,138921,2,0,B|131:196|90:156|231:157,1,172.249992115021,10|2,0:0|0:0,0:0:0:0:
402,70,139290,1,0,3:2:0:0:
319,56,139413,2,0,P|289:70|257:78,1,66.25,2|0,3:2|0:0,0:0:0:0:
344,135,139659,2,0,P|375:143|405:157,1,66.25,0|0,3:0|0:0,0:0:0:0:
270,201,139905,38,0,L|296:392,1,185.499994338989,10|2,0:0|0:0,0:0:0:0:
340,320,140273,1,0,0:2:0:0:
418,357,140396,2,0,P|449:367|482:372,1,66.25,2|0,3:2|0:0,0:0:0:0:
411,278,140642,1,2,0:0:0:0:
411,278,140765,1,0,3:0:0:0:
221,375,140888,2,0,B|165:361|165:361|123:377|123:377|38:355,1,172.249992115021,10|2,0:0|3:2,0:0:0:0:
55,359,141380,1,2,3:2:0:0:
129,328,141503,1,0,0:2:0:0:
69,277,141626,2,0,P|35:290|0:295,1,72.8750022239686,2|0,3:2|0:0,0:0:0:0:
207,293,141872,86,0,P|225:209|267:134,1,172.249992115021,10|2,0:0|0:0,0:0:0:0:
342,140,142241,1,0,3:2:0:0:
192,215,142364,2,0,P|181:151|119:129,1,132.5,2|0,3:2|3:0,0:0:0:0:
62,176,142732,1,0,0:2:0:0:
178,0,142855,102,0,P|203:43|211:95,1,86.1249960575106,10|0,0:0|0:0,0:0:0:0:
397,204,143101,2,0,P|430:153|434:130,1,66.25,2|0,3:2|0:0,0:0:0:0:
84,298,143347,38,0,B|176:302|176:302|-21:369,1,278.249991508484,6|0,3:2|0:0,0:0:0:0:
199,320,143839,2,0,B|266:333|266:333|312:377|312:377|380:387,1,198.750007581711,10|2,0:0|0:0,0:0:0:0:
270,384,144208,1,0,0:2:0:0:
428,265,144331,86,0,B|456:237|439:180|369:167|315:239|360:309,1,215.312490143776,2|0,3:2|0:0,0:0:0:0:
132,384,144700,102,0,P|101:268|13:195,1,215.312490143776,10|0,0:0|0:0,0:0:0:0:
246,22,145068,38,0,P|219:115|250:23,1,298.125011372567,6|0,3:2|0:0,0:0:0:0:
90,186,145560,86,0,L|32:204,1,59.6249981803895,0|0,3:0|0:0,0:0:0:0:
25,212,145806,2,0,B|122:212|92:251|215:253,1,172.249992115021,8|0,0:0|3:0,0:0:0:0:
198,245,146114,1,0,3:0:0:0:
204,254,146175,1,8,0:2:0:0:
299,359,146298,101,2,3:2:0:0:
450,272,146421,1,2,3:2:0:0:
363,174,146544,1,10,0:2:0:0:
284,228,146666,1,10,0:2:0:0:
361,298,146789,37,8,0:2:0:0:
377,277,146912,85,0,3:2:0:0:
367,261,147035,101,8,0:3:0:0:
355,259,147158,37,4,0:3:0:0:
389,60,147282,86,0,B|390:100|367:126|367:126|488:158|522:21,1,258.374988172532,4|0,3:2|0:0,0:0:0:0:
336,151,147773,2,0,P|264:103|180:90,1,172.249992115021,2|0,0:0|3:0,0:0:0:0:
181,91,148265,2,0,P|213:91|243:78,1,66.25,2|0,0:0|0:0,0:0:0:0:
111,224,148511,2,0,P|79:200|40:190,1,79.4999975738526,0|0,3:0|0:0,0:0:0:0:
201,13,148757,102,0,P|202:56|213:98,1,86.1249960575106,10|0,0:0|0:0,0:0:0:0:
34,243,149003,2,0,P|22:201|2:163,1,86.1249960575106,2|0,0:0|0:0,0:0:0:0:
179,304,149249,2,0,B|238:291|238:291|295:306|295:306|367:288,1,185.499994338989,2|2,3:2|0:0,0:0:0:0:
432,258,149618,1,0,3:2:0:0:
489,354,149741,2,0,P|457:342|425:335,1,66.25,2|0,0:0|0:0,0:0:0:0:
179,304,149986,38,0,B|194:363|194:363|278:369|332:288|289:209,1,278.249991508484,2|0,3:2|0:0,0:0:0:0:
225,164,150478,2,0,P|222:193|213:222,1,59.6249981803895,0|0,3:0|0:0,0:0:0:0:
304,123,150724,85,8,3:2:0:0:
125,209,150847,1,8,3:2:0:0:
280,309,150970,101,8,0:2:0:0:
361,339,151093,1,8,0:2:0:0:
160,116,151216,38,2,B|18:27|18:27|64:22,1,208.687493631363,6|0,3:1|0:0,0:1:0:0:
160,116,151708,2,0,P|92:133|25:177,1,149.062505686283,10|0,0:1|0:0,0:0:0:0:
34,186,151954,2,0,P|27:151|8:120,1,72.8750022239686,2|0,0:0|0:0,0:0:0:0:
272,1,152200,2,0,P|251:63|247:104,1,92.7499971694947,0|0,3:0|0:0,0:0:0:0:
408,274,152445,86,0,B|463:243|463:243|517:243,1,99.375,2|0,3:1|0:0,0:0:0:0:
307,260,152691,102,0,B|417:296|417:296|408:274,1,139.124995754242,10|0,0:1|0:0,0:0:0:0:
409,188,152937,38,0,B|374:142|374:142|386:181,1,99.375,2|0,0:1|0:0,0:0:0:0:
305,375,153183,86,2,B|295:360|295:360|513:167,1,278.249991508484,2|0,3:1|0:0,0:1:0:0:
299,170,153675,2,0,B|288:178|288:178|198:138,1,92.7499971694947,10|0,0:2|0:2,0:2:0:0:
23,46,153921,1,2,0:2:0:0:
27,31,154044,1,2,0:2:0:0:
16,34,154167,2,0,L|145:14,1,109.312503335953,0|0,3:0|0:0,0:0:0:0:
124,17,154413,2,0,P|80:54|62:78,1,72.8750022239686,0|0,3:0|0:0,0:0:0:0:
249,179,154659,2,0,L|25:228,1,218.625006671906,8|0,0:0|0:0,0:0:0:0:
253,349,155150,102,2,B|47:256|47:256|78:297,1,278.249991508484,6|0,3:1|0:0,0:1:0:0:
228,320,155642,2,0,L|320:280,1,92.7499971694947,8|0,0:0|0:0,0:0:0:0:
95,308,155888,2,0,L|-2:349,1,99.375,2|0,0:0|0:0,0:0:0:0:
3,346,156134,2,0,P|68:359|97:385,1,79.4999975738526,0|0,3:0|0:0,0:0:0:0:
319,256,156380,38,0,B|396:222|396:222|376:187,1,119.249996360779,2|0,3:1|0:0,0:0:0:0:
261,258,156626,86,0,B|226:335|226:335|170:361,1,139.124995754242,10|0,0:1|0:0,0:0:0:0:
416,245,156872,102,0,B|428:250|428:250|492:204|492:204|518:208,1,99.375,2|0,0:1|0:0,0:0:0:0:
356,383,157118,38,2,B|315:357|315:357|182:191|182:191|190:158,1,278.249991508484,2|0,3:1|0:0,0:1:0:0:
329,62,157609,2,0,P|419:45|488:7,1,139.124995754242,8|0,0:0|0:0,0:0:0:0:
461,25,157855,2,0,P|409:60|390:82,1,79.4999975738526,2|0,0:0|0:0,0:0:0:0:
186,174,158101,2,8,P|173:136|154:101,1,79.4999975738526,0|0,3:0|0:0,0:0:0:0:
260,0,158347,2,0,P|245:38|239:72,1,66.25,0|0,3:2|0:2,0:2:0:0:
144,261,158593,2,0,L|18:323,1,132.5,8|0,0:0|0:0,0:0:0:0:
62,253,158962,1,0,3:2:0:0:
256,159,159085,86,2,B|41:90|41:90|31:63,1,255.06250778389,6|0,3:1|0:0,0:1:0:0:
349,135,159577,2,0,B|290:133|290:133|251:207|251:207|364:161|364:161|369:143,1,278.249991508484,10|0,0:0|0:0,0:0:0:0:
146,36,160068,2,0,P|159:74|165:110,1,66.25,0|0,3:0|0:0,0:0:0:0:
335,230,160314,102,0,B|430:194|430:194|445:202,1,119.249996360779,2|0,3:1|0:0,0:0:0:0:
257,241,160560,38,0,B|296:255|296:255|345:290|345:290|381:299,1,139.124995754242,10|0,0:1|0:0,0:0:0:0:
505,343,160806,86,0,B|440:356|440:356|510:378,1,139.124995754242,2|0,0:1|0:0,0:0:0:0:
417,377,161052,102,2,B|470:77|470:77|430:38,1,347.812513267994,6|0,3:1|0:0,0:1:0:0:
491,134,161544,2,0,P|403:58|288:76,1,238.499992721558,8|0,0:0|0:0,0:0:0:0:
439,46,161913,2,0,L|352:67,1,66.25,0|0,3:0|0:0,0:0:0:0:
0,143,162159,1,8,0:0:0:0:
55,89,162282,37,2,3:2:0:0:
77,165,162405,1,0,3:2:0:0:
35,129,162527,2,0,P|17:77|-1:46,1,66.25,10|0,0:0|0:0,0:0:0:0:
172,27,162773,2,0,P|144:80|134:113,1,66.25,2|0,3:2|0:0,0:0:0:0:
307,361,163019,86,0,P|293:356|280:350,1,29.8124990901947,6|0,3:2|0:0,0:0:0:0:
211,384,163265,2,0,P|236:368|265:360,1,59.6249981803895,2|0,0:0|0:0,0:0:0:0:
153,262,163511,102,2,B|103:260|87:306|87:306|145:314|164:286,1,168.937503222227,8|0,0:0|0:0,0:1:0:0:
255,353,163757,2,0,P|250:290|269:230,1,99.375,2|0,3:2|0:0,0:0:0:0:
363,154,164003,38,2,B|412:152|428:198|428:198|370:206|351:178,1,159,8|0,0:1|0:0,0:1:0:0:
274,257,164249,2,0,P|274:221|253:181,1,79.5,2|0,0:0|0:0,0:0:0:0:
260,81,164495,86,2,B|235:77|221:88|221:88|256:105|294:98|294:98|284:84|260:81,1,149.062505686283,8|0,0:0|0:0,0:1:0:0:
260,0,164741,102,2,P|239:177|294:7,1,530,4|2,3:2|3:2,0:1:0:0:
39,178,165355,37,0,3:2:0:0:
148,32,165478,2,0,P|97:92|21:101,1,149.062505686283,10|0,0:0|0:0,0:0:0:0:
30,102,165724,2,0,P|92:116|118:136,1,72.8750022239686,2|0,0:0|0:0,0:0:0:0:
370,255,165970,86,0,P|381:298|404:336,1,79.4999975738526,2|0,3:2|0:0,0:0:0:0:
475,347,166216,1,2,3:2:0:0:
475,347,166339,1,0,3:2:0:0:
346,174,166462,2,0,P|390:116|395:71,1,99.3750037908555,10|0,0:0|0:0,0:0:0:0:
434,198,166708,2,0,P|465:208|492:228,1,66.25,2|0,0:0|0:0,0:0:0:0:
205,361,166954,102,0,P|219:356|232:350,1,29.8124990901947,6|0,3:2|0:0,0:0:0:0:
301,384,167200,2,0,P|276:368|247:360,1,59.6249981803895,2|0,0:0|0:0,0:0:0:0:
351,267,167445,38,2,B|401:265|417:311|417:311|359:319|340:291,1,168.937503222227,10|0,0:0|0:0,0:1:0:0:
257,353,167691,2,0,P|262:290|243:230,1,99.375,2|0,3:2|0:0,0:0:0:0:
154,175,167938,86,2,B|105:173|89:219|89:219|147:227|166:199,1,159,10|0,0:0|0:0,0:1:0:0:
238,257,168183,2,0,P|238:221|259:181,1,79.5,2|0,3:2|0:0,0:0:0:0:
252,81,168429,102,2,B|277:77|291:88|291:88|256:105|218:98|218:98|228:84|252:81,1,149.062505686283,10|0,0:0|0:0,0:1:0:0:
252,0,168675,38,2,P|273:177|218:7,1,530,4|2,3:1|3:2,0:1:0:0:
417,167,169290,85,0,3:2:0:0:
505,128,169413,2,0,P|432:133|377:85,1,149.062505686283,10|0,0:0|0:0,0:0:0:0:
377,85,169659,2,0,P|421:143|440:187,1,99.3750037908555,2|0,0:0|3:0,0:0:0:0:
402,348,169905,1,2,0:0:0:0:
494,255,170027,1,8,0:2:0:0:
349,204,170150,2,0,P|334:233|326:265,1,66.25,2|0,3:2|0:0,0:0:0:0:
94,53,170396,101,2,3:2:0:0:
151,75,170519,37,8,0:2:0:0:
212,150,170642,85,0,3:2:0:0:
237,244,170765,101,8,0:2:0:0:
230,361,170888,38,0,P|202:380|160:382,1,59.6249981803895,14|0,0:0|0:0,0:0:0:0:
268,339,171134,2,0,P|316:370|348:376,1,79.5,2|0,3:2|0:0,0:0:0:0:
158,272,171380,86,0,P|74:273|17:220,1,149.062505686283,10|0,0:1|0:0,0:0:0:0:
357,297,171626,2,0,P|425:270|443:221,1,99.375,2|0,3:2|0:0,0:0:0:0:
117,185,171872,102,0,P|81:139|76:77,1,119.249996360779,10|0,0:0|0:0,0:0:0:0:
377,166,172118,38,0,P|398:127|397:59,1,99.375,2|0,3:2|0:0,0:0:0:0:
248,0,172364,86,0,P|256:32|262:9,1,79.5,10|0,0:0|0:0,0:0:0:0:
258,384,172609,102,0,P|250:180|260:104,1,248.437509477139,6|0,3:1|0:0,0:0:0:0:
254,136,173101,2,0,P|232:213|205:248,1,99.375,2|0,3:2|0:0,0:0:0:0:
180,96,173347,38,0,P|78:68|42:33,1,149.062505686283,10|0,0:0|0:0,0:0:0:0:
21,91,173593,2,0,P|56:74|96:68,1,79.4999975738526,2|0,0:0|0:0,0:0:0:0:
328,202,173839,86,0,P|391:231|433:240,1,79.4999975738526,2|0,3:2|0:0,0:0:0:0:
477,199,174085,1,0,3:0:0:0:
477,199,174208,1,0,3:0:0:0:
339,117,174331,102,0,P|406:72|476:69,1,149.062505686283,10|0,0:0|0:0,0:0:0:0:
339,117,174577,2,0,P|387:107|432:126,1,99.3750037908555,2|0,3:2|0:0,0:0:0:0:
256,384,174823,38,0,P|283:336|311:313,1,79.5,6|0,3:2|0:0,0:0:0:0:
226,306,175068,86,0,P|202:266|149:240,1,99.375,2|0,0:0|0:0,0:0:0:0:
290,220,175314,102,0,P|337:173|400:154,1,119.249996360779,10|0,0:0|0:0,0:0:0:0:
196,121,175560,38,0,P|108:86|36:91,1,139.124995754242,2|0,0:0|0:0,0:0:0:0:
383,66,175806,86,0,P|456:83|504:180,1,165.625,2|0,3:2|0:0,0:0:0:0:
112,174,176175,102,0,P|31:207|-1:285,1,165.625,2|0,3:2|0:2,0:2:0:0:
266,384,176544,38,2,L|271:336,1,46.375,4|0,3:2|0:0,0:1:0:0:
284,383,177036,2,0,L|271:296,1,66.25,0|0,3:2|0:0,0:0:0:0:
179,212,177282,86,0,P|171:251|156:288,1,79.4999975738526,8|0,0:0|0:0,0:0:0:0:
384,160,177527,2,0,P|366:133|355:102,1,66.25
252,0,177773,101,2,3:0:0:0:
206,76,177896,1,2,0:0:0:0:
275,145,178019,1,2,0:0:0:0:
260,227,178142,1,2,0:0:0:0:
219,350,178265,37,8,0:2:0:0:
259,326,178388,1,0,0:2:0:0:
299,347,178511,1,2,0:2:0:0:
259,371,178634,1,0,0:2:0:0:
256,349,178757,86,0,P|229:301|201:278,1,79.5,6|0,3:2|0:0,0:0:0:0:
286,271,179002,102,0,P|310:231|363:205,1,99.375,2|0,0:0|0:0,0:0:0:0:
222,185,179248,38,0,P|175:138|112:119,1,119.249996360779,10|0,0:0|0:0,0:0:0:0:
316,86,179494,86,0,P|404:51|476:56,1,139.124995754242,2|0,0:0|0:0,0:0:0:0:
129,31,179740,102,0,P|56:48|8:145,1,165.625,2|0,3:2|0:0,0:0:0:0:
400,139,180109,38,0,P|481:172|513:250,1,165.625,2|0,3:2|0:2,0:2:0:0:
246,349,180478,86,2,L|238:300,1,46.375,6|0,3:2|0:0,0:1:0:0:
356,219,180970,102,0,P|431:248|444:252,1,66.25,0|0,3:0|0:0,0:0:0:0:
164,342,181216,2,0,P|124:348|86:360,1,79.4999975738526,8|0,0:0|0:0,0:0:0:0:
170,266,181462,1,4,3:2:0:0:
37,209,181585,1,0,3:2:0:0:
91,277,181708,37,2,3:2:0:0:
191,183,181831,1,2,3:2:0:0:
93,82,181954,2,0,P|100:114|111:145,1,66.25,2|0,0:0|0:0,0:0:0:0:
321,329,182200,2,0,P|369:340|414:360,1,99.3750037908555,2|0,3:2|0:0,0:0:0:0:
417,184,182445,1,0,3:2:0:0:
258,262,182568,1,0,3:2:0:0:
340,66,182691,86,0,L|330:113,1,46.375,4|0,3:2|0:0,0:0:0:0:
80,2,183183,102,0,B|65:39|23:60|23:60|128:52|189:147,1,265,10|0,0:1|3:0,0:0:0:0:
0,90,183552,1,0,3:2:0:0:
263,169,183675,38,0,B|243:194|243:194|174:197|161:129,1,132.5,10|0,0:1|0:0,0:0:0:0:
273,15,183921,1,8,0:0:0:0:
333,233,184044,86,0,P|457:243|515:133,1,265,2|0,3:1|0:0,0:0:0:0:
240,277,184413,102,0,P|257:323|261:381,1,99.375,6|0,3:2|0:0,0:0:0:0:
256,384,184659,101,0,3:2:0:0:
295,341,184931,1,0,3:2:0:0:
213,270,185204,1,8,0:2:0:0:
283,203,185477,1,0,3:2:0:0:
224,160,185613,1,8,0:2:0:0:
274,162,185749,1,0,3:2:0:0:
241,201,185886,1,0,3:2:0:0:
330,103,186022,1,0,3:2:0:0:
198,49,186295,1,8,0:2:0:0:
256,0,186568,1,0,3:2:0:0:
262,377,186840,37,0,3:2:0:0:
295,341,187112,1,0,3:2:0:0:
225,280,187385,1,8,0:2:0:0:
225,280,187658,1,0,3:2:0:0:
282,216,187794,1,0,3:2:0:0:
282,216,188067,1,0,3:2:0:0:
188,148,188203,1,0,3:2:0:0:
301,91,188476,1,8,0:2:0:0:
256,0,188749,1,0,3:2:0:0:
15,99,189022,6,0,B|8:115|8:115|71:123|95:68,1,119.249996360779,2|0,3:2|0:0,0:0:0:0:
46,1,189295,2,0,P|31:42|46:83,1,89.4374972705842,2|0,3:2|0:0,0:0:0:0:
188,148,189568,2,0,P|113:68|3:68,1,225.250004296303,10|0,0:0|0:0,0:0:0:0:
178,228,189977,1,8,0:2:0:0:
101,218,190113,2,0,P|56:255|2:255,1,99.375,2|0,0:0|0:0,0:0:0:0:
16,258,190386,2,0,B|67:262|107:311|107:311|134:295,1,139.124995754242,2|0,3:2|0:0,0:0:0:0:
221,384,190659,54,0,P|265:298|368:276,1,198.750007581711,10|0,0:0|0:0,0:0:0:0:
298,326,191068,1,0,0:2:0:0:
413,195,191204,38,0,B|426:223|426:223|390:272|328:253,1,129.187494086266,2|0,3:2|0:0,0:0:0:0:
267,129,191477,2,0,P|309:137|336:172,1,89.4374972705842,2|0,3:2|0:0,0:0:0:0:
511,249,191749,2,0,B|498:283|445:283|445:283|391:187|493:132,1,248.437509477139,10|0,0:0|0:0,0:0:0:0:
481,138,192159,1,0,3:2:0:0:
201,317,192295,2,0,P|183:332|127:352,1,79.5,2|0,0:2|0:2,0:2:0:0:
422,296,192568,6,0,P|355:240|268:222,1,178.874994541168,2|0,3:2|0:0,0:0:0:0:
163,150,192840,2,0,P|187:227|265:207,1,178.874994541168,10|0,0:0|0:0,0:0:0:0:
259,30,193113,2,2,P|252:69|254:108,1,79.5,2|0,0:0|0:0,0:1:0:0:
10,100,193386,54,0,B|35:127|35:127|90:58|178:63,1,198.750007581711,2|2,3:2|3:2,0:0:0:0:
336,117,193795,1,0,0:2:0:0:
173,74,193931,2,0,P|105:81|56:-2,1,172.249992115021,8|0,0:0|0:0,0:0:0:0:
284,186,194340,1,8,0:2:0:0:
352,143,194477,2,0,P|368:78|342:7,1,129.187494086266
192,177,194749,2,0,P|205:209|213:242,1,69.562497877121,2|0,3:2|0:0,0:0:0:0:
419,350,195022,2,0,P|466:363|512:381,1,99.3750037908555,8|0,0:0|0:0,0:0:0:0:
411,217,195295,2,2,L|349:231,1,49.6875,0|0,0:0|0:0,0:1:0:0:
128,377,195568,38,0,B|15:340|15:340|31:274|31:274|82:248,1,231.875,8|0,0:0|0:0,0:0:0:0:
262,352,196113,2,0,L|271:406,6,33.125,2|2|2|2|2|2|2,3:3|0:3|0:3|0:3|0:3|0:3|0:3,3:2:0:0:
225,282,196659,5,8,0:2:0:0:
195,224,196749,53,2,0:2:0:0:
222,161,196840,37,2,0:2:0:0:
286,142,196931,5,2,0:2:0:0:
286,142,197204,53,8,0:2:0:0:
321,24,197340,1,8,0:2:0:0:
414,212,197477,1,2,3:2:0:0:
191,78,197613,37,0,3:2:0:0:
191,78,197681,1,0,3:2:0:0:
191,78,197749,2,0,B|91:73|128:24|9:18,1,172.249992115021,4|0,3:2|3:0,0:0:0:0:
145,155,198159,1,2,0:2:0:0:
39,156,198295,2,0,B|3:155|-4:190|-4:190|53:204|81:112,1,149.062505686283,8|0,0:0|0:0,0:0:0:0:
137,21,198568,1,0,3:2:0:0:
121,238,198704,2,0,P|200:274|201:186,1,185.499994338989,8|0,0:0|3:0,0:0:0:0:
92,340,199113,2,0,P|63:364|-2:376,1,99.375,0|0,3:0|0:0,0:0:0:0:
219,301,199386,2,0,P|279:248|426:246,1,198.750007581711,10|2,0:0|3:2,0:0:0:0:
394,234,199931,6,0,B|407:253|407:253|477:232|492:158|461:106,1,198.750007581711,2|2,3:2|3:2,0:0:0:0:
315,262,200340,1,0,0:2:0:0:
446,106,200477,1,10,0:2:0:0:
446,106,200613,2,0,P|407:75|358:71,1,99.3750037908555,2|0,0:0|0:0,0:0:0:0:
196,291,200886,2,0,P|112:353|5:353,1,198.750007581711,2|0,3:2|3:0,0:0:0:0:
49,261,201295,2,0,P|20:248|34:276,1,79.5,0|0,3:2|0:0,0:0:0:0:
265,384,201568,54,0,B|242:288|242:288|291:248|273:188,1,198.750007581711,8|0,0:0|0:0,0:0:0:0:
276,199,202113,2,0,P|201:182|170:126,1,129.187494086266,2|0,3:2|0:0,0:0:0:0:
236,18,202386,2,0,B|257:26|257:26|269:67|235:102,1,99.375,0|0,3:0|0:0,0:0:0:0:
6,50,202659,38,0,B|57:49|107:96|107:96|134:57|190:59,1,185.499994338989,10|0,0:0|0:0,0:0:0:0:
350,250,203068,1,8,0:2:0:0:
399,189,203204,2,0,P|398:117|351:63,1,145.750004447937,2|0,0:0|3:0,0:0:0:0:
272,230,203613,1,2,0:2:0:0:
444,281,203749,2,0,B|464:303|464:303|408:322|370:261,1,129.187494086266,8|0,0:0|0:0,0:0:0:0:
212,384,204022,6,0,P|245:309|213:182,1,198.750007581711,2|0,0:0|3:0,0:0:0:0:
223,197,204568,2,0,P|185:219|163:257,1,89.4374972705842,0|0,3:0|0:0,0:0:0:0:
365,292,204840,2,0,P|340:367|278:329,1,168.937503222227,10|0,0:0|0:0,0:0:0:0:
294,258,205113,1,2,0:2:0:0:
154,379,205249,1,2,3:2:0:0:
275,244,205386,2,0,P|281:150|238:63,1,185.499994338989,2|0,0:0|3:0,0:0:0:0:
101,154,205795,1,2,0:2:0:0:
85,59,205931,2,0,B|72:88|72:88|112:142|181:115,1,149.062505686283,10|0,0:0|0:0,0:0:0:0:
392,0,206204,2,0,P|354:9|318:40,1,79.4999975738526,2|0,0:0|0:0,0:0:0:0:
176,116,206477,54,0,P|261:181|353:176,1,185.499994338989,2|0,3:2|3:0,0:0:0:0:
385,117,206886,1,0,3:2:0:0:
504,236,207022,2,0,P|470:200|453:153,1,99.3750037908555,8|0,0:0|0:0,0:0:0:0:
274,232,207295,1,2,0:2:0:0:
423,327,207431,2,0,B|399:278|348:272|348:272|316:322|264:308,1,172.249992115021,8|0,0:0|3:0,0:0:0:0:
170,332,207840,2,0,B|147:345|153:368|153:368|209:364|212:299,1,129.187494086266,2|0,3:2|0:0,0:0:0:0:
260,154,208113,2,0,P|242:96|253:-2,1,149.062505686283,10|0,0:0|0:0,0:0:0:0:
354,0,208386,2,0,P|345:46|326:78,1,66.25,2|0,0:0|0:0,0:0:0:0:
160,192,208659,38,0,B|72:181|116:141|-1:129,1,149.062505686283,2|0,3:2|0:0,0:0:0:0:
26,132,208931,2,0,P|84:122|116:106,1,66.25,2|0,3:2|0:0,0:0:0:0:
231,235,209204,1,8,0:2:0:0:
48,314,209340,2,0,P|97:282|156:274,1,119.249996360779,2|0,0:0|0:0,0:0:0:0:
314,49,209613,2,0,P|247:76|227:145,1,149.062505686283,2|0,3:2|0:0,0:0:0:0:
234,152,209886,1,0,3:0:0:0:
505,292,210022,2,0,B|495:322|456:333|456:333|448:367,1,99.375,2|0,3:2|0:0,0:0:0:0:
448,364,210295,2,0,P|492:314|418:249,1,168.937503222227,10|0,0:0|0:0,0:0:0:0:
184,365,210568,2,0,L|257:347,1,59.6249981803895,2|0,0:0|0:0,0:0:0:0:
373,296,210840,6,0,B|320:313|281:271|281:271|241:229|171:255,1,198.750007581711,2|0,3:2|3:0,0:0:0:0:
6,353,211249,1,2,0:2:0:0:
72,303,211386,2,0,P|110:226|117:140,1,172.249992115021,8|0,0:0|0:0,0:0:0:0:
191,249,211795,1,8,0:2:0:0:
35,135,211931,2,0,P|13:207|88:216,1,172.249992115021,2|0,0:0|3:0,0:0:0:0:
209,107,212340,1,10,0:2:0:0:
95,11,212477,2,0,P|92:40|84:69,1,59.6249981803895,8|0,0:0|0:0,0:0:0:0:
261,186,212749,54,0,P|343:139|457:136,1,198.750007581711,2|0,3:2|0:0,0:0:0:0:
336,99,213159,1,8,0:2:0:0:
512,174,213295,2,0,P|480:221|425:211,1,119.249996360779,0|0,3:0|0:0,0:0:0:0:
119,63,213568,38,0,B|110:32|68:9|68:9|195:-10|232:93,1,278.249991508484,12|0,0:0|3:0,0:0:0:0:
64,208,214113,5,2,0:2:0:0:
43,83,214249,2,0,P|9:116|-2:164,1,79.4999975738526,8|0,0:0|3:0,0:0:0:0:
116,272,214522,1,2,0:2:0:0:
91,363,214659,53,8,0:2:0:0:
206,258,214795,1,8,0:2:0:0:
64,208,214931,1,8,3:3:0:0:
393,87,215204,38,0,P|441:87|467:43,1,99.375,2|0,3:2|0:0,0:0:0:0:
355,0,215477,2,0,P|372:44|419:57,1,99.375,2|0,3:2|0:0,0:0:0:0:
512,262,215749,2,0,P|431:205|333:198,1,198.750007581711,10|2,0:0|0:0,0:0:0:0:
222,342,216159,2,0,P|193:358|161:367,1,66.25,2|0,3:2|0:0,0:0:0:0:
408,238,216431,1,8,0:2:0:0:
328,214,216568,2,0,P|291:205|245:156,1,86.1249960575106,2|0,0:0|3:0,0:0:0:0:
145,384,216840,2,0,P|112:291|136:190,1,198.750007581711,10|2,0:0|0:0,0:0:0:0:
133,195,217386,6,0,B|154:182|154:182|161:233|114:261,1,99.375,2|0,3:2|0:0,0:0:0:0:
35,102,217659,2,0,P|9:61|0:13,1,99.375,2|0,3:2|0:0,0:0:0:0:
0,225,217931,2,0,P|85:164|189:160,1,212,10|2,0:0|0:0,0:0:0:0:
300,358,218340,2,0,B|291:372|291:372|241:382|217:347,1,99.375,2|0,3:2|0:0,0:0:0:0:
260,205,218613,54,0,P|271:255|265:300,1,86.1249960575106,10|0,0:0|0:0,0:0:0:0:
185,240,218886,1,2,3:0:0:0:
340,182,219022,2,0,P|365:196|394:205,1,59.6249981803895,10|0,0:0|0:0,0:0:0:0:
190,160,219295,38,2,B|174:107|174:107|207:55|179:0,1,168.937503222227,2|0,0:0|0:0,0:1:0:0:
360,215,219568,6,0,B|379:257|379:257|460:272|491:196,1,185.499994338989,2|2,3:2|3:2,0:0:0:0:
491,197,220113,2,0,P|458:243|455:298,1,112.625002148151,10|0,0:0|0:0,0:0:0:0:
379,291,220386,1,2,0:2:0:0:
302,314,220522,2,0,P|338:358|364:369,1,72.8750022239686,2|0,3:2|0:0,0:0:0:0:
420,151,220795,1,10,0:2:0:0:
420,151,220931,2,0,P|402:112|396:69,1,86.1249960575106,2|0,0:0|3:0,0:0:0:0:
221,293,221204,54,0,P|144:246|50:248,1,149.062505686283,10|0,0:0|0:0,0:0:0:0:
0,377,221477,2,0,P|47:377|76:339,1,99.375,2|0,3:2|0:0,0:0:0:0:
176,214,221749,38,0,P|162:173|160:101,1,99.375,2|0,3:2|0:0,0:0:0:0:
94,54,222022,2,0,P|82:86|66:117,1,69.562497877121,2|0,3:2|0:0,0:0:0:0:
0,178,222295,6,0,B|119:165|56:112|198:104,1,198.750007581711,10|2,0:0|0:0,0:0:0:0:
347,252,222704,2,0,P|295:231|265:198,1,86.1249960575106,10|0,0:0|0:0,0:0:0:0:
238,56,222977,1,10,0:2:0:0:
291,0,223113,1,2,3:2:0:0:
363,34,223249,1,2,0:2:0:0:
469,212,223386,53,10,0:2:0:0:
354,156,223522,1,8,0:2:0:0:
438,48,223659,2,0,P|438:82|446:116,1,69.562497877121,2|0,0:0|0:0,0:0:0:0:
295,302,223931,38,0,P|372:240|470:232,1,198.750007581711,4|0,3:2|0:0,0:0:0:0:
355,374,224340,1,0,3:2:0:0:
211,308,224477,1,8,0:2:0:0:
211,308,224749,1,0,3:0:0:0:
326,199,224886,2,0,P|317:246|318:282,1,72.8750022239686,8|0,0:0|0:0,0:0:0:0:
148,368,225159,1,0,3:0:0:0:
148,368,225295,2,0,P|133:334|113:304,1,72.8750022239686,0|0,3:0|0:0,0:0:0:0:
159,87,225568,6,0,P|64:93|0:21,1,198.750007581711,8|2,0:0|0:0,0:0:0:0:
198,13,225977,1,0,0:2:0:0:
107,160,226113,2,0,P|83:128|78:89,1,79.4999975738526,2|0,3:2|0:0,0:0:0:0:
293,0,226386,2,0,P|287:39|264:70,1,79.4999975738526,2|0,0:0|3:0,0:0:0:0:
392,274,226659,54,0,P|466:299|503:317,1,99.3750037908555,10|0,0:0|0:0,0:0:0:0:
506,230,226931,1,2,3:2:0:0:
314,314,227068,1,8,0:2:0:0:
299,153,227204,2,0,P|310:202|322:231,1,79.4999975738526,0|0,0:0|3:0,0:0:0:0:
144,350,227477,2,0,P|161:314|172:276,1,79.4999975738526,0|0,3:0|0:0,0:0:0:0:
369,96,227749,38,0,P|417:83|462:62,1,99.3750037908555,8|0,0:0|0:0,0:0:0:0:
504,0,228022,1,0,3:2:0:0:
504,0,228159,1,0,3:2:0:0:
332,123,228295,6,0,L|350:18,1,106,2|0,3:2|0:0,0:0:0:0:
264,60,228704,1,0,3:2:0:0:
183,189,228840,54,0,L|148:61,1,132.5,10|0,0:0|0:0,0:0:0:0:
254,140,229249,1,8,0:2:0:0:
368,252,229386,38,0,L|422:102,1,158.999995147705,2|0,3:2|0:0,0:0:0:0:
290,215,229795,1,0,0:2:0:0:
128,330,229931,6,0,L|58:209,1,139.124995754242,10|0,0:0|0:0,0:0:0:0:
402,379,230204,54,0,L|510:230,1,178.874994541168,10|0,0:0|0:0,3:0:0:0:
256,3,230477,37,0,3:2:0:0:
225,72,230613,1,8,0:2:0:0:
150,100,230749,1,0,3:2:0:0:
79,79,230886,1,0,3:2:0:0:
16,13,231022,5,0,3:2:0:0:
26,17,231159,1,0,3:2:0:0:
18,22,231295,1,8,0:2:0:0:
29,24,231431,1,0,3:2:0:0:
97,66,231568,53,0,3:2:0:0:
131,140,231704,1,0,3:2:0:0:
116,225,231840,1,8,0:2:0:0:
57,282,231977,1,0,3:2:0:0:
1,157,232113,37,0,3:2:0:0:
110,152,232249,1,0,3:2:0:0:
195,213,232386,1,8,0:3:0:0:
202,303,232522,1,4,0:3:0:0:
25,367,232659,5,6,3:2:0:0:
105,340,232795,1,2,0:2:0:0:
79,266,232931,1,2,0:0:0:0:
0,290,233068,1,2,3:2:0:0:
54,318,233204,54,0,P|29:208|-7:101,1,225.250004296303,10|0,0:0|0:0,0:0:0:0:
121,180,233613,1,0,3:0:0:0:
54,318,233749,37,2,0:0:0:0:
54,318,233886,1,10,0:0:0:0:
54,318,234022,1,2,0:0:0:0:
54,318,234159,1,2,3:2:0:0:
53,318,234295,2,0,P|32:262|27:202,1,119.249996360779,10|0,0:0|0:0,0:0:0:0:
194,243,234840,5,2,3:2:0:0:
114,216,234976,1,2,0:0:0:0:
140,142,235112,1,2,3:2:0:0:
219,166,235249,1,2,0:0:0:0:
165,194,235386,54,0,P|179:95|212:2,1,198.750007581711,10|0,0:0|0:0,0:0:0:0:
98,56,235794,1,0,3:0:0:0:
166,194,235930,37,2,0:0:0:0:
166,194,236067,1,10,0:0:0:0:
166,194,236203,1,2,0:0:0:0:
166,194,236340,1,2,3:2:0:0:
165,194,236477,2,0,P|171:154|169:114,1,79.5,10|0,0:0|0:0,0:0:0:0:
263,338,237022,5,2,3:2:0:0:
343,311,237158,1,2,0:0:0:0:
317,237,237294,1,2,3:2:0:0:
238,261,237431,1,2,0:0:0:0:
292,289,237568,54,0,P|276:190|235:68,1,225.250004296303,10|0,0:0|0:0,0:0:0:0:
359,151,237976,1,0,3:0:0:0:
291,287,238112,37,2,0:0:0:0:
291,287,238249,1,10,0:0:0:0:
291,287,238385,1,2,0:0:0:0:
291,287,238522,1,2,3:2:0:0:
291,287,238659,2,0,P|278:241|279:207,1,79.5,10|0,0:0|0:0,0:0:0:0:
487,269,239204,5,2,3:2:0:0:
407,242,239340,1,2,0:0:0:0:
433,168,239476,1,2,3:2:0:0:
512,192,239613,1,2,0:0:0:0:
458,220,239750,54,0,P|480:103|510:2,1,225.250004296303,10|0,0:0|0:0,0:0:0:0:
391,82,240158,1,0,3:0:0:0:
459,218,240294,37,2,0:2:0:0:
459,218,240431,1,10,0:2:0:0:
459,218,240567,1,2,3:2:0:0:
459,218,240704,1,2,0:2:0:0:
459,218,240840,2,0,P|470:173|475:130,1,79.5,10|0,0:0|0:0,0:0:0:0:
26,308,241386,5,6,3:2:0:0:
160,384,241522,1,2,0:0:0:0:
194,250,241658,1,2,3:2:0:0:
112,318,241795,1,2,0:0:0:0:
250,373,241931,2,0,P|231:268|201:153,1,225.250004296303,10|0,0:0|0:0,0:0:0:0:
286,106,242340,1,0,3:0:0:0:
499,248,242476,53,2,0:0:0:0:
365,202,242612,1,10,0:0:0:0:
400,324,242748,1,2,0:0:0:0:
423,251,242885,1,2,3:2:0:0:
339,193,243022,2,0,P|321:265|310:329,1,139.124995754242,10|0,0:0|0:0,0:0:0:0:
14,234,243568,37,2,3:2:0:0:
148,310,243704,1,2,0:0:0:0:
182,176,243840,1,2,3:2:0:0:
100,244,243977,1,2,0:0:0:0:
238,299,244113,2,0,P|221:180|197:77,1,225.250004296303,10|0,0:0|0:0,0:0:0:0:
265,35,244522,1,0,3:0:0:0:
448,176,244658,5,2,0:0:0:0:
345,140,244794,1,10,0:0:0:0:
370,241,244930,1,2,0:0:0:0:
388,180,245067,1,2,3:2:0:0:
318,133,245204,2,0,P|306:174|295:220,1,79.5,10|0,0:0|0:0,0:0:0:0:
2,157,245749,53,2,3:2:0:0:
136,233,245885,1,2,0:0:0:0:
170,99,246021,1,2,3:2:0:0:
88,167,246158,1,2,0:0:0:0:
226,222,246295,2,0,P|207:100|181:0,1,225.250004296303,10|0,0:0|0:0,0:0:0:0:
272,39,246703,1,0,3:0:0:0:
496,143,246840,37,2,0:0:0:0:
362,97,246976,1,10,0:0:0:0:
397,219,247112,1,2,0:0:0:0:
420,146,247249,1,2,3:2:0:0:
336,88,247386,2,0,P|322:139|307:219,1,119.249996360779,10|0,0:0|0:0,0:0:0:0:
36,153,247931,5,2,3:2:0:0:
89,93,248068,2,0,L|170:118,1,82.8125,8|0,0:0|0:0,0:0:0:0:
204,319,248477,54,0,B|193:334|193:334|13:386|13:386|98:378,1,251.74999327755,6|0,3:2|0:0,0:0:0:0:
267,269,248886,1,0,3:2:0:0:
329,325,249022,2,2,P|357:342|388:352,1,66.25,2|8,0:0|0:0,0:0:0:0:
194,240,249295,2,0,P|143:250|110:264,1,66.25,0|0,3:0|0:0,0:0:0:0:
234,384,249567,37,8,0:2:0:0:
302,193,249704,1,8,0:2:0:0:
248,384,249840,2,0,L|224:299,1,69.562497877121
287,0,250113,5,8,0:2:0:0:
287,0,250181,1,8,0:2:0:0:
287,0,250249,1,8,0:2:0:0:
132,134,250386,1,8,0:2:0:0:
329,204,250522,53,8,0:3:0:0:
329,204,250590,1,8,0:3:0:0:
329,204,250658,1,8,0:3:0:0:
226,85,250795,1,8,0:3:0:0:
174,242,250931,37,8,0:2:0:0:
174,242,250999,1,8,0:2:0:0:
174,242,251067,1,8,0:2:0:0:
245,171,251204,1,8,0:3:0:0:
295,298,251340,5,4,0:3:0:0:
295,298,251408,1,4,0:3:0:0:
295,298,251476,1,4,0:3:0:0:
258,252,251613,1,4,0:3:0:0:
245,384,251749,53,4,0:3:0:0:
235,378,251886,1,4,0:3:0:0:
245,369,252022,1,4,0:3:0:0:
257,380,252159,1,4,0:3:0:0:
293,45,252295,38,0,P|302:12|315:-2,1,49.6875,6|0,3:2|0:0,0:0:0:0:
311,0,252568,2,0,P|306:23|293:45,1,49.6875,2|0,0:0|0:0,0:0:0:0:
191,129,252840,6,0,P|166:94|117:74,1,79.5,10|0,0:0|0:0,0:0:0:0:
134,77,253113,2,0,P|156:109|191:129,1,79.5,2|0,0:0|0:0,0:0:0:0:
336,173,253386,54,0,B|379:172|400:145|400:145|358:139|332:173,1,149.062505686283,10|0,0:0|0:0,0:0:0:0:
117,247,253659,38,0,B|73:272|36:257|36:257|73:226|120:244,1,168.937503222227,2|0,3:2|0:0,0:0:0:0:
351,302,253931,6,0,B|394:338|438:329|438:329|403:287|348:299,1,188.812494958162,10|0,0:0|0:0,0:0:0:0:
46,384,254204,54,0,L|497:366,1,397.5,6|0,3:1|0:0,0:0:0:0:
269,338,254749,38,0,P|212:343|157:359,1,99.375,2|0,3:2|0:0,0:0:0:0:
44,216,255022,2,0,B|-1:230|-1:230|144:283,1,198.750007581711,10|2,0:0|0:0,0:0:0:0:
141,282,255568,1,2,3:2:0:0:
248,221,255704,1,8,0:2:0:0:
169,125,255840,2,0,P|163:164|150:201,1,79.5,2|0,0:0|0:0,0:0:0:0:
341,381,256113,2,0,P|411:355|484:339,1,149.062505686283,10|0,0:0|0:0,0:0:0:0:
484,339,256386,1,2,3:2:0:0:
223,76,256659,6,0,P|196:47|185:9,1,79.5,2|0,3:2|0:0,0:0:0:0:
185,9,256931,2,0,P|211:37|222:75,1,79.5,2|0,0:0|0:0,0:0:0:0:
317,107,257204,54,0,P|360:72|415:58,1,99.375,10|0,0:0|0:0,0:0:0:0:
401,59,257477,2,0,P|358:94|303:108,1,99.375,2|0,3:2|0:0,0:0:0:0:
152,147,257749,38,0,B|100:145|75:113|75:113|125:106|156:147,1,159,10|0,0:0|0:0,0:0:0:0:
379,210,258022,6,0,B|425:201|461:242|461:242|418:250|375:215,1,178.874994541168,2|0,3:2|0:0,0:0:0:0:
101,248,258295,54,0,B|49:238|9:284|9:284|57:293|104:254,1,198.75,2|0,0:0|0:0,0:0:0:0:
328,310,258568,38,0,B|378:325|391:384|391:384|345:370|321:313,1,198.75,6|0,3:2|0:0,0:0:0:0:
179,224,258977,5,8,0:2:0:0:
169,304,259113,2,0,B|249:285|231:331|319:312,1,139.124995754242,2|0,3:2|0:0,0:0:0:0:
489,312,259386,54,0,B|464:334|464:334|380:330|379:232,1,178.874994541168,10|0,0:0|0:0,0:0:0:0:
281,237,259659,2,0,P|298:209|306:176,1,66.25,2|0,0:0|0:0,0:0:0:0:
422,51,259931,1,2,3:2:0:0:
422,51,260068,1,8,0:2:0:0:
422,51,260204,2,0,P|439:79|462:102,1,66.25
395,226,260477,38,0,P|320:135|205:109,1,238.499992721558,12|0,0:0|0:0,0:0:0:0:
140,153,260886,1,0,3:2:0:0:
326,18,261022,6,0,P|311:54|278:76,1,79.5,2|0,3:2|0:0,0:0:0:0:
278,75,261295,2,0,P|293:39|327:17,1,79.5,2|0,3:2|0:0,0:0:0:0:
140,153,261568,54,0,P|98:110|42:93,1,119.249996360779,10|0,0:0|0:0,0:0:0:0:
42,93,261840,2,0,P|83:135|140:153,1,119.249996360779,2|0,3:2|0:0,0:0:0:0:
357,235,262113,38,0,B|407:237|437:202|437:202|391:192|354:224,1,178.874994541168,10|0,0:0|0:0,0:0:0:0:
106,299,262386,6,0,B|45:310|22:352|22:352|82:351|110:298,1,198.75,2|0,3:2|0:0,0:0:0:0:
264,98,262659,54,0,P|241:130|235:168,1,79.5,10|0,0:0|0:0,0:0:0:0:
292,372,262931,38,2,B|308:294|230:313|250:223|250:223|302:205|321:126|268:76|199:67|136:129|155:206|209:231|250:223,1,498.531257606983,2|0,3:2|0:0,0:1:0:0:
418,63,263477,6,0,B|400:91|400:91|500:56,1,129.187494086266,2|0,3:2|0:0,0:0:0:0:
351,95,263749,2,0,P|280:44|191:41,1,178.874994541168,10|0,0:0|0:0,0:0:0:0:
18,132,264022,2,0,P|46:124|66:102,1,59.6249981803895,2|0,3:2|0:0,0:0:0:0:
4,53,264295,53,2,3:2:0:0:
209,195,264431,1,8,0:2:0:0:
243,115,264568,37,2,3:2:0:0:
77,236,264704,1,0,3:2:0:0:
278,333,264840,6,0,B|419:306|419:306|427:281,1,168.937503222227,10|0,0:0|0:0,0:0:0:0:
372,229,265113,2,0,P|350:266|357:306,1,79.5,2|0,3:2|0:0,0:0:0:0:
165,126,265386,54,0,P|57:77|-17:86,1,178.874994541168,6|0,3:2|0:0,0:0:0:0:
62,42,265659,2,0,P|109:47|143:13,1,99.375,2|0,0:0|0:0,0:0:0:0:
325,271,265931,38,0,P|414:287|477:349,1,178.874994541168,10|0,0:0|0:0,0:0:0:0:
165,352,266204,2,0,P|119:375|61:378,1,99.375,2|0,0:0|0:0,0:0:0:0:
246,311,266477,6,0,B|274:331|266:377|266:377|239:365|244:330,1,115.937496461868,2|0,3:1|0:0,0:0:0:0:
238,384,266886,54,0,P|257:321|249:296,1,82.8125,10|0,0:1|0:0,0:0:0:0:
263,14,267295,38,2,P|200:142|268:14,1,463.75,6|0,3:2|0:0,0:1:0:0:
51,167,267840,2,0,L|90:159,1,39.75,0|0,3:0|0:0,0:0:0:0:
259,93,268113,6,0,B|232:86|216:97|216:97|252:118|294:114|294:114|284:98|259:93,1,165.625,10|0,0:0|0:0,0:0:0:0:
255,103,268522,1,8,0:0:0:0:
341,237,268659,54,0,P|391:185|464:161,1,149.062505686283,0|0,3:0|0:0,0:0:0:0:
173,249,268931,2,0,P|77:228|52:212,1,119.249996360779,8|0,0:0|0:0,0:0:0:0:
16,64,269204,37,10,0:2:0:0:
154,118,269340,5,8,0:3:0:0:
243,201,269476,53,4,0:3:0:0:
275,289,269613,37,4,0:3:0:0:
287,369,269749,5,4,3:2:0:0:
256,192,269886,12,0,272340,0:2:0:0:
262,375,272477,53,8,0:3:0:0:
312,8,273022,38,0,L|261:383,1,371,4|0,3:2|0:0,0:0:0:0:
190,134,273568,6,0,L|168:3,1,132.5,4|0,3:2|0:0,0:0:0:0:
256,192,276840,12,0,279704,0:2:0:0:
344,58,279840,101,2,0:2:0:0:
405,114,279977,1,2,0:2:0:0:
502,71,280113,22,0,B|532:89|432:108|414:10,1,119.249996360779,2|0,0:1|0:0,0:0:0:0:
338,192,280405,2,0,P|353:96|318:40,1,159,2|0,0:1|0:0,0:0:0:0:
277,133,280698,86,0,B|264:110|225:129|208:50,1,79.4999975738526,2|0,0:0|0:0,0:0:0:0:
147,95,280844,2,0,P|211:108|272:134,1,79.4999975738526,2|0,0:0|0:0,0:0:0:0:
390,268,280991,22,0,B|319:277|344:199|320:193|310:274|252:230,1,159,2|0,0:1|0:0,0:0:0:0:
61,334,281283,2,0,B|62:288|-16:420|160:380|146:329|107:304|193:246|225:290|195:317|186:306,1,218.625006671906,2|0,0:1|0:0,0:0:0:0:
124,261,281576,2,0,P|109:227|111:164,1,79.5,2|0,0:0|0:0,0:0:0:0:
190,308,281869,2,0,B|242:360|136:334|103:298|115:254,1,139.124995754242,2|0,0:1|0:0,0:0:0:0:
48,77,282161,86,0,B|-26:56|119:32|74:-65|-109:46|-60:103|43:232|192:201|240:113|172:75|128:111|155:126,1,370.999988677979,2|0,0:1|0:0,0:0:0:0:
153,125,282747,2,0,B|96:139|124:163|49:182,1,99.375
254,15,283056,22,2,P|263:43|270:72,1,59.6249981803895,2|0,0:0|0:0,0:0:0:0:
294,37,283348,86,0,B|284:50|282:94|315:98|314:-21|447:-9|466:37|412:31,1,198.75,2|0,0:1|0:0,0:0:0:0:
191,143,283641,2,0,B|208:142|242:114|223:87|135:167|55:61|76:16|108:60,1,198.75,2|0,0:1|0:0,0:0:0:0:
300,149,283934,22,0,P|290:178|286:212,1,53,2|0,0:0|0:0,0:0:0:0:
258,263,284080,2,0,P|265:234|267:207,1,53,2|0,0:0|0:0,0:0:0:0:
23,265,284226,86,0,B|63:260|83:295|83:373|86:211|181:227,1,198.75,2|0,0:1|0:0,0:0:0:0:
287,367,284519,2,0,B|236:350|251:289|226:284|254:325|165:370|108:293,1,198.75,2|0,0:1|0:0,0:0:0:0:
59,183,284812,21,2,0:2:0:0:
59,183,284958,1,2,0:2:0:0:
340,256,285104,86,0,B|341:317|392:306|229:454|371:286|362:338|423:336,1,198.75,2|0,0:1|0:0,0:0:0:0:
470,141,285397,2,0,B|498:176|366:196|401:312|467:271|459:229|403:214,1,198.75,2|0,0:1|0:0,0:0:0:0:
498,344,285690,22,2,P|442:289|410:216,1,159,2|0,0:0|0:0,0:0:0:0:
272,68,285982,86,0,B|193:112|290:55|413:126|322:192,1,198.75,2|0,0:1|0:0,0:0:0:0:
512,0,286275,2,0,B|377:27|454:100|327:93,1,198.75,2|0,0:1|0:0,0:0:0:0:
207,152,286568,22,2,B|223:188|131:156|129:85|165:51,1,139.124995754242,2|0,0:0|0:0,0:0:0:0:
27,32,286860,86,0,B|-45:51|-19:-45|69:-3|70:61,1,159,2|0,0:1|0:0,0:0:0:0:
150,72,287153,2,0,B|108:9|209:3|197:101|135:122,1,159,2|0,0:1|0:0,0:0:0:0:
52,293,287446,21,2,0:2:0:0:
16,362,287592,1,2,0:2:0:0:
158,249,287738,86,0,B|70:188|9:154|34:128,1,178.874994541168,2|0,0:1|0:0,0:0:0:0:
263,173,288031,2,0,B|235:85|216:16|252:-5,1,178.874994541168,2|0,0:1|0:0,0:0:0:0:
139,77,288324,22,0,P|168:81|188:102,1,59.6249981803895,2|0,0:0|0:0,0:0:0:0:
223,176,288470,2,0,P|238:202|239:232,1,59.6249981803895,2|0,0:0|0:0,0:0:0:0:
141,372,288616,86,0,B|267:308|246:363|321:315,1,178.874994541168,2|0,0:1|0:0,0:0:0:0:
203,319,288909,2,0,B|108:329|57:266|80:220,1,178.874994541168,2|0,0:1|0:0,0:0:0:0:
401,310,289202,22,2,B|398:359|460:380|465:371|399:348|357:398,1,139.124995754242,2|0,0:0|0:0,0:0:0:0:
349,203,289495,86,0,P|383:110|445:33,1,198.75,2|0,0:1|0:0,0:0:0:0:
130,169,289787,2,0,P|57:47|0:-4,1,198.75,2|0,0:1|0:0,0:0:0:0:
256,384,290080,21,2,0:2:0:0:
256,352,290373,1,2,0:2:0:0:
256,272,290665,1,2,0:2:0:0:
256,160,290958,1,2,0:2:0:0:
256,0,291251,1,2,0:2:0:0:
256,0,292202,86,0,L|247:31,5,33.125,2|2|2|2|2|2,0:3|0:3|0:3|0:3|0:3|0:3,0:3:0:0:
166,55,292429,22,0,B|56:70|96:118|26:125,1,159,2|0,0:0|0:0,0:0:0:0:
13,15,292723,2,0,B|3:-10|88:1|77:75,1,99.375,2|0,0:0|0:0,0:0:0:0:
239,134,293017,2,0,L|305:151,1,36.4375011119843,2|0,0:0|0:0,0:0:0:0:
245,128,293164,2,0,L|295:168,1,36.4375011119843,2|0,0:0|0:0,0:0:0:0:
245,144,293311,2,0,P|189:156|154:122,1,92.7499971694947,2|0,0:0|0:0,0:0:0:0:
97,177,293531,1,2,0:0:0:0:
151,232,293605,86,0,B|42:217|-11:320|76:340|56:287,1,178.874994541168,2|0,1:2|0:0,0:0:0:0:
210,298,293899,2,0,P|231:343|233:377,1,79.5,2|0,0:0|0:0,0:0:0:0:
233,372,294193,1,2,0:2:0:0:
301,250,294340,1,2,0:2:0:0:
44,294,294487,21,2,0:0:0:0:
154,43,294634,2,0,L|144:87,1,26.5,2|0,0:0|0:0,0:0:0:0:
245,85,294781,86,0,B|195:77|148:30|197:-64|148:30|263:112|380:64,1,298.125011372567,0|0,1:0|0:0,0:0:0:0:
227,0,295370,1,2,0:0:0:0:
227,0,295517,1,2,0:0:0:0:
429,99,295664,2,0,L|440:68,3,33.125,2|2|2|2,0:3|0:3|0:3|0:3,0:0:0:0:
453,107,295958,22,0,B|520:129|514:145|406:110|367:212,1,168.937503222227,2|0,1:2|0:2,0:2:0:0:
243,159,296252,86,0,B|209:191|271:180|307:141,1,99.375,2|0,0:0|0:0,0:0:0:0:
253,260,296546,22,0,B|225:276|193:310,1,56.3125010740757,2|0,0:2|0:2,0:2:0:0:
138,255,296693,2,0,B|119:280|84:287,1,39.7499987869263,2|0,0:2|0:2,0:2:0:0:
50,357,296840,86,0,B|29:363,1,19.8749993934632,2|0,0:2|0:2,0:2:0:0:
18,355,296987,2,0,B|-5:365,1,19.8749993934632,2|0,0:2|0:2,0:2:0:0:
175,134,297134,22,0,B|166:93|104:67|39:128|166:93|151:195,1,168.937503222227,2|0,1:2|0:0,0:0:0:0:
67,182,297429,2,0,P|39:222|27:270,1,99.375,2|0,0:0|0:0,0:0:0:0:
95,63,297723,2,0,P|56:47|40:26,1,43.0624980287553,2|0,0:0|0:0,0:0:0:0:
69,72,297870,2,0,P|40:83|13:82,1,43.0624980287553,2|0,0:0|0:0,0:0:0:0:
67,182,298017,2,0,B|178:170|121:117|251:106,1,159,2|0,0:0|0:0,0:0:0:0:
306,16,298311,86,0,B|272:-7|194:30|249:125|158:31,1,168.937503222227,2|0,1:2|0:0,0:0:0:0:
279,165,298605,2,0,P|299:204|312:247,1,89.4374972705842,2|0,0:0|0:0,0:0:0:0:
244,355,298899,1,2,0:2:0:0:
296,259,299046,1,2,0:2:0:0:
355,137,299193,2,0,L|366:105,3,33.125,2|0|2|0,0:0|0:0|0:0|0:0,0:0:0:0:
356,365,299487,22,0,B|466:374|481:262|388:298|427:329,1,168.937503222227,2|0,1:2|0:0,0:0:0:0:
205,275,299781,2,0,P|136:233|102:169,1,149.062505686283,2|0,0:0|0:0,0:0:0:0:
425,327,300076,2,0,P|374:288|313:270,1,129.187494086266,2|0,0:0|0:0,0:0:0:0:
101,306,300370,2,0,B|91:330|91:330|42:348|-8:390,1,132.5,2|2,0:0|0:0,0:0:0:0:
0,384,300958,85,2,0:2:0:0:
20,375,301105,1,2,0:2:0:0:
113,322,301252,1,2,0:2:0:0:
180,208,301399,1,0,0:2:0:0:
107,77,301546,1,2,0:3:0:0:
97,89,301620,1,2,0:3:0:0:
104,100,301693,1,2,0:3:0:0:
115,92,301767,1,2,0:3:0:0:
106,90,301840,22,0,B|138:83|171:73|5:44|8:-17,1,168.937503222227,2|0,1:2|0:0,0:0:0:0:
216,80,302134,2,0,B|141:102|149:163|67:186,1,168.937503222227,2|0,0:0|0:0,0:0:0:0:
175,7,302429,1,2,0:2:0:0:
303,79,302576,1,2,0:2:0:0:
310,215,302723,2,0,P|300:187|285:162,1,59.6249981803895,2|0,0:0|0:0,0:0:0:0:
512,69,303017,86,0,B|488:23|388:85|424:174,1,168.937503222227,2|0,1:2|0:0,0:0:0:0:
259,272,303311,2,0,B|242:286|265:335|292:194|396:232,1,168.937503222227,2|0,0:0|0:0,0:0:0:0:
478,227,303605,1,2,0:2:0:0:
332,151,303752,1,2,0:2:0:0:
407,210,303899,2,0,L|402:185,3,26.5,2|2|2|2,0:3|0:3|0:3|0:3,0:2:0:0:
254,374,304193,22,0,P|118:319|95:271,1,159,2|0,1:2|0:0,0:0:0:0:
11,345,304487,2,0,B|-61:343|-10:416|11:345,1,99.375,2|0,0:0|0:0,0:0:0:0:
111,298,304781,2,0,B|150:307|134:356|73:345|33:261|84:209|119:200,1,198.750007581711,2|2,0:0|0:0,0:0:0:0:
188,167,305223,2,0,L|242:183,1,49.6875018954278
21,152,305370,86,0,B|24:190|-21:192|-83:107|93:-21|93:116|165:93|233:65|216:10|142:-8|156:48,1,347.812513267994,2|0,1:2|0:2,0:2:0:0:
35,65,305958,22,0,B|14:63|18:45|46:19|96:55|74:108|99:134|121:132|111:97,1,149.062505686283,2|0,0:2|0:2,0:2:0:0:
62,78,306252,86,0,L|106:64,3,33.125,2|0|0|0,0:2|0:2|0:2|0:2,0:2:0:0:
237,258,306546,22,0,P|275:194|335:150,1,149.062505686283,2|0,0:0|0:0,0:0:0:0:
306,314,306840,2,0,B|375:336|343:363|419:379,1,109.312503335953,2|0,0:0|0:0,0:0:0:0:
409,351,307134,1,2,0:2:0:0:
267,384,307281,1,2,0:2:0:0:
427,334,307429,2,0,P|379:263|337:234,1,109.312503335953,2|0,0:0|0:0,0:0:0:0:
321,30,307723,86,0,B|243:98|360:137|272:236|285:108|380:5|503:-11|566:98|474:121|460:79,1,337.875006444454,2|0,1:2|0:0,0:0:0:0:
279,150,308311,22,0,L|218:121,1,39.7499987869263,2|0,0:0|0:0,0:0:0:0:
120,101,308458,86,0,L|60:67,1,39.7499987869263,2|0,0:0|0:0,0:0:0:0:
224,141,308605,22,0,L|183:151,1,39.7499987869263
214,135,308752,2,0,L|179:167,1,39.7499987869263,2|0,0:0|0:0,0:0:0:0:
0,384,308899,86,0,B|66:364|37:272|131:244,1,198.749993934632,2|0,1:2|0:0,0:0:0:0:
130,244,309487,2,0,B|177:271|141:292|66:264|78:242|124:229,1,119.249996360779,2|0,0:0|0:0,0:0:0:0:
120,256,309781,1,2,0:0:0:0:
447,206,309929,21,2,0:3:0:0:
446,185,310002,1,2,0:3:0:0:
432,193,310076,2,0,B|410:228|439:277|546:274|552:64|405:95|321:223|191:33|325:21|333:88|429:98|410:18|388:-15,1,394.18750751853,2|0,1:2|0:2,0:2:0:0:
417,220,310664,86,0,B|435:220|427:278|351:182|259:142|189:333,1,265,10|0,0:0|0:0,0:0:0:0:
349,162,311031,22,0,P|360:168|353:157,2,33.125,2|2|2,0:3|0:3|0:3,0:0:0:0:
40,20,311252,86,0,B|54:33|23:90|121:33|159:48|154:136|132:136|23:90|40:20,1,255.06250778389,2|0,0:0|0:0,0:0:0:0:
149,197,311840,2,0,B|129:139|129:139|231:153|278:68,1,231.875,2|0,0:0|0:0,0:0:0:0:
274,73,312429,2,0,P|227:59|205:44,1,66.25,2|0,0:0|0:0,0:0:0:0:
56,193,312723,1,2,0:2:0:0:
56,193,312870,1,2,0:2:0:0:
239,91,313017,2,0,P|242:51|236:12,1,79.4999975738526,2|0,0:0|0:0,0:0:0:0:
234,173,313311,1,2,0:0:0:0:
234,173,313458,1,2,0:0:0:0:
326,253,313605,21,2,0:2:0:0:
366,316,313752,1,2,0:2:0:0:
441,334,313899,1,2,0:2:0:0:
500,286,314046,1,2,0:2:0:0:
240,349,314193,86,0,P|207:357|179:362,1,49.6875,2|0,0:0|0:0,0:0:0:0:
135,306,314487,2,0,P|96:287|83:284,1,49.6875,2|0,0:0|0:0,0:0:0:0:
208,328,314781,22,0,P|145:341|84:361,1,129.187494086266,2|0,0:0|0:0,0:0:0:0:
229,229,315076,2,0,P|173:198|113:174,1,129.187494086266,2|0,0:0|0:0,0:0:0:0:
319,140,315370,86,0,P|342:96|354:48,1,99.375,2|0,0:0|0:0,0:0:0:0:
198,164,315664,2,0,P|166:116|134:84,1,99.375,2|0,0:0|0:0,0:0:0:0:
360,247,315958,22,0,P|471:221|514:198,1,132.5,2|0,0:0|0:0,0:0:0:0:
487,213,316546,1,2,0:0:0:0:
487,213,316840,1,2,0:0:0:0:
292,384,317134,85,2,0:2:0:0:
292,384,317429,1,2,0:2:0:0:
221,346,317576,1,0,0:2:0:0:
352,267,317723,22,0,B|411:250|435:304|487:327,1,149.062505686283,2|0,0:0|0:0,0:0:0:0:
487,213,318017,2,0,B|527:187|489:261|429:259,1,99.375,2|0,0:0|0:0,0:0:0:0:
199,163,318311,85,2,0:2:0:0:
269,225,318458,1,2,0:2:0:0:
185,272,318605,21,2,0:2:0:0:
281,114,318752,1,2,0:2:0:0:
193,76,318899,86,0,P|157:93|118:99,1,79.5,2|0,0:0|0:0,0:0:0:0:
195,135,319193,2,0,P|159:90|48:84,1,139.124995754242,2|0,0:0|0:0,0:0:0:0:
13,16,319487,2,0,B|-9:-5|-9:-5|36:16,1,79.5,2|0,0:0|0:0,0:0:0:0:
269,197,319781,22,0,B|259:191|259:191|224:256|156:250|156:250|152:239,1,149.062505686283,2|0,0:0|0:0,0:0:0:0:
81,330,320076,2,0,P|153:258|165:254,1,99.375,2|0,0:0|0:0,0:0:0:0:
275,105,320370,2,0,B|298:89|294:53|261:73|271:106,1,69.562497877121,2|0,0:0|0:0,0:0:0:0:
370,218,320664,86,0,B|340:226|305:212|305:212|414:250|448:366,1,265,2|0,0:0|0:0,0:0:0:0:
441,257,321399,1,0,0:0:0:0:
370,218,321546,1,2,0:2:0:0:
372,142,321693,1,2,0:2:0:0:
493,147,321840,22,0,P|494:173|500:199,1,53,2|0,0:0|0:0,0:0:0:0:
500,199,322134,1,2,0:2:0:0:
301,90,322281,1,2,0:2:0:0:
471,177,322429,2,0,P|426:138|368:126,1,119.249996360779,2|0,0:0|0:0,0:0:0:0:
408,68,322723,2,0,B|411:90|293:160|268:120,1,149.062505686283,2|0,0:0|0:0,0:0:0:0:
97,227,323017,85,2,0:2:0:0:
183,63,323163,1,2,0:2:0:0:
121,15,323310,21,2,0:2:0:0:
217,137,323458,1,2,0:2:0:0:
19,192,323605,86,0,P|11:149|11:104,1,89.4374972705842,2|0,0:0|0:0,0:0:0:0:
146,312,323899,2,0,P|208:270|277:240,1,149.062505686283,2|0,0:0|0:0,0:0:0:0:
65,292,324193,22,0,P|37:302|6:317,1,57.96875,2|0,0:0|0:0,0:0:0:0:
190,209,324781,86,0,P|121:179|81:171,1,104.343746815682,2|0,0:0|0:0,0:0:0:0:
379,171,325370,22,0,P|375:91|349:-14,1,173.906256633997,2|0,0:0|0:0,0:0:0:0:
280,262,325958,86,0,B|278:290|278:290|310:236,1,81.1562475233079,2|0,0:0|0:0,0:0:0:0:
492,364,326546,1,2,1:2:0:0:
492,364,326840,21,2,0:2:0:0:
443,295,327134,1,2,0:2:0:0:
343,220,327429,1,2,0:2:0:0:
199,195,327723,1,2,0:2:0:0:
199,195,328311,1,0,0:2:0:0:
199,195,328605,1,0,0:2:0:0:
199,195,328899,1,0,0:2:0:0:
492,364,329193,85,2,0:2:0:0:
420,263,329487,1,2,0:2:0:0:
276,155,329782,1,2,0:2:0:0:
68,119,330076,1,2,0:2:0:0:
68,119,330370,1,0,0:0:0:0:
68,119,330664,1,0,0:0:0:0:
68,119,330958,1,0,0:0:0:0:
0,384,331252,22,0,B|-19:390|-18:368|47:316|67:319|58:342,1,109.312503335953,10|0,0:0|0:0,0:0:0:0:
114,313,331546,86,0,B|175:287|57:389|22:397|42:367,1,139.124995754242,2|0,0:0|0:0,0:0:0:0:
192,157,331840,22,0,B|205:114|127:141|106:280|136:249,1,162.312495046616,2|0,0:0|0:0,0:0:0:0:
240,231,332429,2,0,B|255:228|226:265|151:297|170:271,1,99.375,2|0,0:0|0:0,0:0:0:0:
241,138,332723,86,0,B|206:157|240:85|320:37|299:95,1,129.187494086266,2|0,0:0|0:0,0:0:0:0:
365,150,333017,22,0,B|360:195|419:147|456:4|369:92,1,149.062505686283,2|0,0:0|0:0,0:0:0:0:
512,0,333311,86,0,B|522:-11|451:7|440:61|469:49,1,89.4374972705842,2|0,0:0|0:0,0:0:0:0:
52,355,333605,22,2,B|-30:400|-20:355|449:-69|522:-13|460:38,1,645.937470431329,2|0,0:0|0:0,0:1:0:0:
264,75,334781,2,0,B|276:55|297:58|266:161|93:201|153:140|161:149,1,185.5,2|0,0:0|0:0,0:0:0:0:
291,296,335370,2,0,B|291:283|264:286|263:315|292:347|340:340,1,106,2|0,0:0|0:0,0:0:0:0:
393,297,335811,1,2,0:0:0:0:
512,374,335958,85,6,0:3:0:0:
512,356,336252,1,2,0:2:0:0:
495,314,336546,1,2,0:0:0:0:
455,272,336840,1,2,0:0:0:0:
391,251,337134,1,2,0:0:0:0:
306,251,337429,1,2,0:0:0:0:
210,308,337723,1,2,0:0:0:0:
61,279,338017,1,2,0:0:0:0:
2,142,338311,1,2,0:0:0:0:
120,14,338605,1,2,0:0:0:0:
512,0,338899,85,2,0:2:0:0:
460,5,339046,21,2,0:2:0:0:
385,44,339193,85,2,0:0:0:0:
317,126,339340,21,2,0:0:0:0:
322,254,339487,86,2,P|326:278|326:251,1,92.75,2|0,0:0|0:0,0:1:0:0:
333,270,340076,22,0,P|328:263|335:270,1,23.1875,4|0,0:3|0:0,0:0:0:0:
60,309,340664,6,0,B|-1:373|-1:373|203:251,1,324.624990093232,4|0,3:2|0:0,0:0:0:0:
60,309,341840,2,0,B|61:314|61:314|319:361|319:361|253:376,1,324.624990093232,4|0,3:2|0:0,0:0:0:0:
104,227,343016,38,0,P|94:186|84:169,1,46.3749985847474,2|0,0:0|0:0,0:0:0:0:
296,257,343311,2,0,P|287:278|284:301,1,46.3749985847474,2|0,0:0|0:0,0:0:0:0:
77,384,343605,21,8,0:2:0:0:
151,342,343752,1,8,0:2:0:0:
205,242,343899,1,8,0:2:0:0:
162,99,344046,1,8,0:2:0:0:
32,9,344193,1,4,3:2:0:0:
32,9,344487,6,0,P|16:52|-1:84,1,69.562497877121,2|0,3:2|0:0,0:0:0:0:
143,182,344781,2,0,B|114:173|114:173|235:132,1,158.999995147705,10|2,0:0|0:0,0:0:0:0:
63,117,345222,1,0,0:2:0:0:
307,181,345369,2,0,P|308:160|321:127,1,53,2|0,3:2|0:0,0:0:0:0:
143,22,345663,2,0,P|145:53|164:104,1,79.5,2|0,3:2|0:0,0:0:0:0:
379,230,345957,6,0,B|509:268|509:268|409:336,1,255.06250778389,10|0,0:0|0:0,0:0:0:0:
256,339,346545,6,0,P|210:351|188:371,1,69.562497877121,2|0,3:2|0:0,0:0:0:0:
272,345,346840,38,0,P|300:355|351:398,1,79.5,2|0,3:2|0:0,0:0:0:0:
271,327,347134,22,0,P|261:244|222:169,1,168.937503222227,10|0,0:0|0:0,0:0:0:0:
160,266,347428,6,0,B|137:262|123:284|123:284|152:284|160:266,1,79.5,2|0,0:0|0:0,0:0:0:0:
296,213,347722,2,0,B|329:204|353:235|353:235|317:240|296:214,1,129.187494086266,2|0,3:2|0:0,0:0:0:0:
189,93,348016,6,0,B|166:89|159:98|159:98|185:114|219:108|219:108|210:95|189:93,1,129.187494086266,2|0,3:2|0:0,0:0:0:0:
162,42,348310,6,0,P|141:127|167:39,1,397.500015163422,10|2,0:0|0:0,0:0:0:0:
81,306,348898,38,0,P|42:318|9:328,1,69.562497877121,2|0,3:2|0:0,0:0:0:0:
15,327,349193,2,0,B|22:359|22:359|75:253|199:255|199:255|192:288,1,265,2|8,3:2|0:0,0:0:0:0:
196,268,349781,2,0,P|185:224|187:180,1,89.4374972705842,2|0,0:0|0:0,0:0:0:0:
455,135,350075,22,0,P|469:97|507:68,1,69.562497877121,2|0,3:2|0:0,0:0:0:0:
455,135,350369,2,0,P|485:108|532:100,1,69.562497877121,0|0,3:2|0:0,0:0:0:0:
331,104,350663,2,0,B|344:136|344:136|437:137|481:214,1,198.75,8|0,0:0|0:0,0:0:0:0:
417,257,350957,2,0,P|384:274|351:321,1,79.5,2|0,0:0|0:0,0:0:0:0:
177,267,351251,6,0,P|111:253|78:189,1,139.124995754242,6|0,3:2|0:0,0:0:0:0:
60,119,351545,2,0,P|26:124|37:136,1,69.562497877121,2|0,0:0|0:0,0:0:0:0:
177,267,351840,6,0,B|96:263|121:314|-9:305,1,168.937503222227,10|0,0:0|0:0,0:0:0:0:
218,344,352134,2,0,P|268:362|302:369,1,69.562497877121,2|0,0:0|0:0,0:0:0:0:
376,256,352428,6,0,P|419:219|425:187,1,79.5,2|0,3:2|0:0,0:0:0:0:
126,174,352722,38,0,P|95:147|75:71,1,99.375,2|0,3:2|0:0,0:0:0:0:
299,0,353016,22,0,P|237:40|267:126,1,149.062505686283,10|0,0:0|0:0,0:0:0:0:
245,107,353310,2,0,P|334:122|357:34,1,198.75,2|0,0:0|0:0,0:0:0:0:
298,66,353604,5,0,3:0:0:0:
298,66,353898,1,2,3:2:0:0:
186,216,354193,2,0,B|136:207|136:207|93:222|93:222|41:213,1,149.062505686283,10|0,0:0|0:0,0:0:0:0:
41,213,354487,2,0,P|78:227|111:249,1,79.5,2|0,0:0|0:0,0:0:0:0:
256,377,354781,5,2,3:2:0:0:
249,322,355074,1,2,0:2:0:0:
274,235,355369,1,10,0:0:0:0:
344,144,355663,1,2,0:0:0:0:
467,89,355957,6,0,B|360:39|387:112|271:65,1,185.5,6|0,3:2|0:0,0:0:0:0:
106,65,356545,38,0,B|101:108|71:137|71:137|177:171|264:122|303:12|239:-83|181:15|239:20,1,417.374987262726,10|0,0:0|0:0,0:0:0:0:
76,156,357134,2,0,P|22:171|0:189,1,82.8125,2|0,3:2|0:0,0:0:0:0:
2,188,357575,1,2,0:2:0:0:
256,384,357722,1,8,0:2:0:0:
256,384,358016,2,0,P|248:326|255:242,1,132.5,6|0,3:2|3:0,0:0:0:0:
249,239,358898,22,0,B|359:304|267:414|172:324,1,238.499992721558,8|0,0:0|0:0,0:0:0:0:
183,334,359487,1,2,3:2:0:0:
336,178,359781,1,2,3:2:0:0:
238,0,360075,5,8,0:2:0:0:
188,61,360222,1,0,3:2:0:0:
262,384,360663,6,0,B|276:304|231:301|246:223,1,164.3,4|0,3:2|0:0,0:0:0:0:
219,317,363016,6,0,B|203:281|168:273|168:273|182:309|222:317,1,132.5,8|0,0:3|0:0,0:0:0:0:
282,234,363457,38,0,B|309:203|345:202|345:202|331:235|285:240,1,132.5,8|0,0:0|0:0,0:0:0:0:
321,15,363898,22,0,B|364:42|454:184|349:302|284:336|60:335|64:142|104:74|104:74|138:178|296:204|338:84|303:14|303:14|295:11|295:11|220:76|146:42|146:42|201:-20|246:7,1,1272,4|0,3:2|0:0,0:0:0:0:
