osu file format v14

[General]
AudioFilename: audio.mp3
AudioLeadIn: 0
PreviewTime: 683
Countdown: 0
SampleSet: Soft
StackLeniency: 0.4
Mode: 0
LetterboxInBreaks: 0
WidescreenStoryboard: 1

[Editor]
Bookmarks: 683,40506,81921,107407,132098,153868,169267,194753,219445,244133,269091,294045,309708
DistanceSpacing: 0.2
BeatDivisor: 4
GridSize: 32
TimelineZoom: 2.3

[Metadata]
Title:Compass
TitleUnicode:Compass
Artist:Uchu Conbini
ArtistUnicode:宇宙コンビニ
Creator:Sing
Version:Space
Source:
Tags:染まる音を確認したら daijiro nakagawa rlc xlni collab collaboration japanese math rock j-rock progressive pop j-pop the dying somaru oto wo kakuninshi tara track 4 #4 NBDL-0008 2013 feel dyeing note
BeatmapID:2794869
BeatmapSetID:1349881

[Difficulty]
HPDrainRate:5
CircleSize:3.8
OverallDifficulty:9
ApproachRate:9.3
SliderMultiplier:3.2
SliderTickRate:1

[Events]
//Background and Video events
0,0,"81691339_p0_2.jpg",0,0
//Break Periods
//Storyboard Layer 0 (Background)
//Storyboard Layer 1 (Fail)
//Storyboard Layer 2 (Pass)
//Storyboard Layer 3 (Foreground)
//Storyboard Layer 4 (Overlay)
//Storyboard Sound Samples

[TimingPoints]
683,530.973451327434,3,2,1,50,1,0
2010,530.973451327434,3,2,1,50,1,0
2806,530.973451327434,3,2,1,50,1,0
7320,530.973451327434,3,2,1,50,1,0
8116,530.973451327434,3,2,1,50,1,0
12629,530.973451327434,3,2,1,50,1,0
13426,530.973451327434,3,2,1,50,1,0
17939,530.973451327434,3,2,1,50,1,0
18736,530.973451327434,3,2,1,50,1,0
25107,-133.333333333333,3,2,1,40,0,0
26435,530.973451327434,3,2,1,40,1,0
26435,-133.333333333333,3,2,1,40,0,0
28824,530.973451327434,3,2,1,40,1,0
28824,-133.333333333333,3,2,1,40,0,0
32806,530.973451327434,3,2,1,40,1,0
32806,-133.333333333333,3,2,1,40,0,0
34134,530.973451327434,3,2,1,40,1,0
34134,-133.333333333333,3,2,1,40,0,0
36523,530.973451327434,3,2,1,40,1,0
36523,-133.333333333333,3,2,1,40,0,0
39443,-100,3,2,1,40,0,0
40506,530.973451327434,3,2,1,50,1,0
41833,530.973451327434,3,2,1,50,1,0
44222,530.973451327434,3,2,1,50,1,0
48205,530.973451327434,3,2,1,50,1,0
49532,530.973451327434,3,2,1,50,1,0
51921,530.973451327434,3,2,1,50,1,0
55904,530.973451327434,5,2,1,30,1,0
55904,-200,5,2,1,30,0,0
65461,-133.333333333333,5,2,1,40,0,0
66523,530.973451327434,3,2,1,50,1,0
67851,530.973451327434,3,2,1,50,1,0
70240,530.973451327434,3,2,1,50,1,0
74222,530.973451327434,3,2,1,50,1,0
75550,530.973451327434,3,2,1,50,1,0
77939,530.973451327434,3,2,1,50,1,0
81921,530.973451327434,3,2,1,30,1,0
82319,-200,3,2,1,30,0,0
94664,-100,3,2,1,40,0,0
105814,-200,3,2,1,40,0,0
107407,-76.9230769230769,3,2,1,70,0,1
110329,530.973451327434,3,2,1,70,1,1
110329,-76.9230769230769,3,2,1,70,0,1
116435,530.973451327434,3,2,1,70,1,1
116435,-76.9230769230769,3,2,1,70,0,1
122541,530.973451327434,3,2,1,70,1,1
122541,-76.9230769230769,3,2,1,70,0,1
132098,-76.9230769230769,3,2,1,40,0,0
132629,-133.333333333333,3,2,1,40,0,0
133426,530.973451327434,3,2,1,40,1,0
133426,-133.333333333333,3,2,1,40,0,0
134222,530.973451327434,3,2,1,40,1,0
134222,-133.333333333333,3,2,1,40,0,0
138736,530.973451327434,3,2,1,50,1,0
139532,530.973451327434,3,2,1,50,1,0
144045,530.973451327434,3,2,1,50,1,0
144842,530.973451327434,3,2,1,50,1,0
149355,530.973451327434,3,2,1,50,1,0
150152,530.973451327434,3,2,1,50,1,0
153868,530.973451327434,3,2,1,50,1,0
155196,530.973451327434,3,2,1,50,1,0
157585,530.973451327434,3,2,1,50,1,0
161567,530.973451327434,3,2,1,50,1,0
162895,530.973451327434,3,2,1,50,1,0
165284,530.973451327434,3,2,1,50,1,0
169267,530.973451327434,3,2,1,40,1,0
169267,-133.333333333333,3,2,1,40,0,0
175638,-133.333333333333,3,2,1,30,0,0
176036,-200,3,2,1,30,0,0
178824,-133.333333333333,3,2,1,40,0,0
193160,-200,3,2,1,50,0,0
194753,-76.9230769230769,3,2,1,70,0,1
197676,530.973451327434,3,2,1,70,1,1
197676,-76.9230769230769,3,2,1,70,0,1
203782,530.973451327434,3,2,1,70,1,1
203782,-76.9230769230769,3,2,1,70,0,1
209888,530.973451327434,3,2,1,70,1,1
209888,-76.9230769230769,3,2,1,70,0,1
222364,530.973451327434,3,2,1,70,1,1
222364,-76.9230769230769,3,2,1,70,0,1
228470,530.973451327434,3,2,1,70,1,1
228470,-76.9230769230769,3,2,1,70,0,1
234576,530.973451327434,3,2,1,70,1,1
234576,-76.9230769230769,3,2,1,70,0,1
244133,-76.9230769230769,3,2,1,40,0,0
244664,-133.333333333333,3,2,1,40,0,0
247054,530.973451327434,3,2,1,40,1,0
247054,-133.333333333333,3,2,1,40,0,0
248382,530.973451327434,3,2,1,40,1,0
249709,-133.333333333333,3,2,1,40,0,0
250771,530.973451327434,3,2,1,50,1,0
253691,530.973451327434,3,2,1,50,1,0
255019,530.973451327434,3,2,1,50,1,0
259532,530.973451327434,3,2,1,50,1,0
260859,530.973451327434,3,2,1,50,1,0
263249,530.973451327434,3,2,1,50,1,0
266169,530.973451327434,3,2,1,50,1,0
267499,530.973451327434,3,2,1,50,1,0
272010,530.973451327434,3,2,1,50,1,0
273337,530.973451327434,3,2,1,50,1,0
275727,530.973451327434,3,2,1,50,1,0
278647,530.973451327434,3,2,1,50,1,0
279975,530.973451327434,3,2,1,50,1,0
284488,530.973451327434,3,2,1,50,1,0
285815,530.973451327434,3,2,1,50,1,0
288205,530.973451327434,3,2,1,50,1,0
291125,530.973451327434,3,2,1,50,1,0
294045,530.973451327434,5,2,1,50,1,0
294310,-100,5,2,1,30,0,0
294443,-200,5,2,1,30,0,0

[Colours]
Combo1 : 71,140,216
Combo2 : 68,204,130
Combo3 : 236,106,129
Combo4 : 228,170,82

[HitObjects]
66,221,683,6,0,B|191:210|137:265|264:263,1,200,4|2,1:0|2:0,2:0:0:0:
314,329,1081,1,2,2:0:0:0:
314,329,1147,1,2,2:0:0:0:
314,329,1213,2,0,P|331:288|336:219,1,80,2|0,2:0|2:0,2:0:0:0:
190,165,1479,2,0,P|161:263|164:351,1,160,2|2,2:0|2:0,2:0:0:0:
159,320,2010,6,0,L|-37:350,2,160,4|2|2,1:0|2:0|2:0,2:0:0:0:
493,47,2806,6,0,P|430:60|337:137,1,160,4|2,2:0|2:0,2:0:0:0:
409,189,3204,1,2,2:0:0:0:
277,157,3336,2,0,P|269:118|267:79,1,80,2|2,2:0|2:0,2:0:0:0:
409,189,3602,5,2,2:0:0:0:
333,25,3735,1,2,2:0:0:0:
176,122,3867,2,0,P|178:83|187:44,1,80,2|0,2:0|2:0,2:0:0:0:
422,284,4133,6,0,L|441:287,6,20,2|0|2|0|2|0|2,2:3|2:0|2:3|2:0|2:3|2:0|2:3,2:0:0:0:
344,258,4398,6,0,P|264:259|186:277,1,160,8|2,2:0|2:0,2:0:0:0:
363,173,4797,2,0,P|309:158|249:155,1,80,8|0,2:0|2:0,2:0:0:0:
364,345,5062,1,2,2:0:0:0:
353,350,5129,1,0,2:0:0:0:
345,359,5195,1,2,2:0:0:0:
429,268,5328,1,0,1:0:0:0:
186,277,5460,6,0,L|-6:297,2,160,8|4|2,2:0|2:0|2:0,2:0:0:0:
30,53,6257,5,2,2:0:0:0:
30,53,6323,1,2,2:0:0:0:
30,53,6390,1,2,2:0:0:0:
30,53,6456,1,2,2:0:0:0:
30,53,6522,2,0,P|39:115|39:160,1,80,2|0,2:0|2:0,2:0:0:0:
100,196,6788,2,0,B|146:165|146:165|131:41,1,160,2|2,2:0|2:0,2:0:0:0:
133,61,7320,6,0,L|228:43,1,80,4|0,1:0|2:0,2:0:0:0:
201,237,7585,2,0,L|296:255,1,80,2|0,2:0|2:0,2:0:0:0:
308,21,7850,1,2,2:0:0:0:
390,4,7983,1,0,2:0:0:0:
414,226,8116,6,0,B|390:196|377:155|377:155|385:114|428:56,1,160,4|2,2:0|2:0,2:0:0:0:
465,154,8514,1,2,2:0:0:0:
298,145,8646,2,0,P|247:153|199:174,1,80,2|2,2:0|2:0,2:0:0:0:
465,154,8912,5,2,2:0:0:0:
303,231,9045,1,2,2:0:0:0:
333,53,9177,2,0,P|282:45|234:24,1,80,2|0,2:0|2:0,2:0:0:0:
220,253,9443,6,0,L|196:260,6,20,2|0|2|0|2|0|2,2:3|2:0|2:3|2:0|2:3|2:0|2:3,2:0:0:0:
128,308,9708,2,0,P|115:247|102:195,1,80,8|0,2:0|2:0,2:0:0:0:
207,349,9974,1,2,2:0:0:0:
350,155,10107,6,0,P|331:230|316:333,1,160,8|2,2:0|2:0,2:0:0:0:
316,323,10439,1,0,2:0:0:0:
315,335,10505,1,2,2:0:0:0:
249,159,10638,1,0,1:0:0:0:
413,277,10770,6,0,P|437:229|462:191,1,80,8|0,2:0|2:0,2:0:0:0:
249,159,11036,2,0,P|239:96|212:27,1,120,4|0,2:0|2:0,2:0:0:0:
220,43,11301,6,0,P|302:50|385:55,1,160,2|2,2:0|2:0,2:0:0:0:
124,86,11700,1,2,2:0:0:0:
124,86,11766,1,2,2:0:0:0:
124,86,11832,2,0,P|70:92|43:94,1,80,2|0,2:0|2:0,2:0:0:0:
185,169,12098,2,0,P|171:215|159:256,1,80,2|0,2:0|2:0,2:0:0:0:
222,43,12363,1,2,2:0:0:0:
467,321,12629,6,0,P|494:278|503:227,1,80,4|0,1:0|2:0,2:0:0:0:
414,81,12894,2,0,P|401:129|418:213,1,120,2|0,2:0|2:0,2:0:0:0:
410,197,13159,1,2,2:0:0:0:
499,164,13292,1,0,2:0:0:0:
342,268,13426,6,0,P|294:267|175:261,1,160,4|2,2:0|2:0,2:0:0:0:
89,289,13824,1,2,2:0:0:0:
116,193,13956,1,2,2:0:0:0:
182,261,14089,1,2,2:0:0:0:
62,283,14222,5,2,2:0:0:0:
41,154,14355,1,2,2:0:0:0:
174,130,14487,1,2,2:0:0:0:
174,130,14753,2,0,L|169:105,6,20,2|0|2|0|2|0|2,2:3|2:0|2:3|2:0|2:3|2:0|2:3,2:0:0:0:
307,114,15018,6,0,B|351:152|412:151|412:151|431:135|437:113,1,160,8|2,2:0|2:0,2:0:0:0:
194,253,15417,2,0,B|159:255|132:270|132:270|123:294|123:294|84:321|48:316,1,160,8|2,2:0|2:0,2:0:0:0:
276,206,15815,1,2,2:0:0:0:
355,264,15948,1,0,1:0:0:0:
194,253,16080,2,0,P|182:211|188:159,1,80,8|0,2:0|2:0,2:0:0:0:
206,55,16346,1,4,2:0:0:0:
507,94,16611,6,0,P|384:75|333:65,1,160,2|2,2:0|2:0,2:0:0:0:
379,183,17010,1,2,2:0:0:0:
379,183,17076,1,2,2:0:0:0:
379,183,17142,2,0,P|432:194|460:200,1,80,2|0,2:0|2:0,2:0:0:0:
284,274,17408,2,0,P|291:318|296:359,1,80,2|0,2:0|2:0,2:0:0:0:
267,156,17673,1,2,2:0:0:0:
295,353,17939,6,0,P|342:349|385:346,1,80,4|0,1:0|2:0,2:0:0:0:
267,156,18204,2,0,P|216:159|139:166,1,120,2|0,2:0|2:0,2:0:0:0:
147,165,18469,1,2,2:0:0:0:
67,198,18602,1,0,2:0:0:0:
367,171,18736,6,0,P|373:206|338:333,1,160,4|2,2:0|2:0,2:0:0:0:
256,288,19134,1,2,2:0:0:0:
169,324,19266,1,2,2:0:0:0:
256,256,19399,1,2,2:0:0:0:
343,324,19532,1,2,2:0:0:0:
256,224,19665,1,2,2:0:0:0:
169,324,19797,1,2,2:0:0:0:
279,70,20063,6,0,L|274:45,6,20,2|0|2|0|2|0|2,2:3|2:0|2:3|2:0|2:3|2:0|2:3,2:0:0:0:
236,144,20328,2,0,B|211:187|211:187|168:204|105:168,1,160,8|2,2:0|2:0,2:0:0:0:
109,84,20727,1,8,2:0:0:0:
109,84,20992,1,2,2:0:0:0:
17,213,21125,1,2,2:0:0:0:
156,260,21258,1,0,1:0:0:0:
62,333,21390,2,0,P|109:342|146:352,1,80,8|0,2:0|2:0,2:0:0:0:
329,314,21656,2,0,P|372:324|457:334,1,120,4|0,2:0|2:0,2:0:0:0:
447,333,21921,6,0,B|485:316|485:316|511:241|440:195,2,160,2|2|2,0:0|0:0|0:0,0:0:0:0:
25,245,22718,1,2,2:3:0:0:
23,237,22784,1,2,2:3:0:0:
21,229,22851,1,2,2:3:0:0:
19,221,22917,1,2,2:3:0:0:
17,213,22983,6,0,P|15:137|37:66,1,120,8|0,0:0|0:0,0:0:0:0:
25,94,23249,1,2,2:0:0:0:
103,212,23382,2,0,P|105:266|100:305,1,80,8|0,2:0|2:0,2:0:0:0:
139,122,23647,1,2,2:0:0:0:
214,177,23780,1,2,2:0:0:0:
290,128,23912,1,0,1:0:0:0:
356,175,24045,2,0,B|447:177|405:214|508:215,1,160,8|4,2:0|2:0,2:0:0:0:
507,214,24576,5,2,2:0:0:0:
484,294,24709,1,2,2:0:0:0:
510,203,24842,2,0,P|510:142|491:59,1,120,2|0,2:0|2:0,2:0:0:0:
499,84,25107,6,0,L|364:62,1,120,4|2,1:0|2:0,2:0:0:0:
181,59,25505,2,0,L|299:77,1,120,2|0,2:0|2:0,2:0:0:0:
299,77,25904,2,0,L|307:147,1,60.0000000000001,2|0,2:0|2:0,2:0:0:0:
380,65,26169,2,0,L|372:5,1,60.0000000000001,0|0,1:0|2:0,2:0:0:0:
223,154,26435,6,0,P|221:199|235:298,1,120,0|0,1:0|2:0,2:0:0:0:
142,371,26833,2,0,P|144:326|130:227,1,120,2|0,2:0|2:0,2:0:0:0:
135,251,27231,2,0,L|70:240,1,60.0000000000001,2|0,2:0|2:0,2:0:0:0:
229,273,27496,5,0,1:0:0:0:
280,347,27629,1,0,2:0:0:0:
365,328,27762,2,0,B|393:203,2,120,8|8|2,2:0|2:0|2:0,2:0:0:0:
321,151,28558,6,0,L|314:125,6,15,2|0|0|0|0|0|0,2:0|2:0|2:0|2:0|2:0|2:0|2:0,2:0:0:0:
220,149,28824,2,0,P|242:75|246:15,1,120,0|2,1:0|2:0,2:0:0:0:
297,236,29222,2,0,P|275:310|271:370,1,120,8|0,2:0|2:0,2:0:0:0:
391,210,29620,2,0,L|466:197,1,60.0000000000001,2|0,2:0|2:0,2:0:0:0:
200,234,29885,2,0,L|64:261,1,120,0|0,1:0|1:0,2:0:0:0:
82,257,30416,6,0,P|72:196|54:122,1,120,0|0,1:0|1:0,2:0:0:0:
297,236,30815,2,0,P|306:296|325:371,1,120,8|0,2:0|2:0,2:0:0:0:
155,161,31213,2,0,P|165:132|176:105,1,60.0000000000001,2|0,2:0|2:0,2:0:0:0:
166,251,31478,5,0,1:0:0:0:
166,251,31611,1,0,1:0:0:0:
85,271,31744,1,8,2:0:0:0:
409,283,32009,1,8,2:0:0:0:
85,271,32275,2,0,P|90:312|97:345,1,60.0000000000001,2|0,2:0|2:0,2:0:0:0:
166,251,32540,2,0,P|162:221|157:191,1,60.0000000000001,2|0,2:0|2:0,2:0:0:0:
0,27,32806,6,0,L|138:39,1,120,0|2,1:0|2:0,2:0:0:0:
310,104,33204,2,0,L|190:93,1,120,2|0,2:0|2:0,2:0:0:0:
199,9,33602,1,2,2:0:0:0:
106,121,33735,1,0,2:0:0:0:
285,188,33867,6,0,L|309:184,6,15,0|0|0|0|0|0|0,1:0|2:0|2:0|2:0|2:0|2:0|2:0,2:0:0:0:
390,150,34134,2,0,P|376:212|374:248,1,90.0000000000002,0|0,1:0|2:0,2:0:0:0:
374,238,34399,1,0,2:0:0:0:
342,383,34532,2,0,P|325:322|296:260,1,120,2|0,2:0|2:0,2:0:0:0:
108,189,34930,2,0,L|37:180,1,60.0000000000001,2|0,2:0|2:0,2:0:0:0:
166,251,35195,1,0,1:0:0:0:
359,141,35461,6,0,L|380:18,2,120,8|8|2,2:0|2:0|2:0,2:0:0:0:
359,141,36257,5,2,2:0:0:0:
278,168,36390,1,0,2:0:0:0:
207,113,36523,2,0,P|161:95|83:86,1,120,0|2,1:0|2:0,2:0:0:0:
0,236,36921,2,0,P|59:229|115:208,1,120,8|0,2:0|2:0,2:0:0:0:
115,208,37319,2,0,L|185:225,1,60.0000000000001,2|0,2:0|2:0,2:0:0:0:
91,85,37584,2,0,L|32:71,1,60.0000000000001,0|0,1:0|2:0,2:0:0:0:
131,299,37850,6,0,L|135:317,6,15,0|0|0|0|0|0|0,1:0|2:0|2:0|2:0|2:0|2:0|2:0,2:0:0:0:
154,384,38115,1,0,1:0:0:0:
400,229,38381,5,0,1:0:0:0:
387,314,38514,1,8,2:0:0:0:
98,122,38779,5,0,2:0:0:0:
115,208,38912,1,2,2:0:0:0:
403,116,39177,6,0,L|400:137,6,15,0|0|0|0|0|0|0,1:0|2:0|2:0|2:0|1:0|2:0|2:0,2:0:0:0:
478,164,39443,2,0,L|495:68,1,80,8|0,2:0|2:0,2:0:0:0:
98,122,39708,2,0,L|81:26,1,80,8|0,2:0|2:0,2:0:0:0:
302,151,39974,5,8,2:0:0:0:
322,68,40107,1,0,1:0:0:0:
210,151,40239,1,0,1:0:0:0:
190,68,40372,1,0,1:0:0:0:
403,116,40506,6,0,P|426:155|399:270,1,160,4|0,1:0|2:0,2:0:0:0:
313,236,40904,1,8,2:0:0:0:
313,236,41169,1,0,2:0:0:0:
250,108,41302,2,0,P|199:101|168:95,1,80,0|0,2:0|2:0,2:0:0:0:
167,272,41567,6,0,P|201:234|209:193,1,80,0|0,1:0|2:0,2:0:0:0:
112,22,41833,2,0,P|60:50|59:156,1,160,4|0,2:0|2:0,2:0:0:0:
146,328,42231,2,0,P|198:300|199:194,1,160,8|0,2:0|2:0,2:0:0:0:
199,198,42563,1,0,2:0:0:0:
190,189,42629,1,0,2:0:0:0:
292,134,42762,1,8,2:0:0:0:
382,262,42894,6,0,P|331:266|295:270,1,80,0|0,1:0|2:0,2:0:0:0:
407,84,43160,2,0,P|411:135|415:171,1,80,4|0,2:0|2:0,2:0:0:0:
250,180,43425,2,0,P|192:172|161:167,1,80,8|0,2:0|2:0,2:0:0:0:
316,22,43691,2,0,P|309:61|304:101,1,80,0|0,2:0|2:0,2:0:0:0:
44,123,43956,1,8,2:0:0:0:
133,66,44089,1,8,2:0:0:0:
170,168,44222,6,0,P|180:218|102:287,1,160,4|0,1:0|2:0,2:0:0:0:
47,223,44620,1,8,2:0:0:0:
47,223,44885,1,0,2:0:0:0:
290,154,45018,2,0,P|298:108|290:72,1,80,0|0,2:0|2:0,2:0:0:0:
143,23,45283,6,0,P|158:70|222:122,1,120,4|0,1:0|2:0,2:0:0:0:
209,116,45549,1,0,2:0:0:0:
278,52,45682,1,0,2:0:0:0:
179,213,45814,2,0,B|114:275|177:286|89:352,1,160,4|0,2:0|2:0,2:0:0:0:
34,131,46213,2,0,P|76:135|125:150,1,80,8|0,2:0|2:0,2:0:0:0:
375,311,46478,2,0,P|333:307|284:292,1,80,0|0,2:0|2:0,2:0:0:0:
271,211,46744,1,8,2:0:0:0:
477,254,46876,6,0,P|498:211|453:102,1,160,0|4,1:0|2:0,2:0:0:0:
464,110,47407,2,0,P|408:117|375:120,1,80,8|0,2:0|2:0,2:0:0:0:
299,37,47673,2,0,P|291:81|285:126,1,80,0|2,2:0|2:3,2:0:0:0:
376,224,47938,2,0,P|330:220|286:217,1,80,8|8,2:0|2:0,2:0:0:0:
191,88,48205,6,0,P|196:145|205:265,1,160,4|0,1:0|1:0,2:0:0:0:
115,222,48603,1,8,2:0:0:0:
115,222,48868,1,0,2:0:0:0:
181,360,49001,1,0,2:0:0:0:
280,242,49134,1,0,2:0:0:0:
349,312,49266,2,0,P|394:312|431:312,1,80,4|0,1:0|2:0,2:0:0:0:
503,195,49532,6,0,P|475:142|375:154,1,160,4|0,2:0|2:0,2:0:0:0:
280,242,49930,2,0,P|284:192|295:67,1,160,8|0,2:0|2:0,2:0:0:0:
295,70,50262,1,0,2:0:0:0:
297,58,50328,1,0,2:0:0:0:
197,126,50461,1,8,2:0:0:0:
300,50,50593,6,0,P|353:64|383:70,1,80,0|0,1:0|2:0,2:0:0:0:
197,126,50859,2,0,P|199:79|199:45,1,80,4|0,2:0|2:0,2:0:0:0:
218,230,51124,2,0,P|260:215|298:204,1,80,8|0,2:0|2:0,2:0:0:0:
99,201,51390,2,0,P|89:161|75:117,1,80,0|2,2:0|2:3,2:0:0:0:
129,320,51655,1,8,2:0:0:0:
129,320,51788,1,8,2:0:0:0:
363,347,51921,6,0,P|387:297|343:197,1,160,4|0,1:0|2:0,2:0:0:0:
254,224,52319,2,0,P|252:268|269:313,1,80,8|0,2:0|2:0,2:0:0:0:
166,330,52584,1,0,2:0:0:0:
166,330,52651,1,0,2:0:0:0:
166,330,52717,1,0,2:0:0:0:
197,123,52850,1,0,2:0:0:0:
197,123,52982,2,0,P|148:119|61:110,1,120,4|0,1:0|2:0,2:0:0:0:
77,111,53248,1,0,2:0:0:0:
298,123,53381,1,0,2:0:0:0:
188,218,53513,6,0,P|117:226|24:241,1,160,4|0,2:0|2:0,2:0:0:0:
298,123,53912,2,0,P|369:115|462:100,1,160,8|0,2:0|2:0,2:0:0:0:
466,107,54244,1,0,2:0:0:0:
476,113,54310,1,0,2:0:0:0:
366,245,54443,1,8,2:0:0:0:
497,350,54575,1,0,1:0:0:0:
226,60,54841,6,0,L|220:28,6,20,2|0|2|0|2|0|2,2:3|2:0|2:3|2:0|2:3|2:0|2:3,2:0:0:0:
314,111,55106,2,0,P|336:74|341:24,1,80,8|0,2:0|2:0,2:0:0:0:
194,159,55372,2,0,P|153:143|125:111,1,80,0|0,1:0|2:0,2:0:0:0:
312,214,55637,2,0,P|366:199|393:179,1,80,0|0,1:0|2:0,2:0:0:0:
242,310,55904,6,0,P|175:308|122:340,2,120,4|2|2,1:0|2:0|2:0,2:0:0:0:
43,305,56965,2,0,L|34:385,2,80,0|2|2,2:0|2:0|2:0,2:0:0:0:
129,332,57762,2,0,L|118:242,2,80,2|2|2,2:0|2:0|2:0,2:0:0:0:
213,195,58558,6,0,L|331:176,2,120,2|2|2,2:0|2:0|2:0,2:0:0:0:
134,174,59620,2,0,P|123:212|119:262,2,80,0|2|2,2:0|2:0|2:0,2:0:0:0:
50,295,60417,2,0,P|39:257|35:207,2,80,2|2|2,2:0|2:0|2:0,2:0:0:0:
133,174,61213,5,2,2:0:0:0:
133,174,61479,1,0,2:0:0:0:
213,198,61611,1,2,2:0:0:0:
213,198,61877,1,0,2:0:0:0:
293,174,62010,2,0,L|384:182,1,80,2|2,2:0|2:0,2:0:0:0:
133,174,62541,2,0,L|53:166,1,80,2|2,2:0|2:0,2:0:0:0:
216,114,63072,2,0,P|216:80|228:28,2,80,2|2|2,2:0|2:0|2:0,2:0:0:0:
12,279,63868,5,8,2:0:0:0:
12,279,64134,1,0,2:0:0:0:
194,321,64266,1,8,2:0:0:0:
194,321,64532,5,8,2:0:0:0:
106,363,64665,1,0,2:0:0:0:
106,363,64930,2,0,L|99:273,1,80,8|0,2:0|2:0,2:0:0:0:
297,85,65461,6,0,L|431:72,1,120,4|6,2:0|2:0,2:0:0:0:
496,65,65859,1,2,2:0:0:0:
284,165,65992,2,0,L|294:189,8,15,2|0|0|0|2|0|0|0|2,2:0|2:0|2:0|2:0|2:0|2:0|2:0|2:0|2:0,2:0:0:0:
163,12,66523,6,0,P|92:0|23:75,1,160,4|0,1:0|2:0,2:0:0:0:
72,132,66921,1,8,2:0:0:0:
72,132,67186,1,0,2:0:0:0:
149,98,67319,2,0,P|168:155|167:196,1,80,0|0,2:0|2:0,2:0:0:0:
198,360,67584,2,0,P|202:320|217:283,1,80,0|0,1:0|2:0,2:0:0:0:
326,238,67851,6,0,L|498:262,1,160,4|0,2:0|2:0,2:0:0:0:
251,162,68249,2,0,L|92:139,1,160,8|0,2:0|2:0,2:0:0:0:
339,128,68647,1,0,2:0:0:0:
241,255,68780,1,8,2:0:0:0:
339,128,68912,6,0,P|334:92|325:30,1,80,0|0,1:0|2:0,2:0:0:0:
241,255,69178,2,0,P|246:291|255:353,1,80,4|0,2:0|2:0,2:0:0:0:
476,155,69443,2,0,B|383:163|433:211|321:214,1,160,8|0,2:0|2:0,2:0:0:0:
480,245,69842,1,0,2:0:0:0:
480,245,69908,1,0,2:0:0:0:
480,245,69974,1,8,2:0:0:0:
334,305,70107,1,8,2:0:0:0:
338,127,70240,6,0,P|259:119|166:107,1,160,4|0,1:0|2:0,2:0:0:0:
241,255,70638,2,0,P|162:263|69:275,1,160,8|0,2:0|2:0,2:0:0:0:
92,98,71036,2,0,L|109:204,1,80,0|0,2:0|2:0,2:0:0:0:
317,364,71301,6,0,L|334:258,1,80,4|0,1:0|2:0,2:0:0:0:
232,337,71567,1,0,2:0:0:0:
409,310,71700,1,0,2:0:0:0:
344,150,71832,6,0,P|422:133|502:192,1,160,4|0,2:0|2:0,2:0:0:0:
253,222,72231,2,0,P|184:260|108:243,1,160,8|0,2:0|2:0,2:0:0:0:
334,256,72629,1,0,2:0:0:0:
256,128,72762,1,8,2:0:0:0:
358,158,72894,6,0,L|366:50,1,80,0|0,1:0|2:0,2:0:0:0:
154,158,73160,2,0,L|146:50,1,80,4|0,2:0|2:0,2:0:0:0:
446,137,73425,1,8,2:0:0:0:
66,137,73691,1,0,2:0:0:0:
96,223,73824,5,2,2:3:0:0:
96,223,73890,1,2,2:3:0:0:
96,223,73956,1,8,2:0:0:0:
70,52,74089,1,8,2:0:0:0:
243,140,74222,6,0,P|224:224|210:310,1,160,4|0,1:0|1:0,2:0:0:0:
127,379,74620,2,0,P|113:300|95:222,1,160,8|0,2:0|2:0,2:0:0:0:
316,237,75018,1,0,2:0:0:0:
316,237,75151,1,0,2:0:0:0:
153,148,75283,2,0,P|107:131|61:102,1,80,4|0,1:0|2:0,2:0:0:0:
285,342,75550,6,0,P|349:320|453:306,1,160,4|0,2:0|2:0,2:0:0:0:
211,296,75948,2,0,P|131:285|55:260,1,160,8|0,2:0|2:0,2:0:0:0:
208,384,76346,5,0,2:0:0:0:
237,206,76479,1,8,2:0:0:0:
285,342,76611,1,0,1:0:0:0:
488,152,76877,6,0,L|317:139,1,160,4|8,2:0|2:0,2:0:0:0:
328,139,77408,1,0,2:0:0:0:
253,111,77541,1,2,2:3:0:0:
253,111,77607,1,2,2:3:0:0:
253,111,77673,1,8,2:0:0:0:
170,164,77806,1,8,2:0:0:0:
50,60,77939,6,0,P|68:123|70:236,1,160,4|0,1:0|2:0,2:0:0:0:
147,320,78337,2,0,P|148:240|169:163,1,160,8|0,2:0|2:0,2:0:0:0:
51,301,78735,1,0,2:0:0:0:
248,230,78868,1,0,2:0:0:0:
148,78,79000,2,0,P|198:67|241:49,1,80,4|0,1:0|2:0,2:0:0:0:
236,320,79266,5,0,2:0:0:0:
236,320,79399,1,0,2:0:0:0:
343,221,79531,2,0,L|332:388,1,160,4|0,2:0|2:0,2:0:0:0:
169,163,79930,2,0,L|180:-4,1,160,8|0,2:0|2:0,2:0:0:0:
167,251,80328,1,0,2:0:0:0:
345,133,80461,1,8,2:0:0:0:
256,192,80593,6,0,L|259:216,6,20,0|0|0|0|0|0|0,1:0|2:0|2:0|2:0|2:0|2:0|2:0,2:0:0:0:
241,116,80859,1,2,2:3:0:0:
242,108,80925,1,2,2:3:0:0:
243,101,80992,1,2,2:3:0:0:
244,94,81058,1,2,2:3:0:0:
245,85,81124,2,0,P|240:46|236:6,1,80,8|0,2:0|2:0,2:0:0:0:
180,226,81390,2,0,P|147:251|102:282,1,80,0|0,1:0|2:0,2:0:0:0:
335,213,81655,2,0,P|373:229|422:252,1,80,0|0,1:0|2:0,2:0:0:0:
256,192,81921,5,4,1:0:0:0:
256,192,82319,2,0,B|189:175|209:211|131:192,1,120,2|2,2:0|2:0,2:0:0:0:
75,99,82982,1,2,2:0:0:0:
75,99,83513,2,0,P|52:133|105:239,1,160,2|0,2:0|2:0,2:0:0:0:
459,34,84575,5,0,2:0:0:0:
459,34,84841,1,0,2:0:0:0:
247,54,85106,1,2,2:0:0:0:
247,54,85505,2,0,P|278:51|371:42,1,120,2|2,2:0|2:0,2:0:0:0:
490,155,86168,2,0,P|459:158|366:167,1,120,2|0,2:0|2:0,2:0:0:0:
63,251,86699,6,0,P|63:297|84:331,1,80,0|0,1:0|2:0,2:0:0:0:
370,166,87097,2,0,P|370:120|349:86,1,80,0|0,1:0|2:0,2:0:0:0:
79,325,87496,2,0,P|109:338|164:335,1,80,0|0,1:0|2:0,2:0:0:0:
353,91,87894,2,0,P|323:78|268:81,1,80,0|0,1:0|2:0,2:0:0:0:
72,174,88292,5,4,1:0:0:0:
72,174,88690,2,0,B|141:173|118:208|194:205,1,120,2|2,2:0|2:0,2:0:0:0:
279,135,89354,1,2,2:0:0:0:
279,135,89885,2,0,P|328:135|448:122,1,160,2|0,2:0|2:0,2:0:0:0:
279,353,90947,5,0,2:0:0:0:
279,353,91213,1,0,2:0:0:0:
335,203,91478,1,2,2:0:0:0:
335,203,91876,2,0,P|375:211|437:258,1,120,2|2,2:0|2:0,2:0:0:0:
243,233,92540,1,2,2:0:0:0:
243,233,93071,6,0,P|257:183|255:104,2,120,2|2|2,2:0|2:0|2:0,2:0:0:0:
179,64,94133,1,2,2:0:0:0:
41,202,94398,2,0,L|10:210,2,20,2|0|2,2:0|2:0|2:0,2:0:0:0:
139,159,94664,6,0,P|186:149|296:168,1,160,4|0,1:0|2:0,2:0:0:0:
372,202,95062,1,2,2:0:0:0:
166,296,95328,1,0,2:0:0:0:
82,271,95460,2,0,P|80:312|98:352,1,80,0|0,1:0|2:0,2:0:0:0:
166,296,95726,2,0,L|183:171,1,120,8|0,2:0|2:0,2:0:0:0:
182,177,95991,1,0,2:0:0:0:
105,130,96124,1,0,2:0:0:0:
237,23,96257,6,0,P|265:62|279:101,2,80,0|0|0,1:0|2:0|2:0,2:0:0:0:
30,116,96655,2,0,P|78:125|189:92,1,160,0|0,1:0|2:0,2:0:0:0:
183,95,97053,1,0,2:0:0:0:
461,53,97319,5,8,2:0:0:0:
469,60,97584,2,0,P|461:111|456:152,1,80,0|0,1:0|2:0,2:0:0:0:
417,246,97850,6,0,P|423:294|332:349,1,160,0|0,1:0|2:0,2:0:0:0:
276,286,98248,1,0,1:0:0:0:
49,189,98513,1,0,2:0:0:0:
49,189,98646,2,0,P|38:151|40:102,1,80,4|0,2:0|2:0,2:0:0:0:
136,23,98912,2,0,P|148:73|125:146,1,120,8|0,2:0|2:0,2:0:0:0:
130,137,99177,2,0,P|172:132|216:131,1,80,2|0,2:0|2:0,2:0:0:0:
349,215,99443,6,0,P|372:183|374:123,1,80,0|0,1:0|2:0,2:0:0:0:
298,103,99708,1,0,2:0:0:0:
471,160,99841,2,0,P|467:113|450:76,1,80,0|0,1:0|2:0,2:0:0:0:
298,103,100106,1,0,2:0:0:0:
228,46,100239,1,0,2:0:0:0:
313,19,100372,1,0,2:0:0:0:
217,130,100505,5,8,2:0:0:0:
210,140,100770,2,0,P|166:138|126:137,1,80,0|0,1:0|2:0,2:0:0:0:
21,301,101036,6,0,P|28:254|43:140,1,160,0|0,1:0|2:0,2:0:0:0:
281,226,101434,2,0,P|224:224|119:222,1,160,0|0,1:0|2:0,2:0:0:0:
98,381,101832,2,0,P|104:339|111:286,1,80,4|0,2:0|2:0,2:0:0:0:
136,139,102097,1,8,2:0:0:0:
357,300,102363,1,0,2:0:0:0:
382,158,102496,1,0,2:0:0:0:
320,220,102628,6,0,P|370:212|469:157,1,160,0|0,1:0|2:0,2:0:0:0:
244,303,103027,2,0,P|229:257|221:136,1,160,0|0,1:0|2:0,2:0:0:0:
357,300,103425,2,0,P|399:296|439:287,1,80,0|0,2:0|2:0,2:0:0:0:
357,59,103690,5,8,2:0:0:0:
350,65,103956,2,0,P|306:61|267:55,1,80,0|0,1:0|2:0,2:0:0:0:
62,36,104221,6,0,P|39:89|95:172,1,160,0|0,1:0|2:0,2:0:0:0:
270,55,104620,2,0,P|221:34|141:104,1,160,0|0,1:0|2:0,2:0:0:0:
89,169,105018,1,0,2:0:0:0:
243,222,105151,1,8,2:0:0:0:
177,280,105283,5,8,2:0:0:0:
226,140,105416,1,0,1:0:0:0:
325,245,105549,1,0,1:0:0:0:
177,280,105682,1,0,1:0:0:0:
243,222,105814,6,0,P|298:225|406:233,1,160,4|0,1:0|2:0,2:0:0:0:
402,232,106876,6,0,P|361:207|338:267,1,120,4|0,2:3|2:0,2:0:0:0:
309,338,107407,6,0,B|258:356|258:356|207:322|202:254|264:206,1,208,4|0,1:0|2:0,2:0:0:0:
114,85,107805,2,0,B|63:67|63:67|12:101|7:169|69:217,1,208,4|0,1:0|2:0,2:0:0:0:
183,137,108204,2,0,P|240:131|321:118,1,104,4|0,1:0|2:0,2:0:0:0:
125,292,108469,1,8,2:0:0:0:
125,292,108735,5,2,2:0:0:0:
39,283,108867,1,2,2:0:0:0:
189,355,109000,2,0,B|287:269|200:148|200:148,1,208,4|0,1:0|2:0,2:0:0:0:
347,23,109398,2,0,B|357:5|270:126|369:212,1,208,4|0,1:0|2:0,2:0:0:0:
437,319,109797,2,0,B|359:273|369:334|267:259,1,156,4|0,1:0|2:0,2:0:0:0:
290,274,110062,5,8,2:0:0:0:
246,77,110195,1,8,2:0:0:0:
142,269,110329,6,0,B|129:322|63:353|9:313|9:313|59:258,1,208,4|0,1:0|2:0,2:0:0:0:
125,185,110727,2,0,B|85:148|90:75|152:48|152:48|175:119,1,208,4|0,1:0|2:0,2:0:0:0:
215,330,111125,2,0,P|239:289|233:207,1,104,4|0,1:0|2:0,2:0:0:0:
31,194,111390,5,8,2:0:0:0:
165,88,111523,2,0,B|217:72|254:99|254:99|265:117|265:117|301:141|370:122,1,208,0|2,1:0|2:0,2:0:0:0:
443,147,111921,2,0,B|458:12|458:12|419:41|389:61,1,208,4|0,1:0|2:0,2:0:0:0:
201,165,112320,5,4,1:0:0:0:
468,236,112452,2,0,P|387:225|347:201,1,104,0|0,2:0|2:0,2:0:0:0:
254,46,112718,1,0,1:0:0:0:
284,256,112851,1,0,1:0:0:0:
201,165,112983,6,0,P|120:176|80:200,1,104,8|0,2:0|2:0,2:0:0:0:
251,339,113249,1,0,1:0:0:0:
17,293,113382,1,0,1:0:0:0:
284,256,113514,6,0,B|341:256|408:312|408:312|399:236,1,208,4|0,1:0|2:0,2:0:0:0:
190,272,113913,1,4,1:0:0:0:
485,269,114045,2,0,L|496:140,1,104,0|0,2:0|2:0,2:0:0:0:
335,179,114311,1,4,1:0:0:0:
34,65,114576,5,8,2:0:0:0:
307,87,114709,1,0,2:0:0:0:
223,31,114842,2,0,L|214:150,1,104,2|2,2:0|2:0,2:0:0:0:
114,211,115107,2,0,B|103:137|103:137|123:88|123:88|114:-3,1,208,4|0,1:0|2:0,2:0:0:0:
20,187,115505,5,4,1:0:0:0:
304,229,115638,2,0,P|246:226|172:216,1,104,0|0,2:0|2:0,2:0:0:0:
1,297,115904,2,0,P|62:296|202:312,1,156,4|0,1:0|2:0,2:0:0:0:
156,303,116169,1,8,2:0:0:0:
425,328,116302,1,8,2:0:0:0:
346,358,116435,6,0,B|295:403|213:299|318:216,1,208,4|0,1:0|2:0,2:0:0:0:
114,211,116833,2,0,B|165:256|247:152|142:69,1,208,4|0,1:0|2:0,2:0:0:0:
391,245,117231,1,4,1:0:0:0:
74,119,117496,5,8,2:0:0:0:
233,29,117629,2,0,P|262:81|279:143,1,104,0|2,1:0|2:0,2:0:0:0:
358,66,117895,1,2,2:0:0:0:
250,313,118027,2,0,P|266:263|292:218,1,104,4|0,1:0|2:0,2:0:0:0:
406,151,118293,5,0,1:0:0:0:
177,128,118426,2,0,L|57:117,1,104,8|0,2:0|2:0,2:0:0:0:
119,359,118691,5,0,1:0:0:0:
348,336,118824,2,0,L|468:325,1,104,4|0,1:0|2:0,2:0:0:0:
261,176,119089,6,0,B|272:125|272:125|250:45,1,104,0|0,1:0|2:0,2:0:0:0:
185,237,119355,1,8,2:0:0:0:
131,20,119488,1,8,2:0:0:0:
358,63,119620,6,0,B|291:173|170:120|170:120,1,208,4|0,1:0|2:0,2:0:0:0:
10,348,120019,2,0,B|86:329|86:329|106:280|106:280|189:260,1,208,4|0,1:0|2:0,2:0:0:0:
383,266,120417,2,0,B|316:210|349:121|349:121,1,156,4|0,1:0|2:0,2:0:0:0:
348,123,120682,1,8,2:0:0:0:
445,176,120815,1,0,2:0:0:0:
347,110,120948,6,0,P|306:115|287:116,1,52,2|0,2:0|2:0,2:0:0:0:
203,202,121081,2,0,P|244:197|263:196,1,52,2|0,2:0|2:0,2:0:0:0:
420,74,121213,6,0,B|351:80|211:96|211:96,1,208,4|0,1:0|2:0,2:0:0:0:
22,93,121611,2,0,B|123:78|64:34|167:20|167:20|149:32|138:47,1,208,4|0,1:0|2:0,2:0:0:0:
360,137,122010,2,0,B|294:86|198:97|198:97,1,156,4|0,1:0|2:0,2:0:0:0:
212,96,122275,1,8,2:0:0:0:
173,173,122408,1,8,2:0:0:0:
324,52,122541,6,0,B|296:176|159:174|159:174,1,208,4|0,1:0|2:0,2:0:0:0:
326,243,122939,2,0,B|375:238|412:263|412:263|423:290|423:290|462:314|516:309,1,208,4|0,1:0|2:0,2:0:0:0:
173,173,123337,2,0,B|121:160|121:160|79:225|140:280,1,156,4|0,1:0|2:0,2:0:0:0:
119,255,123602,1,8,2:0:0:0:
303,168,123735,1,0,1:0:0:0:
239,285,123868,6,0,P|235:253|231:229,1,52,2|0,2:0|2:0,2:0:0:0:
303,168,124001,2,0,P|307:200|311:224,1,52,2|0,2:0|2:0,2:0:0:0:
227,361,124133,6,0,B|215:269|197:153|197:153,1,208,4|0,1:0|2:0,2:0:0:0:
255,74,124532,1,4,1:0:0:0:
111,222,124664,2,0,B|107:284|99:331|99:331,1,104,0|0,2:0|2:0,2:0:0:0:
34,165,124930,5,0,1:0:0:0:
212,68,125063,1,0,1:0:0:0:
88,63,125195,2,0,B|103:151|212:163|212:163,1,156,8|0,2:0|2:0,2:0:0:0:
197,160,125461,1,0,1:0:0:0:
212,68,125594,1,0,1:0:0:0:
34,165,125726,6,0,B|158:136|93:89|224:66,1,208,4|0,1:0|2:0,2:0:0:0:
486,246,126125,2,0,B|351:298|306:158|306:158,1,208,4|0,1:0|2:0,2:0:0:0:
151,360,126523,2,0,B|221:307|197:211|197:211,1,156,4|0,1:0|2:0,2:0:0:0:
198,219,126788,1,8,2:0:0:0:
289,313,126921,1,0,2:0:0:0:
196,207,127054,6,0,P|159:216|136:219,1,52,2|0,2:0|2:0,2:0:0:0:
52,299,127187,2,0,P|89:290|112:287,1,52,2|0,2:0|2:0,2:0:0:0:
280,228,127319,6,0,B|183:243|68:263|68:263,1,208,4|0,1:0|2:0,2:0:0:0:
394,361,127717,2,0,B|528:319|490:190|490:190,1,208,4|0,1:0|2:0,2:0:0:0:
420,117,128116,1,4,1:0:0:0:
420,117,128381,5,8,2:0:0:0:
214,243,128514,1,8,2:0:0:0:
284,55,128647,1,2,2:0:0:0:
284,55,128713,1,0,2:0:0:0:
284,55,128779,1,2,2:0:0:0:
284,55,128846,1,0,2:0:0:0:
284,55,128912,2,0,L|297:182,1,104,4|0,1:0|2:0,2:0:0:0:
402,206,129178,5,8,2:0:0:0:
169,100,129310,2,0,B|121:62|52:74|52:74|21:119,1,156,8|0,2:0|2:0,2:0:0:0:
83,171,129576,1,0,1:0:0:0:
352,320,129709,2,0,B|392:319|423:307|423:307|459:324|459:324|489:310|529:314,1,156,0|0,1:0|2:0,2:0:0:0:
501,313,129974,2,0,B|527:267|527:267|504:210,1,104,0|0,1:0|2:0,2:0:0:0:
143,260,130240,5,0,1:0:0:0:
143,260,130372,2,0,L|201:248,1,52,0|0,1:0|2:0,2:0:0:0:
368,208,130505,1,4,1:0:0:0:
256,192,130638,12,2,132098,2:0:0:0:
332,316,132364,5,2,2:0:0:0:
332,316,132430,1,2,2:0:0:0:
332,316,132496,1,2,2:0:0:0:
332,316,132563,1,2,2:0:0:0:
332,316,132629,2,0,L|460:326,2,120,2|2|2,2:0|2:0|2:0,2:0:0:0:
181,117,133426,2,0,L|53:127,2,120,2|2|2,2:0|2:0|2:0,2:0:0:0:
260,200,134222,6,0,B|245:130|280:155|260:75,1,120,2|2,2:0|2:0,2:0:0:0:
339,167,134620,1,2,2:0:0:0:
363,84,134752,1,2,2:0:0:0:
421,145,134885,1,2,2:0:0:0:
200,286,135018,5,2,2:0:0:0:
176,203,135151,1,2,2:0:0:0:
118,264,135283,2,0,P|61:275|-12:278,1,120,2|2,2:0|2:0,2:0:0:0:
323,286,135814,6,0,L|340:153,1,120,2|2,2:0|2:0,2:0:0:0:
422,215,136213,2,0,L|406:334,1,120,2|2,2:0|2:0,2:0:0:0:
329,368,136611,2,0,L|253:377,1,60.0000000000001,2|0,2:0|2:0,2:0:0:0:
200,291,136876,6,0,P|143:280|70:277,1,120,2|0,2:0|2:0,2:0:0:0:
223,77,137407,6,0,B|297:78|261:107|355:110,1,120,2|2,2:0|2:0,2:0:0:0:
361,136,137739,1,2,2:0:0:0:
361,136,137806,1,2,2:0:0:0:
361,136,137872,1,2,2:0:0:0:
361,136,137938,2,0,P|393:139|436:147,1,60.0000000000001,2|0,2:0|2:0,2:0:0:0:
472,67,138204,2,0,P|441:64|412:58,1,60.0000000000001,2|0,2:0|2:0,2:0:0:0:
242,168,138469,2,0,P|242:213|249:258,1,90.0000000000002,2|0,2:0|2:0,2:0:0:0:
233,156,138736,6,0,L|221:68,1,80,4|0,1:0|2:0,2:0:0:0:
161,261,139001,2,0,L|134:385,1,120,2|0,2:0|2:0,2:0:0:0:
135,378,139266,1,2,2:0:0:0:
59,352,139399,1,0,2:0:0:0:
240,313,139532,6,0,P|302:304|417:313,1,160,4|2,2:0|2:0,2:0:0:0:
470,360,139930,1,2,2:0:0:0:
476,274,140062,1,2,2:0:0:0:
398,309,140195,1,2,2:0:0:0:
161,261,140328,5,2,2:0:0:0:
155,175,140461,1,2,2:0:0:0:
233,210,140593,1,2,2:0:0:0:
233,210,140859,2,0,L|263:206,6,20,2|0|2|0|2|0|2,2:3|2:0|2:3|2:0|2:3|2:0|2:3,2:0:0:0:
83,225,141124,6,0,P|34:228|-10:237,1,80,8|0,2:0|2:0,2:0:0:0:
161,261,141390,1,2,2:0:0:0:
222,113,141523,2,0,P|280:121|364:119,1,120,8|0,2:0|2:0,2:0:0:0:
341,121,141788,5,2,2:0:0:0:
393,52,141921,1,2,2:0:0:0:
435,130,142054,1,0,1:0:0:0:
381,201,142186,2,0,L|391:306,1,80,8|0,2:0|2:0,2:0:0:0:
161,261,142452,2,0,L|147:391,1,120,4|0,2:0|2:0,2:0:0:0:
148,380,142717,6,0,P|91:357|-6:366,1,160,2|2,2:0|2:0,2:0:0:0:
267,216,143116,1,2,2:0:0:0:
267,216,143182,1,2,2:0:0:0:
267,216,143248,1,2,2:0:0:0:
315,292,143381,1,2,2:0:0:0:
384,235,143514,2,0,P|422:236|473:264,1,80,2|0,2:0|2:0,2:0:0:0:
459,252,143779,1,2,2:0:0:0:
374,61,144045,6,0,P|315:58|243:44,1,120,4|0,1:0|2:0,2:0:0:0:
255,47,144310,2,0,P|256:119|188:200,1,160,2|2,2:0|2:0,2:0:0:0:
153,120,144708,1,0,2:0:0:0:
301,203,144842,6,0,B|203:204|256:249|129:252,1,160,4|2,2:0|2:0,2:0:0:0:
96,326,145240,1,2,2:0:0:0:
182,354,145372,1,2,2:0:0:0:
79,331,145505,1,2,2:0:0:0:
151,250,145638,1,2,2:0:0:0:
65,336,145771,1,2,2:0:0:0:
182,354,145903,2,0,P|245:354|322:356,1,120,2|0,2:0|2:0,2:0:0:0:
381,306,146169,2,0,L|413:310,6,20,2|0|2|0|2|0|2,2:3|2:0|2:3|2:0|2:3|2:0|2:3,2:0:0:0:
381,306,146434,6,0,P|390:265|400:213,1,80,8|0,2:0|2:0,2:0:0:0:
311,127,146700,1,2,2:0:0:0:
306,229,146833,2,0,P|315:188|325:136,1,80,8|0,2:0|2:0,2:0:0:0:
222,69,147098,1,2,2:0:0:0:
217,162,147231,1,2,2:0:0:0:
319,42,147364,1,0,1:0:0:0:
463,98,147496,1,8,2:0:0:0:
69,119,147762,1,4,2:0:0:0:
69,119,148027,6,0,P|66:184|16:263,1,160,2|2,2:0|2:0,2:0:0:0:
375,301,148426,1,2,2:0:0:0:
375,301,148492,1,2,2:0:0:0:
375,301,148558,1,2,2:0:0:0:
283,356,148691,1,2,2:0:0:0:
226,264,148824,2,0,P|198:235|143:230,1,80,2|0,2:0|2:0,2:0:0:0:
160,226,149089,1,2,2:0:0:0:
365,40,149355,6,0,P|346:107|350:165,1,120,4|0,1:0|2:0,2:0:0:0:
349,157,149620,2,0,L|186:144,1,160,2|2,2:0|2:0,2:0:0:0:
95,150,150018,1,0,2:0:0:0:
94,369,150152,2,0,P|127:340|149:231,1,160,4|2,2:0|2:0,2:0:0:0:
182,144,150550,1,2,2:0:0:0:
238,216,150682,1,2,2:0:0:0:
148,230,150815,1,2,2:0:0:0:
241,63,150948,5,2,2:0:0:0:
327,169,151081,1,2,2:0:0:0:
189,193,151213,1,2,2:0:0:0:
480,320,151479,2,0,L|509:323,6,20,2|0|2|0|2|0|2,2:3|2:0|2:3|2:0|2:3|2:0|2:3,2:0:0:0:
480,320,151744,6,0,P|394:318|353:253,1,160,4|2,1:2|2:0,2:0:0:0:
297,191,152143,1,2,1:2:0:0:
266,279,152275,1,2,2:0:0:0:
354,262,152408,1,2,2:0:0:0:
221,131,152541,5,2,2:0:0:0:
172,260,152674,1,2,2:0:0:0:
306,242,152806,1,2,2:0:0:0:
53,147,153072,6,0,P|53:113|57:59,1,80,2|2,2:3|2:3,2:0:0:0:
349,93,153337,1,8,2:0:0:0:
56,67,153868,6,0,P|31:144|27:242,1,160,4|0,1:0|2:0,2:0:0:0:
125,154,154266,2,0,B|222:143|178:192|300:173,1,160,8|0,2:0|2:0,2:0:0:0:
365,159,154664,1,0,2:0:0:0:
365,159,154797,1,0,2:0:0:0:
245,87,154929,2,0,P|307:76|346:64,1,80,0|0,1:0|2:0,2:0:0:0:
147,236,155196,6,0,P|70:262|-8:301,1,160,4|0,2:0|2:0,2:0:0:0:
337,222,155594,2,0,P|343:278|353:323,1,80,8|0,2:0|2:0,2:0:0:0:
244,266,155859,2,0,P|250:210|260:165,1,80,0|0,2:0|2:0,2:0:0:0:
166,328,156125,1,8,2:0:0:0:
432,267,156257,6,0,B|450:216|450:216|435:170|435:170|457:90,2,160,0|4|8,1:0|2:0|2:0,2:0:0:0:
107,94,157054,1,0,2:0:0:0:
104,184,157187,1,0,2:0:0:0:
104,184,157253,1,0,2:0:0:0:
104,184,157319,2,0,P|60:195|3:196,1,80,8|8,2:0|2:0,2:0:0:0:
178,150,157585,6,0,B|274:158|218:204|343:209,1,160,4|0,1:0|2:0,2:0:0:0:
374,350,157983,2,0,L|395:257,1,80,8|0,2:0|2:0,2:0:0:0:
303,291,158248,1,0,2:0:0:0:
461,328,158381,1,0,2:0:0:0:
407,192,158514,1,0,2:0:0:0:
185,233,158646,6,0,P|91:249|4:284,1,160,4|0,1:0|2:0,2:0:0:0:
30,271,159045,1,0,2:0:0:0:
262,158,159177,2,0,P|324:127|372:80,1,120,4|0,2:0|2:0,2:0:0:0:
361,93,159443,1,0,2:0:0:0:
271,251,159576,2,0,P|291:308|302:358,1,80,8|0,2:0|2:0,2:0:0:0:
192,109,159841,5,0,2:0:0:0:
192,109,159974,1,0,2:0:0:0:
124,48,160107,1,8,2:0:0:0:
109,135,160239,2,0,L|95:216,1,80,0|0,1:0|2:0,2:0:0:0:
263,160,160505,6,0,L|413:134,1,120,4|0,2:0|2:0,2:0:0:0:
381,139,160770,1,8,2:0:0:0:
98,302,161036,5,0,2:0:0:0:
17,282,161169,1,2,2:3:0:0:
17,282,161235,1,2,2:3:0:0:
17,282,161301,2,0,L|9:195,1,80,8|8,2:0|2:0,2:0:0:0:
161,235,161567,6,0,P|241:256|327:321,1,160,4|0,1:0|1:0,2:0:0:0:
262,182,161965,2,0,P|237:257|189:321,1,160,8|0,2:0|2:0,2:0:0:0:
351,221,162363,1,0,2:0:0:0:
351,221,162496,1,0,2:0:0:0:
186,147,162628,6,0,P|182:108|170:60,1,80,4|0,1:0|2:0,2:0:0:0:
146,231,162895,2,0,B|106:239|84:266|84:266|81:280|81:280|57:307|5:311,1,160,4|0,2:0|2:0,2:0:0:0:
304,298,163293,2,0,L|500:317,1,160,8|0,2:0|2:0,2:0:0:0:
463,313,163691,1,0,2:0:0:0:
224,288,163824,1,8,2:0:0:0:
224,288,163956,5,0,1:0:0:0:
443,222,164222,2,0,P|462:163|465:84,1,120,4|0,2:0|2:0,2:0:0:0:
466,105,164487,6,0,P|391:82|319:5,1,160,8|0,2:0|2:0,2:0:0:0:
218,198,164886,1,2,2:3:0:0:
218,198,164952,1,2,2:3:0:0:
218,198,165018,2,0,P|165:219|127:242,1,80,8|8,2:0|2:0,2:0:0:0:
32,90,165284,6,0,L|220:107,1,160,4|0,1:0|2:0,2:0:0:0:
287,117,165682,1,8,2:0:0:0:
287,117,165947,1,0,2:0:0:0:
223,178,166080,1,0,2:0:0:0:
250,34,166213,1,0,2:0:0:0:
305,207,166345,6,0,P|326:251|339:287,1,80,4|0,1:0|2:0,2:0:0:0:
246,272,166611,1,0,2:0:0:0:
401,201,166744,1,0,2:0:0:0:
410,375,166876,6,0,P|444:321|477:228,1,160,4|0,2:0|2:0,2:0:0:0:
223,178,167275,2,0,B|133:184|180:227|39:222,1,160,8|0,2:0|2:0,2:0:0:0:
220,262,167673,1,0,2:0:0:0:
220,262,167806,2,0,L|275:255,1,40,8|0,2:0|2:0,2:0:0:0:
135,307,167938,6,0,P|95:305|56:308,1,80,0|0,1:0|2:0,2:0:0:0:
102,132,168204,2,0,L|97:104,8,20,2|0|2|0|2|0|2|0|8,2:3|2:0|2:3|2:0|2:3|2:0|2:3|2:0|2:0,2:0:0:0:
346,323,168735,2,0,L|338:225,1,80,0|0,1:0|2:0,2:0:0:0:
247,355,169000,2,0,L|257:261,1,80,0|0,1:0|2:0,2:0:0:0:
339,243,169267,6,0,L|480:257,1,120,4|0,1:0|2:0,2:0:0:0:
482,170,169665,1,2,2:0:0:0:
482,170,169930,1,0,2:0:0:0:
354,91,170063,1,2,2:0:0:0:
441,62,170196,1,0,1:0:0:0:
272,148,170328,2,0,P|257:107|255:13,1,120,10|0,2:0|2:0,2:0:0:0:
78,111,170727,1,0,2:0:0:0:
155,147,170859,6,0,P|169:179|170:211,2,60.0000000000001,0|0|0,1:0|2:0|2:0,2:0:0:0:
67,356,171258,2,0,P|43:335|61:244,1,120,0|0,1:0|2:0,2:0:0:0:
49,254,171590,1,0,2:0:0:0:
49,254,171656,1,0,2:0:0:0:
146,295,171789,1,0,2:0:0:0:
278,112,171921,1,8,2:0:0:0:
278,112,172187,1,0,2:0:0:0:
369,124,172320,1,0,2:0:0:0:
357,215,172452,6,0,P|353:255|350:298,1,60.0000000000001,0|0,1:0|2:0,2:0:0:0:
404,341,172718,1,0,2:0:0:0:
472,224,172851,2,0,P|479:174|483:94,1,120,0|4,1:0|2:0,2:0:0:0:
233,74,173249,1,0,2:0:0:0:
321,39,173382,1,8,2:0:0:0:
309,134,173514,5,8,2:0:0:0:
472,224,173647,1,0,1:0:0:0:
315,338,173780,1,0,1:0:0:0:
315,338,174045,6,0,B|375:352|375:352|435:319,1,120,0|0,1:0|2:0,2:0:0:0:
211,189,174443,2,0,B|151:175|151:175|91:208,1,120,0|0,1:0|2:0,2:0:0:0:
426,323,174842,2,0,L|410:192,1,120,0|0,1:0|2:0,2:0:0:0:
100,203,175240,2,0,L|86:323,1,120,0|0,1:0|2:0,2:0:0:0:
86,323,175572,1,0,2:0:0:0:
86,323,175638,1,4,1:0:0:0:
323,82,176036,6,0,B|397:78|377:108|459:97,1,120,2|2,2:0|2:0,2:0:0:0:
236,49,176700,1,2,2:0:0:0:
236,49,177231,6,0,P|227:82|221:173,2,120,2|0|0,2:0|2:0|2:0,2:0:0:0:
120,220,178293,1,0,2:0:0:0:
77,126,178559,2,0,L|45:123,2,20,0|0|0,2:0|2:0|2:0,2:0:0:0:
120,220,178824,6,0,P|111:277|87:349,1,120,4|0,1:2|2:0,2:0:0:0:
210,233,179222,1,2,2:0:0:0:
210,233,179488,1,0,2:0:0:0:
146,80,179620,1,2,2:0:0:0:
186,316,179753,1,0,1:0:0:0:
307,143,179886,1,10,2:0:0:0:
307,143,180151,6,0,L|387:157,1,60.0000000000001,0|0,2:0|2:0,2:0:0:0:
447,165,180417,1,0,1:0:0:0:
415,88,180550,1,0,2:0:0:0:
460,167,180682,1,0,2:0:0:0:
394,239,180815,2,0,L|411:363,1,120,0|0,1:0|2:0,2:0:0:0:
496,373,181213,1,2,2:0:0:0:
496,373,181346,1,0,2:0:0:0:
320,320,181479,5,10,2:0:0:0:
339,57,181744,1,2,2:0:0:0:
339,57,181877,1,2,2:0:0:0:
284,124,182010,2,0,P|267:167|256:198,1,60.0000000000001,4|0,1:0|2:0,2:0:0:0:
76,244,182275,1,0,2:0:0:0:
21,177,182408,2,0,P|4:134|-7:103,1,60.0000000000001,2|0,2:0|2:0,2:0:0:0:
104,163,182674,1,0,2:0:0:0:
86,257,182806,1,0,1:0:0:0:
123,160,182939,1,0,2:0:0:0:
144,339,183072,5,8,2:0:0:0:
144,339,183205,1,0,1:0:0:0:
56,354,183337,1,0,1:0:0:0:
368,339,183603,2,0,P|366:307|359:257,1,60.0000000000001,0|0,1:0|2:0,2:0:0:0:
456,354,183868,1,0,2:0:0:0:
442,268,184001,2,0,P|449:203|464:140,1,120,0|0,1:0|2:0,2:0:0:0:
279,318,184399,2,0,L|181:336,1,90.0000000000002,0|0,2:0|2:0,2:0:0:0:
190,334,184665,5,8,2:0:0:0:
378,107,184930,1,0,1:0:0:0:
85,54,185196,2,0,P|92:109|96:139,1,60.0000000000001,0|0,1:0|2:0,2:0:0:0:
6,98,185461,1,0,2:0:0:0:
186,28,185594,2,0,P|182:92|174:169,1,120,0|0,1:0|2:0,2:0:0:0:
109,194,185992,1,2,2:0:0:0:
267,105,186125,1,0,2:0:0:0:
109,194,186258,6,0,L|65:205,1,30.0000000000001,8|0,2:0|2:0,2:0:0:0:
254,193,186390,2,0,L|284:186,1,30.0000000000001,2|0,2:0|2:0,2:0:0:0:
141,270,186523,2,0,L|240:279,1,90.0000000000002,2|0,2:0|2:0,2:0:0:0:
230,278,186789,6,0,B|304:274|272:301|356:297,1,120,0|0,1:0|2:0,2:0:0:0:
244,360,187187,2,0,L|107:368,1,120,0|0,1:0|2:0,2:0:0:0:
333,380,187585,1,2,2:0:0:0:
370,109,187851,2,0,L|352:215,1,90.0000000000002,8|0,2:0|2:0,2:0:0:0:
354,197,188116,2,0,P|359:245|363:280,2,60.0000000000001,4|0|0,2:0|2:0|2:0,2:0:0:0:
58,260,188647,6,0,P|99:278|155:273,1,90.0000000000002,4|0,1:0|2:0,2:0:0:0:
454,124,188913,2,0,P|413:106|368:107,1,90.0000000000002,4|0,1:0|2:0,2:0:0:0:
143,276,189178,2,0,P|186:265|221:237,1,90.0000000000002,4|0,1:0|2:0,2:0:0:0:
370,109,189443,2,0,P|326:118|291:146,1,90.0000000000002,4|0,1:0|2:0,2:0:0:0:
291,146,189709,5,8,2:0:0:0:
235,70,189842,1,8,2:0:0:0:
306,236,189974,1,0,1:0:0:0:
207,158,190107,2,0,L|124:170,1,60.0000000000001,0|0,2:0|2:0,2:0:0:0:
248,314,190373,2,0,L|382:325,1,120,0|0,1:0|2:0,2:0:0:0:
166,307,190771,1,0,1:0:0:0:
166,307,190904,1,0,2:0:0:0:
453,332,191036,5,8,2:0:0:0:
428,44,191302,2,0,P|432:79|435:103,1,60.0000000000001,0|0,1:0|2:0,2:0:0:0:
356,84,191567,2,0,L|217:65,1,120,0|0,1:0|2:0,2:0:0:0:
33,97,191966,2,0,L|152:114,1,120,0|0,1:0|2:0,2:0:0:0:
163,26,192364,1,0,2:0:0:0:
230,156,192497,5,8,2:0:0:0:
148,203,192629,1,8,2:0:0:0:
237,67,192762,1,0,1:0:0:0:
231,254,192895,1,0,1:0:0:0:
64,162,193028,1,0,1:0:0:0:
50,251,193160,6,0,B|243:227|149:328|368:309,1,320,4|4,1:0|2:3,2:0:0:0:
424,352,194488,2,0,P|430:320|433:284,1,60,0|0,2:0|2:0,2:0:0:0:
264,178,194753,6,0,B|226:149|221:73|278:29|336:74|318:118,1,208,4|0,1:0|2:0,2:0:0:0:
432,292,195151,2,0,B|303:250|395:216|251:174,1,208,4|0,1:0|2:0,2:0:0:0:
27,226,195550,2,0,L|200:210,1,156,4|0,1:0|2:0,2:0:0:0:
319,116,195815,2,0,L|146:132,1,156,8|0,2:0|2:0,2:0:0:0:
163,130,196081,1,10,2:0:0:0:
261,260,196213,1,10,2:0:0:0:
319,116,196346,6,0,B|463:139|431:279|431:279,1,208,4|0,1:0|2:0,2:0:0:0:
427,51,196744,1,4,1:0:0:0:
202,153,196877,2,0,B|204:104|190:38|190:38,1,104,0|0,2:0|2:0,2:0:0:0:
295,219,197143,2,0,B|256:306|164:273|164:273,1,156,4|0,1:0|2:0,2:0:0:0:
164,273,197408,1,8,2:0:0:0:
80,229,197541,1,8,2:0:0:0:
277,348,197676,6,0,B|189:242|71:323|71:323,1,208,4|0,1:0|2:0,2:0:0:0:
36,160,198074,2,0,L|69:40,2,104,4|0|0,1:0|2:0|2:0,2:0:0:0:
272,229,198472,2,0,B|374:246|377:364|377:364,1,156,4|0,1:0|2:0,2:0:0:0:
372,334,198737,1,8,2:0:0:0:
453,254,198870,1,0,1:0:0:0:
258,329,199003,6,0,L|199:336,1,52,2|0,2:0|2:0,2:0:0:0:
378,151,199136,2,0,L|437:144,1,52,2|0,2:0|2:0,2:0:0:0:
377,339,199268,6,0,L|171:365,1,208,4|0,1:0|2:0,2:0:0:0:
47,231,199667,2,0,B|40:173|97:124|153:137|153:137|176:194,1,208,4|0,1:0|2:0,2:0:0:0:
161,261,200065,1,8,2:0:0:0:
205,64,200198,1,8,2:0:0:0:
389,104,200330,2,0,B|326:112|326:112|303:136|303:136|242:146,1,156,8|0,2:0|2:0,2:0:0:0:
244,145,200596,1,0,1:0:0:0:
205,64,200729,1,0,1:0:0:0:
248,236,200861,6,0,B|241:190|255:145|255:145|282:126|282:126|292:92|283:38,1,208,4|0,1:0|2:0,2:0:0:0:
353,198,201260,2,0,B|361:257|332:305|332:305,2,104,4|0|0,1:0|2:0|2:0,2:0:0:0:
98,250,201658,2,0,B|168:201|260:240|260:240,1,156,4|0,1:0|2:0,2:0:0:0:
247,235,201923,1,8,2:0:0:0:
109,76,202056,1,0,2:0:0:0:
218,80,202189,6,0,L|206:149,1,52,2|0,2:0|2:0,2:0:0:0:
98,250,202322,2,0,L|110:181,1,52,2|0,2:0|2:0,2:0:0:0:
252,10,202454,6,0,L|213:227,1,208,4|0,1:0|2:0,2:0:0:0:
430,348,202852,2,0,B|477:313|476:242|476:242,2,104,4|0|0,1:0|2:0|2:0,2:0:0:0:
328,111,203251,2,0,B|393:163|371:261|371:261,1,156,4|0,1:0|2:0,2:0:0:0:
372,253,203516,1,8,2:0:0:0:
306,326,203649,1,8,2:0:0:0:
452,127,203782,6,0,B|391:249|269:189|269:189,1,208,4|0,1:0|2:0,2:0:0:0:
110,99,204180,2,0,B|171:-23|293:37|293:37,1,208,4|0,1:0|2:0,2:0:0:0:
371,86,204578,1,4,1:0:0:0:
328,348,204843,6,0,L|440:339,1,104,8|0,2:0|1:0,2:0:0:0:
188,296,205109,2,0,L|76:305,1,104,2|2,2:0|2:0,2:0:0:0:
84,305,205308,1,0,2:0:0:0:
84,305,205374,2,0,L|67:195,1,104,4|0,1:0|2:0,2:0:0:0:
249,82,205640,1,8,2:0:0:0:
159,47,205773,2,0,B|102:134|187:191|187:191,1,156,8|0,2:0|2:0,2:0:0:0:
180,185,206038,1,8,2:0:0:0:
493,189,206171,6,0,L|322:184,1,156,4|0,1:0|2:0,2:0:0:0:
101,223,206436,2,0,L|272:228,1,156,0|0,1:0|2:0,2:0:0:0:
256,227,206702,1,8,2:0:0:0:
316,328,206835,1,8,2:0:0:0:
442,170,206967,6,0,B|479:141|484:65|427:21|369:66|387:110,1,208,4|0,1:0|2:0,2:0:0:0:
316,328,207366,2,0,B|416:255|334:226|450:165,1,208,4|0,1:0|2:0,2:0:0:0:
247,25,207764,2,0,B|229:120|309:159|309:159,1,156,4|0,1:0|2:0,2:0:0:0:
306,158,208029,1,8,2:0:0:0:
333,53,208162,1,0,2:0:0:0:
357,235,208295,6,0,L|408:241,1,52,2|0,2:0|2:0,2:0:0:0:
448,156,208428,2,0,L|397:150,1,52,2|0,2:0|2:0,2:0:0:0:
332,369,208560,6,0,L|309:149,1,208,4|0,1:0|2:0,2:0:0:0:
313,61,208958,2,0,B|373:67|405:109|405:109,2,104,4|0|0,1:0|2:0|2:0,2:0:0:0:
94,204,209357,2,0,B|194:215|223:133|223:133,1,156,4|0,1:0|2:0,2:0:0:0:
221,135,209622,1,8,2:0:0:0:
198,57,209755,1,8,2:0:0:0:
224,246,209888,6,0,B|131:171|199:54|199:54,1,208,4|0,1:0|2:0,2:0:0:0:
497,109,210286,2,0,B|429:230|312:162|312:162,1,208,4|0,1:0|2:0,2:0:0:0:
81,285,210684,2,0,B|137:218|232:248|232:248,1,156,4|0,1:0|2:0,2:0:0:0:
223,245,210949,1,8,2:0:0:0:
304,297,211082,1,0,1:0:0:0:
304,165,211215,6,0,L|243:172,1,52,2|0,2:0|2:0,2:0:0:0:
163,347,211348,2,0,L|224:340,1,52,2|0,2:0|2:0,2:0:0:0:
381,199,211480,6,0,L|147:187,1,208,4|0,1:0|2:0,2:0:0:0:
374,332,211879,2,0,L|488:339,2,104,4|0|0,1:0|2:0|2:0,2:0:0:0:
264,361,212277,1,0,1:0:0:0:
174,106,212542,2,0,L|193:231,1,104,8|0,2:0|2:0,2:0:0:0:
132,22,212808,1,0,1:0:0:0:
93,235,212941,1,8,2:0:0:0:
261,101,213073,6,0,B|170:113|170:113|155:141|155:141|71:154,1,208,4|0,1:0|2:0,2:0:0:0:
398,329,213472,2,0,B|528:283|480:153|480:153,1,208,4|0,1:0|2:0,2:0:0:0:
415,97,213870,1,4,1:0:0:0:
89,328,214135,5,8,2:0:0:0:
201,251,214268,1,0,2:0:0:0:
155,124,214401,1,2,2:0:0:0:
270,49,214534,1,2,2:0:0:0:
270,49,214600,1,0,2:0:0:0:
270,49,214666,2,0,P|334:55|377:60,2,104,4|0|0,1:0|2:0|2:0,2:0:0:0:
104,237,215064,2,0,B|1:167|59:49|59:49,1,208,4|0,1:0|2:0,2:0:0:0:
165,93,215463,1,4,1:0:0:0:
402,239,215728,6,0,L|393:358,1,104,8|0,2:0|2:0,2:0:0:0:
424,139,215994,1,0,2:0:0:0:
498,289,216126,1,0,2:0:0:0:
291,341,216259,6,0,B|282:293|282:293|305:248|305:248|296:187,1,156,4|0,1:0|2:0,2:0:0:0:
296,191,216525,1,8,2:0:0:0:
162,203,216657,1,0,2:0:0:0:
152,348,216790,2,0,B|100:352|40:360|40:360,1,104,8|0,2:0|2:0,2:0:0:0:
250,156,217056,5,0,2:0:0:0:
89,260,217188,1,8,2:0:0:0:
89,260,217255,1,0,2:0:0:0:
89,260,217321,1,0,2:0:0:0:
77,57,217454,1,0,1:0:0:0:
137,152,217587,5,8,2:0:0:0:
361,130,217719,1,0,2:0:0:0:
361,130,217786,1,0,2:0:0:0:
361,130,217852,2,0,P|383:182|366:231,1,104,4|0,1:0|2:0,2:0:0:0:
103,315,218118,1,2,2:3:0:0:
112,309,218184,1,2,2:3:0:0:
121,304,218250,1,2,2:3:0:0:
130,299,218317,1,2,2:3:0:0:
139,294,218383,6,0,L|260:306,1,104,8|0,2:0|1:0,2:0:0:0:
399,112,218649,5,0,1:0:0:0:
399,112,218781,1,0,2:0:0:0:
498,227,218914,1,0,1:0:0:0:
498,227,219047,1,0,2:0:0:0:
376,327,219180,1,0,1:0:0:0:
376,327,219312,2,0,L|317:332,1,52,0|0,1:0|2:0,2:0:0:0:
109,215,219445,6,0,B|197:249|198:365|111:366|142:284,1,208,4|0,1:0|2:0,2:0:0:0:
251,0,219843,2,0,P|207:57|218:203,1,208,4|0,1:0|2:0,2:0:0:0:
252,264,220241,2,0,L|437:286,1,156,4|0,1:0|2:0,2:0:0:0:
209,187,220507,2,0,L|54:168,1,156,8|0,2:0|2:0,2:0:0:0:
54,168,220772,5,10,2:0:0:0:
302,187,220905,1,10,2:0:0:0:
106,49,221038,6,0,B|226:33|186:101|330:85,1,208,4|0,1:0|2:0,2:0:0:0:
146,129,221436,1,4,1:0:0:0:
383,48,221569,2,0,P|404:100|394:170,1,104,0|0,2:0|2:0,2:0:0:0:
263,328,221834,2,0,P|263:241|335:166,1,156,4|0,1:0|2:0,2:0:0:0:
301,186,222100,5,8,2:0:0:0:
349,268,222233,1,8,2:0:0:0:
205,171,222364,6,0,B|160:139|103:142|63:185|63:185|101:229,1,208,4|0,1:0|2:0,2:0:0:0:
349,268,222762,2,0,B|394:300|451:297|491:254|491:254|453:210,1,208,4|0,1:0|2:0,2:0:0:0:
168,300,223160,2,0,L|46:317,1,104,4|0,1:0|2:0,2:0:0:0:
275,107,223425,5,8,2:0:0:0:
263,328,223558,1,0,1:0:0:0:
84,172,223691,6,0,L|96:223,1,52,2|0,2:0|2:0,2:0:0:0:
185,304,223824,2,0,L|173:253,1,52,2|0,2:0|2:0,2:0:0:0:
13,61,223956,6,0,P|96:42|159:145,1,208,4|0,1:0|2:0,2:0:0:0:
263,328,224355,1,4,1:0:0:0:
348,319,224487,2,0,L|473:307,1,104,0|0,2:0|2:0,2:0:0:0:
424,65,224753,5,0,1:0:0:0:
457,215,224886,1,8,2:0:0:0:
344,36,225018,2,0,P|305:86|293:144,1,104,8|0,2:0|2:0,2:0:0:0:
457,215,225284,5,0,1:0:0:0:
358,342,225417,1,0,1:0:0:0:
217,169,225549,6,0,B|173:151|124:171|124:171|115:182|115:182|64:204|-6:175,1,208,4|0,1:0|2:0,2:0:0:0:
173,241,225948,1,4,1:0:0:0:
73,104,226080,2,0,P|151:78|197:85,1,104,0|0,2:0|2:0,2:0:0:0:
173,241,226346,2,0,P|104:273|3:264,1,156,4|0,1:0|2:0,2:0:0:0:
25,271,226611,1,8,2:0:0:0:
57,359,226744,1,0,2:0:0:0:
173,241,226877,6,0,L|173:303,1,52,2|0,2:0|2:0,2:0:0:0:
192,366,227010,2,0,L|192:304,1,52,2|0,2:0|2:0,2:0:0:0:
409,315,227142,6,0,P|337:340|376:245,1,208,4|0,1:0|2:0,2:0:0:0:
486,371,227540,1,4,1:0:0:0:
414,186,227673,2,0,P|368:164|310:165,1,104,0|0,2:0|2:0,2:0:0:0:
59,121,227939,6,0,B|156:116|110:165|226:152,1,156,4|0,1:0|2:0,2:0:0:0:
207,153,228204,1,8,2:0:0:0:
325,73,228337,1,8,2:0:0:0:
480,250,228470,6,0,B|549:134|453:50|453:50,1,208,4|0,1:0|2:0,2:0:0:0:
506,337,228868,1,4,1:0:0:0:
388,237,229000,2,0,B|380:299|427:342|427:342,1,104,0|0,2:0|2:0,2:0:0:0:
192,239,229266,2,0,L|2:226,1,156,4|0,1:0|2:0,2:0:0:0:
36,228,229531,1,8,2:0:0:0:
276,249,229664,1,0,1:0:0:0:
129,190,229797,6,0,L|139:139,1,52,2|0,2:0|2:0,2:0:0:0:
113,267,229930,2,0,L|104:319,1,52,2|0,2:0|2:0,2:0:0:0:
70,77,230062,6,0,P|131:54|176:62,1,104,4|0,1:0|2:0,2:0:0:0:
177,63,230262,1,0,2:0:0:0:
186,67,230328,1,0,1:0:0:0:
277,30,230461,1,8,2:0:0:0:
409,370,230726,5,0,1:0:0:0:
358,299,230859,2,0,B|373:238|373:238|362:217|362:217|375:141,1,156,4|0,1:0|2:0,2:0:0:0:
448,5,231124,2,0,B|463:66|463:66|452:87|452:87|465:163,1,156,0|0,1:0|2:0,2:0:0:0:
463,155,231390,1,8,2:0:0:0:
279,205,231523,1,8,2:0:0:0:
441,340,231655,6,0,B|325:277|254:384|254:384,1,208,4|0,1:0|2:0,2:0:0:0:
25,222,232054,2,0,B|101:241|101:241|121:290|121:290|204:310,1,208,4|0,1:0|2:0,2:0:0:0:
324,68,232452,2,0,P|277:127|282:213,1,156,4|0,1:0|2:0,2:0:0:0:
278,204,232717,1,8,2:0:0:0:
189,183,232850,1,0,2:0:0:0:
406,149,232983,6,0,P|380:152|354:154,1,52,2|0,2:0|2:0,2:0:0:0:
153,275,233116,2,0,P|179:271|205:269,1,52,2|0,2:0|2:0,2:0:0:0:
284,295,233248,6,0,B|287:295|147:311|78:317,1,208,4|0,1:0|2:0,2:0:0:0:
29,82,233646,2,0,B|66:136|72:217|72:217|119:130,1,208,4|0,1:0|2:0,2:0:0:0:
273,33,234045,2,0,B|287:33|191:22|125:73,1,156,4|0,1:0|2:0,2:0:0:0:
127,72,234310,1,8,2:0:0:0:
196,141,234443,1,8,2:0:0:0:
284,272,234576,6,0,B|312:148|449:150|449:150,1,208,4|0,1:0|2:0,2:0:0:0:
203,232,234974,2,0,B|154:237|117:212|117:212|106:185|106:185|67:161|13:166,1,208,4|0,1:0|2:0,2:0:0:0:
293,27,235372,2,0,B|260:57|260:57|245:130|323:161,1,156,4|0,1:0|2:0,2:0:0:0:
302,151,235637,1,8,2:0:0:0:
169,104,235770,1,0,1:0:0:0:
293,27,235903,6,0,P|297:59|301:83,1,52,2|0,2:0|2:0,2:0:0:0:
203,232,236036,2,0,P|199:200|195:176,1,52,2|0,2:0|2:0,2:0:0:0:
310,24,236168,6,0,B|322:116|340:232|340:232,1,208,4|0,1:0|2:0,2:0:0:0:
292,362,236567,1,4,1:0:0:0:
412,167,236699,2,0,B|416:105|424:58|424:58,1,104,0|0,2:0|2:0,2:0:0:0:
487,203,236965,5,8,2:0:0:0:
216,327,237098,1,8,2:0:0:0:
406,272,237230,2,0,P|340:248|236:254,1,156,0|0,1:0|2:0,2:0:0:0:
255,249,237496,1,0,1:0:0:0:
291,155,237629,1,0,1:0:0:0:
93,256,237761,6,0,B|217:227|152:180|283:157,1,208,4|0,1:0|2:0,2:0:0:0:
230,16,238160,2,0,B|86:30|109:176|109:176,1,208,4|0,1:0|2:0,2:0:0:0:
353,357,238558,2,0,B|269:338|253:244|253:244,1,156,4|0,1:0|2:0,2:0:0:0:
254,248,238823,1,8,2:0:0:0:
214,149,238956,1,0,2:0:0:0:
309,179,239089,6,0,P|346:170|369:167,1,52,2|0,2:0|2:0,2:0:0:0:
174,239,239222,2,0,P|137:248|114:251,1,52,2|0,2:0|2:0,2:0:0:0:
288,98,239354,6,0,B|385:83|500:63|500:63,1,208,4|0,1:0|2:0,2:0:0:0:
214,149,239752,2,0,B|117:164|2:184|2:184,1,208,4|0,1:0|2:0,2:0:0:0:
292,187,240151,1,4,1:0:0:0:
295,192,240416,5,8,2:0:0:0:
213,53,240549,1,8,2:0:0:0:
220,289,240682,6,0,L|226:220,1,52,2|0,2:0|2:0,2:0:0:0:
300,34,240814,2,0,L|295:85,1,52,2|0,2:0|2:0,2:0:0:0:
150,217,240947,6,0,B|88:142|1:186|1:186,1,156,4|0,1:0|2:0,2:0:0:0:
12,260,241213,2,0,P|41:260|85:233,1,52,8|0,2:0|2:0,2:0:0:0:
371,146,241345,6,0,B|433:71|520:115|520:115,1,156,8|0,2:0|2:0,2:0:0:0:
509,189,241611,2,0,P|480:189|436:162,1,52,0|0,1:0|2:0,2:0:0:0:
213,53,241744,6,0,P|229:156|232:222,1,156,0|0,1:0|2:0,2:0:0:0:
313,212,242009,2,0,P|297:315|294:381,1,156,0|0,1:0|2:0,2:0:0:0:
294,366,242275,5,0,1:0:0:0:
231,207,242407,1,0,1:0:0:0:
295,48,242540,1,4,1:0:0:0:
256,192,242673,12,2,244133,2:0:0:0:
61,206,244399,5,2,2:0:0:0:
27,130,244531,1,2,2:0:0:0:
61,206,244664,2,0,P|104:223|133:219,1,60.0000000000001,2|0,2:0|2:0,2:0:0:0:
197,183,244929,1,2,2:0:0:0:
197,183,245195,2,0,P|215:236|213:303,1,120,2|2,2:0|2:0,2:0:0:0:
451,44,245726,5,2,2:0:0:0:
295,76,245991,1,2,2:0:0:0:
349,233,246257,1,2,2:0:0:0:
224,204,246522,1,2,2:0:0:0:
203,317,246788,1,2,2:0:0:0:
203,317,247054,6,0,P|141:316|108:327,1,90.0000000000002,2|0,2:0|2:0,2:0:0:0:
114,324,247319,2,0,P|111:286|120:253,1,60.0000000000001,2|2,2:0|2:0,2:0:0:0:
155,195,247584,2,0,P|160:158|143:69,2,120,2|2|2,2:0|2:0|2:0,2:0:0:0:
74,31,248382,5,2,2:0:0:0:
265,53,248647,1,2,2:0:0:0:
188,191,248912,1,2,2:0:0:0:
325,202,249178,1,2,2:0:0:0:
306,311,249443,1,2,2:0:0:0:
373,48,249709,6,0,L|453:39,1,60.0000000000001,2|0,2:0|2:0,2:0:0:0:
474,116,249974,2,0,L|394:125,1,60.0000000000001,2|0,2:0|2:0,2:0:0:0:
331,123,250240,1,2,2:0:0:0:
331,123,250505,1,2,2:0:0:0:
33,287,250771,6,0,B|98:281|98:281|122:293|122:293|197:286,1,160,4|2,1:0|2:0,2:0:0:0:
275,200,251169,1,10,2:0:0:0:
189,287,251301,2,0,P|176:259|184:200,1,80,2|0,2:0|2:0,2:0:0:0:
385,191,251567,2,0,P|334:215|261:188,1,120,2|0,2:0|2:0,2:0:0:0:
275,200,251832,2,0,B|293:241|283:273|283:273|274:284|274:284|269:319|285:358,1,160,6|2,2:0|2:0,2:0:0:0:
115,167,252363,6,0,P|152:165|197:152,1,80,0|0,1:0|2:0,2:0:0:0:
275,200,252629,1,2,2:0:0:0:
283,105,252762,1,0,2:0:0:0:
389,264,252894,2,0,P|352:266|307:279,1,80,10|0,2:0|2:0,2:0:0:0:
97,322,253160,2,0,P|132:325|215:348,1,120,2|0,2:0|2:0,2:0:0:0:
213,347,253425,2,0,P|221:306|231:256,1,80,6|0,2:0|2:0,2:0:0:0:
312,181,253691,6,0,P|318:135|344:21,1,160,2|2,2:0|2:0,2:0:0:0:
410,99,254089,1,10,2:0:0:0:
197,246,254221,5,2,2:0:0:0:
186,162,254354,1,0,1:0:0:0:
172,78,254487,2,0,L|166:30,2,40,2|0|0,2:0|2:0|2:0,2:0:0:0:
365,276,254752,2,0,P|415:283|450:284,1,80,6|0,2:0|2:0,2:0:0:0:
285,321,255019,6,0,P|235:326|121:332,1,160,2|0,2:0|1:0,2:0:0:0:
365,276,255417,1,2,2:0:0:0:
273,233,255549,1,2,2:0:0:0:
365,187,255682,1,2,2:0:0:0:
256,144,255815,2,0,P|205:143|169:158,1,80,10|0,2:0|2:0,2:0:0:0:
97,209,256080,2,0,P|87:184|88:80,1,120,6|0,2:0|2:0,2:0:0:0:
84,92,256346,1,2,2:0:0:0:
292,327,256611,6,0,B|390:316|343:366|485:347,1,160,4|2,1:0|2:0,2:0:0:0:
207,361,257010,2,0,P|205:320|214:274,1,80,10|2,2:0|2:0,2:0:0:0:
211,281,257275,1,0,2:0:0:0:
115,318,257408,2,0,P|117:277|108:231,1,80,10|0,2:0|2:0,2:0:0:0:
297,243,257673,2,0,P|315:177|363:96,1,160,6|2,2:0|2:0,2:0:0:0:
116,83,258204,5,0,1:0:0:0:
262,35,258470,1,2,2:0:0:0:
276,116,258603,1,0,2:0:0:0:
200,86,258735,1,10,2:0:0:0:
467,62,259001,2,0,P|458:121|454:163,1,80,2|0,2:0|2:0,2:0:0:0:
361,98,259266,2,0,P|372:174|380:233,1,120,6|0,2:0|2:0,2:0:0:0:
377,216,259532,1,2,2:0:0:0:
129,361,259797,5,2,2:0:0:0:
68,298,259930,1,10,2:0:0:0:
105,218,260062,1,2,2:0:0:0:
41,156,260195,1,0,1:0:0:0:
69,72,260328,1,10,2:0:0:0:
69,72,260394,2,0,P|119:57|177:50,1,80,0|0,2:0|2:0,2:0:0:0:
158,135,260593,2,0,P|224:146|296:136,1,120,6|0,2:0|2:0,2:0:0:0:
276,140,260859,6,0,B|368:143|321:182|447:185,2,160,2|0|2,2:0|1:0|2:0,2:0:0:0:
408,98,261522,1,0,2:0:0:0:
294,227,261655,2,0,P|298:286|307:336,1,80,10|0,2:0|2:0,2:0:0:0:
180,118,261920,6,0,P|184:59|201:-14,1,120,6|0,2:0|2:0,2:0:0:0:
112,167,262186,1,2,2:0:0:0:
112,167,262451,2,0,P|116:226|133:299,1,120,6|0,2:0|2:0,2:0:0:0:
44,118,262717,1,2,2:0:0:0:
44,118,262982,2,0,L|59:66,1,40,6|0,2:0|2:0,2:0:0:0:
461,264,263249,5,4,1:0:0:0:
378,298,263381,1,2,2:0:0:0:
391,213,263514,1,2,2:0:0:0:
461,264,263647,5,10,2:0:0:0:
292,289,263779,1,2,2:0:0:0:
299,189,263912,1,0,2:0:0:0:
329,377,264045,2,0,P|266:368|213:367,1,80,10|0,2:0|2:0,2:0:0:0:
206,287,264310,2,0,P|145:305|74:312,1,120,6|0,2:0|2:0,2:0:0:0:
89,311,264576,1,2,2:0:0:0:
321,34,264841,5,0,1:0:0:0:
138,101,265107,2,0,L|127:51,2,40,2|0|0,2:0|2:0|2:0,2:0:0:0:
296,119,265372,1,10,2:0:0:0:
65,165,265638,2,0,B|37:137|38:103|38:103|45:90|45:90|45:48|10:18,2,160.301333333333,2|6|2,2:0|2:0|2:0,2:0:0:0:
340,34,266434,5,2,2:0:0:0:
314,124,266567,1,10,2:0:0:0:
394,175,266699,2,0,P|401:221|400:275,1,80,2|0,2:0|1:0,2:0:0:0:
270,368,266965,1,2,2:0:0:0:
270,368,267031,2,0,P|271:328|277:288,1,80,0|0,2:0|2:0,2:0:0:0:
312,209,267230,2,0,B|219:199|257:243|132:221,1,162.410666666667,6|2,2:0|2:0,2:0:0:0:
11,46,267764,5,0,1:0:0:0:
63,133,267897,1,2,2:0:0:0:
134,70,268029,1,2,2:0:0:0:
199,128,268162,1,2,2:0:0:0:
255,75,268295,2,0,P|310:52|351:22,1,80,10|0,2:0|2:0,2:0:0:0:
346,128,268560,2,0,P|412:148|478:194,1,120,6|0,2:0|2:0,2:0:0:0:
455,174,268826,1,2,2:0:0:0:
225,276,269091,6,0,P|271:252|401:229,1,160,4|2,1:0|2:0,2:0:0:0:
119,247,269490,2,0,P|131:296|135:333,1,80,10|2,2:0|2:0,2:0:0:0:
134,325,269755,1,0,2:0:0:0:
202,177,269888,2,0,P|158:163|125:144,1,80,10|0,2:0|2:0,2:0:0:0:
12,121,270153,2,0,P|72:125|128:146,1,120,6|0,2:0|2:0,2:0:0:0:
128,146,270419,6,0,P|111:197|109:231,1,80,2|0,2:0|2:0,2:0:0:0:
230,99,270684,2,0,P|239:62|236:16,1,80,0|0,1:0|2:0,2:0:0:0:
309,185,270950,1,2,2:0:0:0:
309,185,271016,1,0,2:0:0:0:
309,185,271083,1,0,2:0:0:0:
275,279,271215,2,0,P|288:333|287:364,1,80,10|0,2:0|2:0,2:0:0:0:
362,96,271481,2,0,P|371:57|389:14,1,80,2|0,2:0|2:0,2:0:0:0:
406,243,271746,2,0,P|445:294|470:359,1,120,6|0,2:0|2:0,2:0:0:0:
467,346,272010,6,0,B|363:325|406:376|300:358,1,160,2|2,2:0|2:0,2:0:0:0:
112,196,272408,1,10,2:0:0:0:
97,274,272540,2,0,P|151:268|181:243,1,80,2|0,2:0|1:0,2:0:0:0:
221,114,272806,1,10,2:0:0:0:
254,278,272939,1,0,2:0:0:0:
221,114,273071,2,0,L|349:130,1,120,6|0,2:0|2:0,2:0:0:0:
340,128,273337,6,0,P|366:182|341:280,2,160,2|0|2,2:0|1:0|2:0,2:0:0:0:
453,160,274000,1,0,2:0:0:0:
344,275,274133,2,0,P|339:328|340:364,1,80,10|0,2:0|2:0,2:0:0:0:
134,108,274398,2,0,P|86:119|-5:127,1,120,6|0,2:0|2:0,2:0:0:0:
203,165,274664,1,2,2:0:0:0:
203,165,274929,2,0,P|256:171|336:173,1,120,6|0,2:0|2:0,2:0:0:0:
138,221,275195,1,2,2:0:0:0:
138,221,275460,2,0,L|100:231,1,40,6|0,2:0|2:0,2:0:0:0:
382,163,275727,6,0,P|417:125|448:7,1,160,4|2,1:0|2:0,2:0:0:0:
297,218,276125,2,0,P|278:177|276:136,1,80,10|2,2:0|2:0,2:0:0:0:
335,74,276390,1,0,2:0:0:0:
420,258,276523,2,0,P|457:236|482:202,1,80,10|0,2:0|2:0,2:0:0:0:
289,322,276788,2,0,P|246:314|197:281,1,80,6|0,2:0|2:0,2:0:0:0:
384,352,277054,1,2,2:0:0:0:
56,319,277319,6,0,P|60:282|66:232,1,80,0|0,1:0|2:0,2:0:0:0:
101,96,277585,1,2,2:0:0:0:
103,115,277651,1,0,2:0:0:0:
105,134,277718,1,0,2:0:0:0:
181,330,277850,2,0,P|177:285|173:240,1,80,10|0,2:0|2:0,2:0:0:0:
244,53,278116,2,0,P|236:111|231:149,1,80,2|0,2:0|2:0,2:0:0:0:
306,364,278381,1,6,2:0:0:0:
110,205,278647,6,0,B|206:191|174:233|281:213,1,160,2|2,2:0|2:0,2:0:0:0:
326,147,279045,1,10,2:0:0:0:
366,328,279177,5,2,2:0:0:0:
281,300,279310,1,0,1:0:0:0:
441,259,279443,1,10,2:0:0:0:
441,259,279509,2,0,P|440:208|438:132,1,120,0|6,2:0|2:0,2:0:0:0:
300,57,279841,1,0,2:0:0:0:
492,57,279975,6,0,P|458:102|347:121,1,160,2|0,2:0|1:0,2:0:0:0:
300,57,280373,1,2,2:0:0:0:
180,210,280505,5,2,2:0:0:0:
212,129,280638,1,2,2:0:0:0:
273,201,280771,5,10,2:0:0:0:
122,136,280904,1,0,2:0:0:0:
284,215,281036,2,0,P|331:212|424:209,1,120,6|0,2:0|2:0,2:0:0:0:
403,209,281302,1,2,2:0:0:0:
22,319,281567,5,4,1:0:0:0:
10,235,281700,1,0,2:0:0:0:
22,319,281833,1,2,2:0:0:0:
126,210,281966,5,10,2:0:0:0:
115,302,282098,1,2,2:0:0:0:
126,210,282231,1,0,2:0:0:0:
193,284,282364,6,0,B|291:279|242:320|357:313,1,160,10|6,2:0|2:0,2:0:0:0:
426,297,282762,1,0,2:0:0:0:
499,339,282895,2,0,L|510:245,1,80,2|0,2:0|2:0,2:0:0:0:
329,90,283160,6,0,P|262:79|181:121,1,160,0|2,1:0|2:0,2:0:0:0:
182,119,283492,1,0,2:0:0:0:
182,119,283559,1,0,2:0:0:0:
96,103,283691,2,0,P|107:149|108:193,1,80,10|0,2:0|2:0,2:0:0:0:
23,34,283957,2,0,P|12:80|11:124,1,80,2|0,2:0|2:0,2:0:0:0:
190,213,284222,2,0,P|193:281|180:346,1,120,6|0,2:0|2:0,2:0:0:0:
184,331,284488,1,2,2:0:0:0:
471,114,284753,5,2,2:0:0:0:
395,142,284886,1,10,2:0:0:0:
471,114,285018,2,0,P|487:163|491:203,1,80,2|0,2:0|1:0,2:0:0:0:
329,90,285284,5,10,2:0:0:0:
253,62,285417,1,0,2:0:0:0:
329,90,285549,2,0,P|345:41|349:1,1,80,6|0,2:0|2:0,2:0:0:0:
168,77,285815,6,0,B|109:72|109:72|78:92|78:92|-11:85,1,160,2|0,2:0|1:0,2:0:0:0:
320,174,286345,1,2,2:0:0:0:
320,174,286478,1,0,2:0:0:0:
240,207,286611,1,10,2:0:0:0:
240,207,286876,6,0,L|217:351,1,120,6|0,2:0|2:0,2:0:0:0:
173,154,287142,1,10,2:0:0:0:
173,154,287407,2,0,L|150:10,1,120,6|0,2:0|2:0,2:0:0:0:
106,207,287673,1,10,2:0:0:0:
106,207,287938,2,0,L|64:201,1,40,6|0,2:0|2:0,2:0:0:0:
297,384,288205,5,4,1:0:0:0:
381,367,288337,1,2,2:0:0:0:
224,343,288470,5,2,2:0:0:0:
140,326,288603,1,10,2:0:0:0:
299,300,288735,6,0,P|304:261|313:199,1,80,2|0,2:0|2:0,2:0:0:0:
217,244,289001,2,0,P|216:179|203:74,1,160,10|6,2:0|2:0,2:0:0:0:
190,7,289399,1,0,2:0:0:0:
190,7,289532,1,2,2:0:0:0:
18,227,289797,6,0,P|6:178|10:124,1,80,0|0,1:0|2:0,2:0:0:0:
189,159,290063,1,2,2:0:0:0:
189,159,290129,2,0,P|201:208|197:262,1,80,0|0,2:0|2:0,2:0:0:0:
111,263,290328,2,0,B|84:168|127:208|90:97,2,160,10|2|14,2:0|2:0|2:0,2:0:0:0:
483,130,291125,6,0,B|447:109|412:103|412:103|378:115|342:148,1,160,2|2,2:0|2:0,2:0:0:0:
425,189,291523,1,10,2:0:0:0:
324,55,291655,2,0,P|281:84|251:121,1,80,2|0,2:0|1:0,2:0:0:0:
211,282,291921,1,10,2:0:0:0:
211,282,291987,2,0,P|132:272|68:239,1,120,0|6,2:0|2:0,2:0:0:0:
96,256,292452,6,0,L|112:119,1,120,6|0,2:0|2:0,2:0:0:0:
109,136,292717,5,0,1:0:0:0:
88,60,292850,1,10,2:0:0:0:
402,136,292983,5,10,2:0:0:0:
424,60,293116,1,10,2:0:0:0:
256,128,293248,6,0,P|256:87|257:34,1,80,0|0,1:0|2:0,2:0:0:0:
193,348,293514,5,0,1:0:0:0:
345,271,293647,1,0,2:0:0:0:
167,271,293779,5,0,1:0:0:0:
319,348,293912,1,0,1:0:0:0:
36,314,294045,5,4,1:0:0:0:
36,314,294310,1,0,2:0:0:0:
85,243,294443,2,0,L|59:155,1,80,2|0,2:0|2:0,2:0:0:0:
167,271,294841,2,0,L|174:183,1,80,2|0,2:0|2:0,2:0:0:0:
173,191,295372,5,2,2:0:0:0:
35,55,295637,1,2,2:0:0:0:
215,28,295903,2,0,P|231:67|228:118,2,80,2|2|2,2:0|2:0|2:0,2:0:0:0:
211,334,296699,5,2,2:0:0:0:
10,252,296965,1,0,2:0:0:0:
83,289,297098,2,0,L|81:343,1,40,2|0,2:0|2:0,2:0:0:0:
140,223,297363,1,0,2:0:0:0:
215,255,297496,2,0,L|211:342,1,80,2|0,2:0|2:0,2:0:0:0:
151,99,298027,5,2,2:0:0:0:
82,51,298292,1,2,2:0:0:0:
218,40,298558,5,2,2:0:0:0:
23,141,298823,1,2,2:0:0:0:
218,40,299089,1,2,2:0:0:0:
74,223,299354,6,0,B|30:280|71:273|19:332,2,120,2|2|2,2:0|2:0|2:0,2:0:0:0:
163,366,300416,2,0,P|155:327|144:289,2,80,2|2|2,2:0|2:0|2:0,2:0:0:0:
218,139,301213,2,0,P|199:175|183:221,2,80,2|2|2,2:0|2:0|2:0,2:0:0:0:
21,83,302009,6,0,L|108:90,1,80,2|0,2:0|2:0,2:0:0:0:
100,90,302407,1,2,2:0:0:0:
201,173,302673,1,0,2:0:0:0:
201,173,302806,1,2,2:0:0:0:
24,363,303071,6,0,L|34:283,1,80,0|2,2:0|2:0,2:0:0:0:
212,246,303602,2,0,L|202:166,1,80,2|2,2:0|2:0,2:0:0:0:
35,115,304133,2,0,L|45:35,1,80,2|2,2:0|2:0,2:0:0:0:
256,192,304531,12,0,309708,2:0:0:0:
