osu file format v14

[General]
AudioFilename: audio.mp3
AudioLeadIn: 0
PreviewTime: 0
Countdown: 0
SampleSet: Normal
StackLeniency: 0.7
Mode: 1
LetterboxInBreaks: 0
WidescreenStoryboard: 1

[Editor]
Bookmarks: 11034,118620,129655,219310,241465
DistanceSpacing: 0.8
BeatDivisor: 8
GridSize: 32
TimelineZoom: 4.299998

[Metadata]
Title:I don't wanna get out of futon
TitleUnicode:I don't wanna get out of futon
Artist:Uchikubi Gokumon Doukoukai
ArtistUnicode:打首獄門同好会
Creator:Bedwyr Aorta
Version:FUTONi
Source:
Tags:
BeatmapID:1641879
BeatmapSetID:781827

[Difficulty]
HPDrainRate:7.7
CircleSize:4
OverallDifficulty:7.7
ApproachRate:5
SliderMultiplier:1.4
SliderTickRate:1

[Events]
//Background and Video events
Video,-270,"打首獄門同好会 (Uchikubi Gokumon Doukoukai) - I don t wanna get out of futon.mp4"
0,0,"maxresdefault.jpg",0,0
//Break Periods
2,181924,192593
//Storyboard Layer 0 (Background)
//Storyboard Layer 1 (Fail)
//Storyboard Layer 2 (Pass)
//Storyboard Layer 3 (Foreground)
//Storyboard Sound Samples

[TimingPoints]
0,689.655172413793,4,1,0,50,1,8
26206,-25,4,1,0,80,0,1
30344,-100,4,1,0,50,0,0
45517,-25,4,1,0,80,0,1
49655,-100,4,1,0,50,0,0
49999,-66.6666666666667,4,1,0,50,0,0
50344,-50,4,1,0,50,0,0
50689,-40,4,1,0,50,0,0
51034,-33.3333333333333,4,1,0,60,0,0
52413,-33.3333333333333,4,1,0,60,0,1
52586,-27.7777777777778,4,1,0,70,0,1
63793,-33.3333333333333,4,1,0,60,0,1
77241,-100,4,1,0,50,0,0
92413,-25,4,1,0,80,0,1
96551,-100,4,1,0,50,0,0
137241,-33.3333333333333,4,1,0,60,0,0
137931,-33.3333333333333,4,1,0,60,0,1
138103,-27.7777777777778,4,1,0,70,0,1
149310,-33.3333333333333,4,1,0,60,0,1
159999,-55.5555555555556,4,1,0,60,0,0
182068,-100,4,1,0,40,0,0
193793,-33.3333333333333,4,1,0,60,0,0
194482,-33.3333333333333,4,1,0,60,0,1
194655,-27.7777777777778,4,1,0,70,0,1
205862,-33.3333333333333,4,1,0,60,0,1
218620,-100,4,1,0,50,0,0
219655,-25,4,1,0,50,0,0
219999,-100,4,1,0,50,0,0
220344,-25,4,1,0,50,0,0
220689,-100,4,1,0,50,0,0
221724,-25,4,1,0,50,0,0
222068,-100,4,1,0,50,0,0
222413,-25,4,1,0,50,0,0
222758,-100,4,1,0,50,0,0
223103,-25,4,1,0,50,0,0
223448,-100,4,1,0,50,0,0
224482,-25,4,1,0,50,0,0
224827,-100,4,1,0,50,0,0
225172,-25,4,1,0,50,0,0
225517,-100,4,1,0,50,0,0
225862,-25,4,1,0,50,0,0
226206,-100,4,1,0,50,0,0
227241,-25,4,1,0,50,0,0
227586,-100,4,1,0,50,0,0
227931,-25,4,1,0,50,0,0
228275,-100,4,1,0,50,0,0
228620,-25,4,1,0,50,0,0
228965,-100,4,1,0,50,0,0
229999,-25,4,1,0,50,0,0
230344,-117.647058823529,4,1,0,40,0,0
237931,-125,4,1,0,35,0,0
238706,-133.333333333333,4,1,0,30,0,0
239482,-142.857142857143,4,1,0,25,0,0
239999,-153.846153846154,4,1,0,20,0,0
240517,-166.666666666667,4,1,0,15,0,0
241465,-181.818181818182,4,1,0,10,0,0

[HitObjects]
256,192,11034,5,0,0:0:0:0:
256,192,11724,1,8,0:0:0:0:
256,192,12413,1,0,0:0:0:0:
256,192,12758,1,0,0:0:0:0:
256,192,13103,1,8,0:0:0:0:
256,192,13793,1,0,0:0:0:0:
256,192,14482,1,8,0:0:0:0:
256,192,15172,1,0,0:0:0:0:
256,192,15517,1,0,0:0:0:0:
256,192,15862,1,8,0:0:0:0:
256,192,16551,1,0,0:0:0:0:
256,192,17241,1,8,0:0:0:0:
256,192,17931,1,0,0:0:0:0:
256,192,18275,1,0,0:0:0:0:
256,192,18620,1,8,0:0:0:0:
256,192,19310,1,0,0:0:0:0:
256,192,20000,1,8,0:0:0:0:
256,192,20689,1,0,0:0:0:0:
256,192,21034,1,0,0:0:0:0:
256,192,21379,1,8,0:0:0:0:
256,192,22068,1,12,0:0:0:0:
256,192,22758,1,8,0:0:0:0:
256,192,23448,1,0,0:0:0:0:
256,192,23793,1,0,0:0:0:0:
256,192,24137,1,8,0:0:0:0:
256,192,24827,1,0,0:0:0:0:
256,192,25517,1,8,0:0:0:0:
256,192,26206,1,12,0:0:0:0:
256,192,26379,1,0,0:0:0:0:
256,192,26551,1,8,0:0:0:0:
256,192,26637,1,8,0:0:0:0:
256,192,26724,1,8,0:0:0:0:
256,192,26810,1,8,0:0:0:0:
256,192,26896,1,8,0:0:0:0:
256,192,26982,1,8,0:0:0:0:
256,192,27068,1,0,0:0:0:0:
256,192,27241,1,12,0:0:0:0:
256,192,27413,1,0,0:0:0:0:
256,192,27586,1,8,0:0:0:0:
256,192,27672,1,8,0:0:0:0:
256,192,27758,1,8,0:0:0:0:
256,192,27844,1,8,0:0:0:0:
256,192,27931,1,8,0:0:0:0:
256,192,28017,1,8,0:0:0:0:
256,192,28103,1,0,0:0:0:0:
256,192,28275,1,12,0:0:0:0:
256,192,28448,1,0,0:0:0:0:
256,192,28620,1,8,0:0:0:0:
256,192,28706,1,8,0:0:0:0:
256,192,28793,1,8,0:0:0:0:
256,192,28879,1,8,0:0:0:0:
256,192,28965,1,8,0:0:0:0:
256,192,29051,1,8,0:0:0:0:
256,192,29137,1,0,0:0:0:0:
256,192,29310,1,4,0:0:0:0:
256,192,29827,1,4,0:0:0:0:
256,192,30344,1,4,0:0:0:0:
256,192,31034,1,8,0:0:0:0:
256,192,31724,1,0,0:0:0:0:
256,192,32068,1,0,0:0:0:0:
256,192,32413,1,8,0:0:0:0:
256,192,33103,1,0,0:0:0:0:
256,192,33793,1,8,0:0:0:0:
256,192,34482,1,0,0:0:0:0:
256,192,34827,1,0,0:0:0:0:
256,192,35172,1,8,0:0:0:0:
256,192,35862,1,0,0:0:0:0:
256,192,36551,1,8,0:0:0:0:
256,192,37241,1,0,0:0:0:0:
256,192,37586,1,0,0:0:0:0:
256,192,37931,1,8,0:0:0:0:
256,192,38620,1,0,0:0:0:0:
256,192,39310,1,8,0:0:0:0:
256,192,40000,1,0,0:0:0:0:
256,192,40344,1,0,0:0:0:0:
256,192,40689,1,8,0:0:0:0:
256,192,41379,1,12,0:0:0:0:
256,192,42068,1,8,0:0:0:0:
256,192,42758,1,0,0:0:0:0:
256,192,43103,1,0,0:0:0:0:
256,192,43448,1,8,0:0:0:0:
256,192,44137,1,0,0:0:0:0:
256,192,44827,1,8,0:0:0:0:
256,192,45517,1,12,0:0:0:0:
256,192,45689,1,0,0:0:0:0:
256,192,45862,1,8,0:0:0:0:
256,192,45948,1,8,0:0:0:0:
256,192,46034,1,0,0:0:0:0:
256,192,46120,1,0,0:0:0:0:
256,192,46206,1,8,0:0:0:0:
256,192,46293,1,8,0:0:0:0:
256,192,46379,1,0,0:0:0:0:
256,192,46551,1,12,0:0:0:0:
256,192,46724,1,0,0:0:0:0:
256,192,46896,1,8,0:0:0:0:
256,192,46982,1,8,0:0:0:0:
256,192,47068,1,0,0:0:0:0:
256,192,47155,1,0,0:0:0:0:
256,192,47241,1,8,0:0:0:0:
256,192,47327,1,8,0:0:0:0:
256,192,47413,1,0,0:0:0:0:
256,192,47586,1,12,0:0:0:0:
256,192,47758,1,0,0:0:0:0:
256,192,47931,1,8,0:0:0:0:
256,192,48017,1,8,0:0:0:0:
256,192,48103,1,0,0:0:0:0:
256,192,48190,1,0,0:0:0:0:
256,192,48276,1,8,0:0:0:0:
256,192,48362,1,8,0:0:0:0:
256,192,48448,1,0,0:0:0:0:
256,192,48620,1,4,0:0:0:0:
256,192,49137,1,4,0:0:0:0:
256,192,49655,1,4,0:0:0:0:
256,192,49999,1,8,0:0:0:0:
256,192,50344,1,8,0:0:0:0:
256,192,50689,1,8,0:0:0:0:
256,192,51034,1,0,0:0:0:0:
256,192,51120,1,0,0:0:0:0:
256,192,51206,1,0,0:0:0:0:
256,192,51293,1,0,0:0:0:0:
256,192,51379,1,8,0:0:0:0:
256,192,51465,1,8,0:0:0:0:
256,192,51551,1,8,0:0:0:0:
256,192,51637,1,8,0:0:0:0:
256,192,51724,1,0,0:0:0:0:
256,192,51810,1,0,0:0:0:0:
256,192,51896,1,0,0:0:0:0:
256,192,51982,1,0,0:0:0:0:
256,192,52068,1,8,0:0:0:0:
256,192,52155,1,8,0:0:0:0:
256,192,52241,1,8,0:0:0:0:
256,192,52327,1,8,0:0:0:0:
256,192,52413,1,0,0:0:0:0:
256,192,52586,1,8,0:0:0:0:
256,192,52758,1,0,0:0:0:0:
256,192,52844,1,0,0:0:0:0:
256,192,52931,1,8,0:0:0:0:
256,192,53103,1,0,0:0:0:0:
256,192,53275,1,8,0:0:0:0:
256,192,53448,1,0,0:0:0:0:
256,192,53534,1,0,0:0:0:0:
256,192,53620,1,8,0:0:0:0:
256,192,53793,1,0,0:0:0:0:
256,192,53965,1,8,0:0:0:0:
256,192,54137,1,0,0:0:0:0:
256,192,54224,1,0,0:0:0:0:
256,192,54310,1,8,0:0:0:0:
256,192,54482,1,0,0:0:0:0:
256,192,54655,1,0,0:0:0:0:
256,192,54827,1,8,0:0:0:0:
256,192,54913,1,8,0:0:0:0:
256,192,54999,1,0,0:0:0:0:
256,192,55172,1,0,0:0:0:0:
256,192,55344,1,8,0:0:0:0:
256,192,55517,1,0,0:0:0:0:
256,192,55603,1,0,0:0:0:0:
256,192,55689,1,8,0:0:0:0:
256,192,55862,1,0,0:0:0:0:
256,192,56034,1,8,0:0:0:0:
256,192,56206,1,0,0:0:0:0:
256,192,56293,1,0,0:0:0:0:
256,192,56379,1,8,0:0:0:0:
256,192,56551,1,0,0:0:0:0:
256,192,56724,1,8,0:0:0:0:
256,192,56896,1,0,0:0:0:0:
256,192,56982,1,0,0:0:0:0:
256,192,57068,1,8,0:0:0:0:
256,192,57241,1,0,0:0:0:0:
256,192,57413,1,0,0:0:0:0:
256,192,57586,1,8,0:0:0:0:
256,192,57672,1,8,0:0:0:0:
256,192,57758,1,0,0:0:0:0:
256,192,57931,1,8,0:0:0:0:
256,192,58103,1,0,0:0:0:0:
256,192,58190,1,0,0:0:0:0:
256,192,58276,1,8,0:0:0:0:
256,192,58362,1,8,0:0:0:0:
256,192,58448,1,0,0:0:0:0:
256,192,58620,1,8,0:0:0:0:
256,192,58793,1,8,0:0:0:0:
256,192,58965,1,0,0:0:0:0:
256,192,59051,1,0,0:0:0:0:
256,192,59138,1,8,0:0:0:0:
256,192,59310,1,0,0:0:0:0:
256,192,59482,1,8,0:0:0:0:
256,192,59568,1,8,0:0:0:0:
256,192,59655,1,0,0:0:0:0:
256,192,59741,1,0,0:0:0:0:
256,192,59827,1,8,0:0:0:0:
256,192,59999,1,8,0:0:0:0:
256,192,60172,1,8,0:0:0:0:
256,192,60344,1,0,0:0:0:0:
256,192,60431,1,0,0:0:0:0:
256,192,60517,1,8,0:0:0:0:
256,192,60689,1,0,0:0:0:0:
256,192,60862,1,0,0:0:0:0:
256,192,60948,1,0,0:0:0:0:
256,192,61034,1,8,0:0:0:0:
256,192,61120,1,8,0:0:0:0:
256,192,61206,1,0,0:0:0:0:
256,192,61379,1,0,0:0:0:0:
256,192,61551,1,0,0:0:0:0:
256,192,61724,1,8,0:0:0:0:
256,192,61810,1,8,0:0:0:0:
256,192,61896,1,0,0:0:0:0:
256,192,62068,1,8,0:0:0:0:
256,192,62241,1,8,0:0:0:0:
256,192,62327,1,8,0:0:0:0:
256,192,62413,1,0,0:0:0:0:
256,192,62499,1,0,0:0:0:0:
256,192,62586,1,8,0:0:0:0:
256,192,62758,1,0,0:0:0:0:
256,192,62931,1,8,0:0:0:0:
256,192,63017,1,0,0:0:0:0:
256,192,63103,1,8,0:0:0:0:
256,192,63189,1,8,0:0:0:0:
256,192,63275,1,0,0:0:0:0:
256,192,63362,1,0,0:0:0:0:
256,192,63448,1,8,0:0:0:0:
256,192,63793,1,8,0:0:0:0:
256,192,63965,1,8,0:0:0:0:
256,192,64137,1,0,0:0:0:0:
256,192,64310,1,0,0:0:0:0:
256,192,64482,1,8,0:0:0:0:
256,192,64827,1,8,0:0:0:0:
256,192,65172,1,0,0:0:0:0:
256,192,65344,1,0,0:0:0:0:
256,192,65517,1,8,0:0:0:0:
256,192,65689,1,8,0:0:0:0:
256,192,65862,1,0,0:0:0:0:
256,192,66206,1,8,0:0:0:0:
256,192,66551,1,8,0:0:0:0:
256,192,66724,1,8,0:0:0:0:
256,192,66896,1,0,0:0:0:0:
256,192,67068,1,0,0:0:0:0:
256,192,67241,1,8,0:0:0:0:
256,192,67586,1,0,0:0:0:0:
256,192,67931,1,8,0:0:0:0:
256,192,68275,1,0,0:0:0:0:
256,192,68448,1,0,0:0:0:0:
256,192,68620,1,8,0:0:0:0:
256,192,68965,1,12,0:0:0:0:
256,192,69310,1,8,0:0:0:0:
256,192,69482,1,8,0:0:0:0:
256,192,69655,1,8,0:0:0:0:
256,192,69827,1,8,0:0:0:0:
256,192,69999,1,0,0:0:0:0:
256,192,70344,1,8,0:0:0:0:
256,192,70689,1,0,0:0:0:0:
256,192,70862,1,0,0:0:0:0:
256,192,71034,1,0,0:0:0:0:
256,192,71206,1,0,0:0:0:0:
256,192,71379,1,8,0:0:0:0:
256,192,71724,1,0,0:0:0:0:
256,192,72068,1,8,0:0:0:0:
256,192,72241,1,8,0:0:0:0:
256,192,72413,1,0,0:0:0:0:
256,192,72586,1,0,0:0:0:0:
256,192,72758,1,0,0:0:0:0:
256,192,73103,1,12,0:0:0:0:
256,192,73448,1,8,0:0:0:0:
256,192,73793,1,0,0:0:0:0:
256,192,73965,1,8,0:0:0:0:
256,192,74137,1,0,0:0:0:0:
256,192,74310,1,8,0:0:0:0:
256,192,74439,1,0,0:0:0:0:
256,192,74482,1,0,0:0:0:0:
256,192,74827,1,4,0:0:0:0:
256,192,75172,1,4,0:0:0:0:
256,192,75517,1,4,0:0:0:0:
256,192,75862,1,12,0:0:0:0:
256,192,77241,5,0,0:0:0:0:
256,192,77931,1,8,0:0:0:0:
256,192,78620,1,0,0:0:0:0:
256,192,78965,1,0,0:0:0:0:
256,192,79310,1,8,0:0:0:0:
256,192,80000,1,0,0:0:0:0:
256,192,80689,1,8,0:0:0:0:
256,192,81379,1,0,0:0:0:0:
256,192,81724,1,0,0:0:0:0:
256,192,82069,1,8,0:0:0:0:
256,192,82758,1,0,0:0:0:0:
256,192,83448,1,8,0:0:0:0:
256,192,84138,1,0,0:0:0:0:
256,192,84482,1,0,0:0:0:0:
256,192,84827,1,8,0:0:0:0:
256,192,85517,1,0,0:0:0:0:
256,192,86207,1,8,0:0:0:0:
256,192,86896,1,0,0:0:0:0:
256,192,87241,1,0,0:0:0:0:
256,192,87586,1,8,0:0:0:0:
256,192,88275,1,12,0:0:0:0:
256,192,88965,1,8,0:0:0:0:
256,192,89655,1,0,0:0:0:0:
256,192,90000,1,0,0:0:0:0:
256,192,90344,1,8,0:0:0:0:
256,192,91034,1,0,0:0:0:0:
256,192,91724,1,8,0:0:0:0:
256,192,92413,1,4,0:0:0:0:
256,192,92586,1,8,0:0:0:0:
256,192,92672,1,0,0:0:0:0:
256,192,92758,1,8,0:0:0:0:
256,192,92844,1,8,0:0:0:0:
256,192,92930,1,0,0:0:0:0:
256,192,93016,1,0,0:0:0:0:
256,192,93102,1,8,0:0:0:0:
256,192,93188,1,0,0:0:0:0:
256,192,93275,1,8,0:0:0:0:
256,192,93448,1,4,0:0:0:0:
256,192,93620,1,8,0:0:0:0:
256,192,93706,1,0,0:0:0:0:
256,192,93792,1,8,0:0:0:0:
256,192,93878,1,8,0:0:0:0:
256,192,93964,1,0,0:0:0:0:
256,192,94050,1,0,0:0:0:0:
256,192,94136,1,8,0:0:0:0:
256,192,94222,1,0,0:0:0:0:
256,192,94309,1,8,0:0:0:0:
256,192,94482,1,4,0:0:0:0:
256,192,94655,1,8,0:0:0:0:
256,192,94741,1,0,0:0:0:0:
256,192,94827,1,8,0:0:0:0:
256,192,94913,1,8,0:0:0:0:
256,192,94999,1,0,0:0:0:0:
256,192,95085,1,0,0:0:0:0:
256,192,95171,1,8,0:0:0:0:
256,192,95257,1,0,0:0:0:0:
256,192,95344,1,8,0:0:0:0:
256,192,95517,1,4,0:0:0:0:
256,192,96034,1,4,0:0:0:0:
256,192,96551,1,4,0:0:0:0:
256,192,97241,1,8,0:0:0:0:
256,192,97931,1,0,0:0:0:0:
256,192,98275,1,0,0:0:0:0:
256,192,98620,1,8,0:0:0:0:
256,192,99310,1,0,0:0:0:0:
256,192,100000,1,8,0:0:0:0:
256,192,100689,1,0,0:0:0:0:
256,192,101034,1,0,0:0:0:0:
256,192,101379,1,8,0:0:0:0:
256,192,102069,1,0,0:0:0:0:
256,192,102758,1,8,0:0:0:0:
256,192,103448,1,0,0:0:0:0:
256,192,103793,1,0,0:0:0:0:
256,192,104138,1,8,0:0:0:0:
256,192,104827,1,0,0:0:0:0:
256,192,105517,1,8,0:0:0:0:
256,192,106207,1,0,0:0:0:0:
256,192,106551,1,0,0:0:0:0:
256,192,106896,1,8,0:0:0:0:
256,192,107586,1,12,0:0:0:0:
256,192,108275,1,8,0:0:0:0:
256,192,108965,1,0,0:0:0:0:
256,192,109310,1,0,0:0:0:0:
256,192,109655,1,8,0:0:0:0:
256,192,110344,1,0,0:0:0:0:
256,192,111034,1,8,0:0:0:0:
256,192,111724,1,0,0:0:0:0:
256,192,112068,1,0,0:0:0:0:
256,192,112413,1,8,0:0:0:0:
256,192,113103,1,0,0:0:0:0:
256,192,113793,1,8,0:0:0:0:
256,192,114483,1,0,0:0:0:0:
256,192,114827,1,0,0:0:0:0:
256,192,115172,1,8,0:0:0:0:
256,192,115862,1,0,0:0:0:0:
256,192,116552,1,8,0:0:0:0:
256,192,117241,1,0,0:0:0:0:
256,192,117586,1,0,0:0:0:0:
256,192,117931,1,8,0:0:0:0:
256,192,118275,1,8,0:0:0:0:
256,192,118620,12,0,119655,0:0:0:0:
256,192,119999,5,0,0:0:0:0:
256,192,120172,1,0,0:0:0:0:
256,192,120344,1,0,0:0:0:0:
256,192,120517,1,0,0:0:0:0:
256,192,120689,1,8,0:0:0:0:
256,192,120948,1,0,0:0:0:0:
256,192,121206,1,8,0:0:0:0:
256,192,121379,12,8,123793,0:0:0:0:
256,192,122413,5,8,0:0:0:0:
256,192,123103,1,8,0:0:0:0:
256,192,123448,1,0,0:0:0:0:
256,192,124137,5,0,0:0:0:0:
256,192,124310,1,0,0:0:0:0:
256,192,124655,1,0,0:0:0:0:
256,192,124827,1,0,0:0:0:0:
256,192,125172,1,0,0:0:0:0:
256,192,125517,1,8,0:0:0:0:
256,192,126206,1,8,0:0:0:0:
256,192,126465,1,0,0:0:0:0:
256,192,126724,1,8,0:0:0:0:
256,192,126896,12,8,129310,0:0:0:0:
256,192,127931,5,8,0:0:0:0:
256,192,128620,1,8,0:0:0:0:
256,192,128965,1,0,0:0:0:0:
256,192,129655,1,4,0:0:0:0:
256,192,129827,1,8,0:0:0:0:
256,192,129999,1,8,0:0:0:0:
256,192,130172,1,0,0:0:0:0:
256,192,130344,1,0,0:0:0:0:
256,192,130603,1,8,0:0:0:0:
256,192,130689,1,8,0:0:0:0:
256,192,130948,1,8,0:0:0:0:
256,192,131379,5,0,0:0:0:0:
256,192,131724,1,8,0:0:0:0:
256,192,132068,1,0,0:0:0:0:
256,192,132413,1,0,0:0:0:0:
256,192,132586,1,8,0:0:0:0:
256,192,132931,1,0,0:0:0:0:
256,192,133103,1,8,0:0:0:0:
256,192,133275,1,8,0:0:0:0:
256,192,133448,1,8,0:0:0:0:
256,192,133793,12,0,137068,0:0:0:0:
256,192,134827,5,8,0:0:0:0:
256,192,135086,1,0,0:0:0:0:
256,192,136206,1,8,0:0:0:0:
256,192,136465,1,0,0:0:0:0:
256,192,137241,1,8,0:0:0:0:
256,192,137327,1,0,0:0:0:0:
256,192,137413,1,8,0:0:0:0:
256,192,137499,1,8,0:0:0:0:
256,192,137586,1,0,0:0:0:0:
256,192,137672,1,0,0:0:0:0:
256,192,137758,1,8,0:0:0:0:
256,192,137844,1,8,0:0:0:0:
256,192,137931,1,0,0:0:0:0:
256,192,138103,1,8,0:0:0:0:
256,192,138275,1,0,0:0:0:0:
256,192,138362,1,0,0:0:0:0:
256,192,138448,1,8,0:0:0:0:
256,192,138620,1,0,0:0:0:0:
256,192,138793,1,8,0:0:0:0:
256,192,138879,1,8,0:0:0:0:
256,192,138965,1,0,0:0:0:0:
256,192,139051,1,0,0:0:0:0:
256,192,139137,1,8,0:0:0:0:
256,192,139310,1,0,0:0:0:0:
256,192,139482,1,0,0:0:0:0:
256,192,139655,1,8,0:0:0:0:
256,192,139741,1,8,0:0:0:0:
256,192,139827,1,0,0:0:0:0:
256,192,139999,1,8,0:0:0:0:
256,192,140172,1,0,0:0:0:0:
256,192,140258,1,0,0:0:0:0:
256,192,140344,1,8,0:0:0:0:
256,192,140431,1,8,0:0:0:0:
256,192,140517,1,0,0:0:0:0:
256,192,140689,1,0,0:0:0:0:
256,192,140862,1,8,0:0:0:0:
256,192,141034,1,0,0:0:0:0:
256,192,141120,1,0,0:0:0:0:
256,192,141206,1,8,0:0:0:0:
256,192,141379,1,0,0:0:0:0:
256,192,141551,1,8,0:0:0:0:
256,192,141637,1,0,0:0:0:0:
256,192,141724,1,8,0:0:0:0:
256,192,141810,1,8,0:0:0:0:
256,192,141896,1,0,0:0:0:0:
256,192,142068,1,0,0:0:0:0:
256,192,142241,1,0,0:0:0:0:
256,192,142413,1,8,0:0:0:0:
256,192,142499,1,8,0:0:0:0:
256,192,142586,1,0,0:0:0:0:
256,192,142758,1,8,0:0:0:0:
256,192,142931,1,0,0:0:0:0:
256,192,143017,1,8,0:0:0:0:
256,192,143103,1,0,0:0:0:0:
256,192,143189,1,0,0:0:0:0:
256,192,143275,1,8,0:0:0:0:
256,192,143448,1,0,0:0:0:0:
256,192,143620,1,8,0:0:0:0:
256,192,143793,1,0,0:0:0:0:
256,192,143879,1,0,0:0:0:0:
256,192,143965,1,8,0:0:0:0:
256,192,144137,1,0,0:0:0:0:
256,192,144310,1,8,0:0:0:0:
256,192,144396,1,8,0:0:0:0:
256,192,144482,1,0,0:0:0:0:
256,192,144568,1,0,0:0:0:0:
256,192,144655,1,8,0:0:0:0:
256,192,144827,1,0,0:0:0:0:
256,192,144999,1,0,0:0:0:0:
256,192,145172,1,8,0:0:0:0:
256,192,145258,1,8,0:0:0:0:
256,192,145344,1,0,0:0:0:0:
256,192,145517,1,0,0:0:0:0:
256,192,145603,1,0,0:0:0:0:
256,192,145689,1,8,0:0:0:0:
256,192,145862,1,8,0:0:0:0:
256,192,145948,1,8,0:0:0:0:
256,192,146034,1,0,0:0:0:0:
256,192,146206,1,0,0:0:0:0:
256,192,146379,1,8,0:0:0:0:
256,192,146551,1,0,0:0:0:0:
256,192,146637,1,0,0:0:0:0:
256,192,146724,1,8,0:0:0:0:
256,192,146896,1,0,0:0:0:0:
256,192,147068,1,8,0:0:0:0:
256,192,147155,1,0,0:0:0:0:
256,192,147241,1,0,0:0:0:0:
256,192,147327,1,0,0:0:0:0:
256,192,147413,1,8,0:0:0:0:
256,192,147586,1,0,0:0:0:0:
256,192,147758,1,0,0:0:0:0:
256,192,147931,1,8,0:0:0:0:
256,192,148017,1,8,0:0:0:0:
256,192,148103,1,0,0:0:0:0:
256,192,148275,1,8,0:0:0:0:
256,192,148448,1,8,0:0:0:0:
256,192,148534,1,0,0:0:0:0:
256,192,148620,1,8,0:0:0:0:
256,192,148706,1,8,0:0:0:0:
256,192,148793,1,0,0:0:0:0:
256,192,148879,1,0,0:0:0:0:
256,192,148965,1,8,0:0:0:0:
256,192,149310,1,8,0:0:0:0:
256,192,149655,1,0,0:0:0:0:
256,192,149827,1,0,0:0:0:0:
256,192,149999,1,8,0:0:0:0:
256,192,150172,1,8,0:0:0:0:
256,192,150344,1,0,0:0:0:0:
256,192,150689,1,8,0:0:0:0:
256,192,151034,1,8,0:0:0:0:
256,192,151206,1,8,0:0:0:0:
256,192,151379,1,0,0:0:0:0:
256,192,151551,1,0,0:0:0:0:
256,192,151724,1,8,0:0:0:0:
256,192,152068,1,8,0:0:0:0:
256,192,152413,1,0,0:0:0:0:
256,192,152586,1,0,0:0:0:0:
256,192,152758,1,8,0:0:0:0:
256,192,152931,1,8,0:0:0:0:
256,192,153103,1,0,0:0:0:0:
256,192,153448,1,8,0:0:0:0:
256,192,153793,1,0,0:0:0:0:
256,192,153965,1,0,0:0:0:0:
256,192,154137,1,8,0:0:0:0:
256,192,154482,1,12,0:0:0:0:
256,192,154827,1,8,0:0:0:0:
256,192,154999,1,8,0:0:0:0:
256,192,155172,1,8,0:0:0:0:
256,192,155344,1,8,0:0:0:0:
256,192,155516,1,0,0:0:0:0:
256,192,155861,1,8,0:0:0:0:
256,192,156206,1,0,0:0:0:0:
256,192,156379,1,0,0:0:0:0:
256,192,156551,1,0,0:0:0:0:
256,192,156723,1,0,0:0:0:0:
256,192,156896,1,8,0:0:0:0:
256,192,157241,1,0,0:0:0:0:
256,192,157585,1,8,0:0:0:0:
256,192,157758,1,8,0:0:0:0:
256,192,157930,1,0,0:0:0:0:
256,192,158103,1,0,0:0:0:0:
256,192,158275,1,0,0:0:0:0:
256,192,158620,1,12,0:0:0:0:
256,192,158965,1,8,0:0:0:0:
256,192,159224,1,0,0:0:0:0:
256,192,159310,1,0,0:0:0:0:
256,192,159482,1,8,0:0:0:0:
256,192,159655,1,0,0:0:0:0:
256,192,159999,1,4,0:0:0:0:
256,192,160689,1,8,0:0:0:0:
256,192,161034,1,0,0:0:0:0:
256,192,161379,1,8,0:0:0:0:
256,192,161724,1,0,0:0:0:0:
256,192,162068,1,8,0:0:0:0:
256,192,162413,1,8,0:0:0:0:
256,192,162758,1,0,0:0:0:0:
256,192,163448,1,8,0:0:0:0:
256,192,163793,1,0,0:0:0:0:
256,192,164137,1,8,0:0:0:0:
256,192,164482,1,0,0:0:0:0:
256,192,164827,1,0,0:0:0:0:
256,192,165172,1,8,0:0:0:0:
256,192,165517,1,8,0:0:0:0:
256,192,166206,1,8,0:0:0:0:
256,192,166551,1,0,0:0:0:0:
256,192,166896,1,8,0:0:0:0:
256,192,167241,1,0,0:0:0:0:
256,192,167586,1,0,0:0:0:0:
256,192,167931,1,8,0:0:0:0:
256,192,168275,1,8,0:0:0:0:
256,192,168965,1,8,0:0:0:0:
256,192,169310,1,0,0:0:0:0:
256,192,169655,1,8,0:0:0:0:
256,192,169999,1,0,0:0:0:0:
256,192,170344,1,0,0:0:0:0:
256,192,170689,1,0,0:0:0:0:
256,192,171034,1,8,0:0:0:0:
256,192,171724,1,8,0:0:0:0:
256,192,172068,1,0,0:0:0:0:
256,192,172413,1,8,0:0:0:0:
256,192,172758,1,0,0:0:0:0:
256,192,173103,1,8,0:0:0:0:
256,192,173448,1,8,0:0:0:0:
256,192,173793,1,0,0:0:0:0:
256,192,174482,1,0,0:0:0:0:
256,192,174827,1,8,0:0:0:0:
256,192,175172,1,8,0:0:0:0:
256,192,175517,1,0,0:0:0:0:
256,192,175862,1,8,0:0:0:0:
256,192,176206,1,0,0:0:0:0:
256,192,176551,1,8,0:0:0:0:
256,192,176896,1,0,0:0:0:0:
256,192,176954,1,0,0:0:0:0:
256,192,177011,1,0,0:0:0:0:
256,192,177241,1,8,0:0:0:0:
256,192,177586,1,0,0:0:0:0:
256,192,177931,1,8,0:0:0:0:
256,192,178275,1,0,0:0:0:0:
256,192,178620,1,8,0:0:0:0:
256,192,178965,1,8,0:0:0:0:
256,192,179310,1,12,0:0:0:0:
256,192,179655,1,0,0:0:0:0:
256,192,179999,1,8,0:0:0:0:
256,192,180344,1,0,0:0:0:0:
256,192,180689,1,8,0:0:0:0:
256,192,181034,1,8,0:0:0:0:
256,192,181379,1,0,0:0:0:0:
256,192,181724,1,0,0:0:0:0:
256,192,193793,5,8,0:0:0:0:
256,192,193879,1,0,0:0:0:0:
256,192,193965,1,0,0:0:0:0:
256,192,194051,1,0,0:0:0:0:
256,192,194137,1,8,0:0:0:0:
256,192,194224,1,0,0:0:0:0:
256,192,194310,1,0,0:0:0:0:
256,192,194396,1,0,0:0:0:0:
256,192,194482,1,8,0:0:0:0:
256,192,194655,1,8,0:0:0:0:
256,192,194827,1,0,0:0:0:0:
256,192,194913,1,0,0:0:0:0:
256,192,194999,1,8,0:0:0:0:
256,192,195172,1,0,0:0:0:0:
256,192,195344,1,0,0:0:0:0:
256,192,195517,1,8,0:0:0:0:
256,192,195603,1,8,0:0:0:0:
256,192,195689,1,0,0:0:0:0:
256,192,195861,1,8,0:0:0:0:
256,192,195947,1,0,0:0:0:0:
256,192,196033,1,8,0:0:0:0:
256,192,196120,1,8,0:0:0:0:
256,192,196206,1,0,0:0:0:0:
256,192,196293,1,0,0:0:0:0:
256,192,196379,1,8,0:0:0:0:
256,192,196465,1,0,0:0:0:0:
256,192,196551,1,8,0:0:0:0:
256,192,196638,1,8,0:0:0:0:
256,192,196724,1,0,0:0:0:0:
256,192,196810,1,0,0:0:0:0:
256,192,196896,1,8,0:0:0:0:
256,192,196982,1,8,0:0:0:0:
256,192,197068,1,0,0:0:0:0:
256,192,197241,1,0,0:0:0:0:
256,192,197413,1,0,0:0:0:0:
256,192,197586,1,8,0:0:0:0:
256,192,197672,1,8,0:0:0:0:
256,192,197758,1,0,0:0:0:0:
256,192,197931,1,0,0:0:0:0:
256,192,198103,1,8,0:0:0:0:
256,192,198275,1,0,0:0:0:0:
256,192,198362,1,0,0:0:0:0:
256,192,198448,1,8,0:0:0:0:
256,192,198620,1,0,0:0:0:0:
256,192,198706,1,8,0:0:0:0:
256,192,198793,1,0,0:0:0:0:
256,192,198879,1,0,0:0:0:0:
256,192,198965,1,8,0:0:0:0:
256,192,199051,1,8,0:0:0:0:
256,192,199137,1,0,0:0:0:0:
256,192,199224,1,8,0:0:0:0:
256,192,199310,1,0,0:0:0:0:
256,192,199396,1,0,0:0:0:0:
256,192,199482,1,8,0:0:0:0:
256,192,199568,1,8,0:0:0:0:
256,192,199655,1,0,0:0:0:0:
256,192,199741,1,0,0:0:0:0:
256,192,199827,1,8,0:0:0:0:
256,192,199999,1,0,0:0:0:0:
256,192,200172,1,8,0:0:0:0:
256,192,200344,1,0,0:0:0:0:
256,192,200431,1,0,0:0:0:0:
256,192,200517,1,8,0:0:0:0:
256,192,200689,1,0,0:0:0:0:
256,192,200862,1,0,0:0:0:0:
256,192,201034,1,8,0:0:0:0:
256,192,201120,1,8,0:0:0:0:
256,192,201206,1,0,0:0:0:0:
256,192,201379,1,8,0:0:0:0:
256,192,201465,1,0,0:0:0:0:
256,192,201551,1,8,0:0:0:0:
256,192,201637,1,8,0:0:0:0:
256,192,201724,1,0,0:0:0:0:
256,192,201810,1,0,0:0:0:0:
256,192,201896,1,8,0:0:0:0:
256,192,201982,1,0,0:0:0:0:
256,192,202068,1,0,0:0:0:0:
256,192,202155,1,0,0:0:0:0:
256,192,202241,1,8,0:0:0:0:
256,192,202327,1,8,0:0:0:0:
256,192,202413,1,0,0:0:0:0:
256,192,202499,1,0,0:0:0:0:
256,192,202586,1,8,0:0:0:0:
256,192,202758,1,0,0:0:0:0:
256,192,202931,1,0,0:0:0:0:
256,192,203103,1,8,0:0:0:0:
256,192,203189,1,8,0:0:0:0:
256,192,203275,1,0,0:0:0:0:
256,192,203448,1,0,0:0:0:0:
256,192,203620,1,8,0:0:0:0:
256,192,203793,1,0,0:0:0:0:
256,192,203879,1,0,0:0:0:0:
256,192,203965,1,8,0:0:0:0:
256,192,204137,1,0,0:0:0:0:
256,192,204224,1,0,0:0:0:0:
256,192,204310,1,8,0:0:0:0:
256,192,204396,1,8,0:0:0:0:
256,192,204482,1,0,0:0:0:0:
256,192,204568,1,0,0:0:0:0:
256,192,204655,1,8,0:0:0:0:
256,192,204827,1,8,0:0:0:0:
256,192,204913,1,0,0:0:0:0:
256,192,204999,1,8,0:0:0:0:
256,192,205086,1,8,0:0:0:0:
256,192,205172,1,0,0:0:0:0:
256,192,205258,1,0,0:0:0:0:
256,192,205344,1,8,0:0:0:0:
256,192,205431,1,8,0:0:0:0:
256,192,205517,1,0,0:0:0:0:
256,192,205862,5,8,0:0:0:0:
256,192,206034,1,8,0:0:0:0:
256,192,206207,1,0,0:0:0:0:
256,192,206379,1,0,0:0:0:0:
256,192,206551,1,8,0:0:0:0:
256,192,206724,1,8,0:0:0:0:
256,192,206896,1,0,0:0:0:0:
256,192,207241,1,8,0:0:0:0:
256,192,207413,1,8,0:0:0:0:
256,192,207586,1,0,0:0:0:0:
256,192,207758,1,8,0:0:0:0:
256,192,207931,1,0,0:0:0:0:
256,192,208103,1,0,0:0:0:0:
256,192,208276,1,8,0:0:0:0:
256,192,208620,1,8,0:0:0:0:
256,192,208793,1,8,0:0:0:0:
256,192,208965,1,0,0:0:0:0:
256,192,209138,1,0,0:0:0:0:
256,192,209310,1,8,0:0:0:0:
256,192,209483,1,8,0:0:0:0:
256,192,209655,1,0,0:0:0:0:
256,192,210000,1,8,0:0:0:0:
256,192,210172,1,8,0:0:0:0:
256,192,210345,1,0,0:0:0:0:
256,192,210517,1,0,0:0:0:0:
256,192,210689,1,8,0:0:0:0:
256,192,210862,1,0,0:0:0:0:
256,192,211034,1,12,0:0:0:0:
256,192,211379,1,8,0:0:0:0:
256,192,211551,1,8,0:0:0:0:
256,192,211724,1,0,0:0:0:0:
256,192,211896,1,8,0:0:0:0:
256,192,212068,1,0,0:0:0:0:
256,192,212241,1,8,0:0:0:0:
256,192,212413,1,8,0:0:0:0:
256,192,212758,1,0,0:0:0:0:
256,192,212931,1,8,0:0:0:0:
256,192,213103,1,0,0:0:0:0:
256,192,213275,1,0,0:0:0:0:
256,192,213448,1,8,0:0:0:0:
256,192,213620,1,8,0:0:0:0:
256,192,213793,1,0,0:0:0:0:
256,192,214137,1,8,0:0:0:0:
256,192,214310,1,8,0:0:0:0:
256,192,214482,1,0,0:0:0:0:
256,192,214655,1,0,0:0:0:0:
256,192,214827,1,8,0:0:0:0:
256,192,214999,1,0,0:0:0:0:
256,192,215172,1,12,0:0:0:0:
256,192,215517,1,4,0:0:0:0:
256,192,215689,1,8,0:0:0:0:
256,192,215862,1,0,0:0:0:0:
256,192,216034,1,8,0:0:0:0:
256,192,216206,1,8,0:0:0:0:
256,192,216465,1,8,0:0:0:0:
256,192,216551,1,8,0:0:0:0:
256,192,216896,1,4,0:0:0:0:
256,192,217241,1,4,0:0:0:0:
256,192,217586,1,4,0:0:0:0:
256,192,217931,1,12,0:0:0:0:
256,192,219310,5,0,0:0:0:0:
256,192,219655,1,8,0:0:0:0:
256,192,220000,1,8,0:0:0:0:
256,192,220344,1,8,0:0:0:0:
256,192,220689,1,0,0:0:0:0:
256,192,221034,1,0,0:0:0:0:
256,192,221379,1,8,0:0:0:0:
256,192,221724,1,8,0:0:0:0:
256,192,222069,1,0,0:0:0:0:
256,192,222413,1,8,0:0:0:0:
256,192,222758,1,8,0:0:0:0:
256,192,223103,1,8,0:0:0:0:
256,192,223448,1,0,0:0:0:0:
256,192,223793,1,0,0:0:0:0:
256,192,224138,1,8,0:0:0:0:
256,192,224482,1,8,0:0:0:0:
256,192,224827,1,0,0:0:0:0:
256,192,225172,1,8,0:0:0:0:
256,192,225517,1,8,0:0:0:0:
256,192,225862,1,8,0:0:0:0:
256,192,226207,1,0,0:0:0:0:
256,192,226551,1,0,0:0:0:0:
256,192,226896,1,8,0:0:0:0:
256,192,227241,1,8,0:0:0:0:
256,192,227586,1,0,0:0:0:0:
256,192,227931,1,8,0:0:0:0:
256,192,228276,1,8,0:0:0:0:
256,192,228620,1,8,0:0:0:0:
256,192,228965,1,0,0:0:0:0:
256,192,229310,1,0,0:0:0:0:
256,192,229655,1,8,0:0:0:0:
256,192,229999,1,8,0:0:0:0:
256,192,230344,1,8,0:0:0:0:
256,192,231034,1,8,0:0:0:0:
256,192,231724,1,0,0:0:0:0:
256,192,232413,1,8,0:0:0:0:
256,192,233103,1,0,0:0:0:0:
256,192,233793,1,8,0:0:0:0:
256,192,234482,1,0,0:0:0:0:
256,192,235172,1,8,0:0:0:0:
256,192,235862,1,0,0:0:0:0:
256,192,236551,1,8,0:0:0:0:
256,192,237241,1,0,0:0:0:0:
256,192,237931,1,8,0:0:0:0:
256,192,238706,1,0,0:0:0:0:
256,192,239482,1,0,0:0:0:0:
256,192,239999,1,0,0:0:0:0:
256,192,240517,1,0,0:0:0:0:
256,192,241465,12,0,251034,0:0:0:0:
