osu file format v14

[General]
AudioFilename: audio.mp3
AudioLeadIn: 0
PreviewTime: 223214
Countdown: 0
SampleSet: None
StackLeniency: 0.6
Mode: 0
LetterboxInBreaks: 0
WidescreenStoryboard: 0

[Editor]
Bookmarks: 222678,223393,233393
DistanceSpacing: 2.1
BeatDivisor: 4
GridSize: 8
TimelineZoom: 1.7

[Metadata]
Title:youthful beautiful
TitleUnicode:youthful beautiful
Artist:Uchida Maaya
ArtistUnicode:内田真礼
Creator:beenscared
Version:Connect
Source:SSSS.Gridman
Tags:ending 8th single
BeatmapID:2057791
BeatmapSetID:983382

[Difficulty]
HPDrainRate:6
CircleSize:4.2
OverallDifficulty:8.3
ApproachRate:9.3
SliderMultiplier:1.9
SliderTickRate:1

[Events]
//Background and Video events
0,0,"960909.jpg",0,0
//Break Periods
2,223393,232839
//Storyboard Layer 0 (Background)
//Storyboard Layer 1 (Fail)
//Storyboard Layer 2 (Pass)
//Storyboard Layer 3 (Foreground)
//Storyboard Sound Samples

[TimingPoints]
536,357.142857142857,4,2,0,60,1,0
536,-166.666666666667,4,2,0,60,0,0
6250,-133.333333333333,4,2,0,60,0,0
10535,-250,4,2,0,60,0,0
11428,-166.666666666667,4,2,0,60,0,0
11964,-100,4,2,0,60,0,0
23393,-250.000000000001,4,2,0,60,0,0
26250,-200,4,2,0,60,0,0
29107,-166.666666666667,4,2,0,60,0,0
31964,-142.857142857143,4,2,0,60,0,0
34821,-125,4,2,0,60,0,0
46250,-142.857142857143,4,2,0,60,0,0
57678,-111.111111111111,4,2,0,60,0,0
67678,-166.666666666667,4,2,0,60,0,0
69107,-90.9090909090909,4,2,0,60,0,1
79107,-111.111111111111,4,2,0,60,0,0
80535,-90.9090909090909,4,2,0,60,0,1
91964,-111.111111111111,4,2,0,60,0,0
93393,-166.666666666667,4,2,0,60,0,0
94821,-100,4,2,0,60,0,0
106250,-133.333333333333,4,2,0,60,0,0
111964,-200,4,2,0,60,0,0
112321,-133.333333333333,4,2,0,60,0,0
129107,-111.111111111111,4,2,0,60,0,0
140535,-90.9090909090909,4,2,0,60,0,0
146250,-125,4,2,0,60,0,0
149107,-100,4,2,0,60,0,0
150357,-166.666666666667,4,2,0,60,0,0
150625,-166.666666666667,4,2,0,5,0,0
150714,-166.666666666667,4,2,0,60,0,0
150982,-166.666666666667,4,2,0,5,0,0
151071,-166.666666666667,4,2,0,60,0,0
151339,-166.666666666667,4,2,0,5,0,0
151428,-125,4,2,0,60,0,0
151964,-90.9090909090909,4,2,0,60,0,1
161964,-111.111111111111,4,2,0,60,0,0
163392,-90.9090909090909,4,2,0,60,0,1
174821,-111.111111111111,4,2,0,60,0,0
176250,-142.857142857143,4,2,0,60,0,0
177678,-111.111111111111,4,2,0,60,0,0
188393,-166.666666666667,4,2,0,60,0,0
189107,-90.9090909090909,4,2,0,60,0,0
200535,-100,4,2,0,60,0,0
211964,-83.3333333333333,4,2,0,60,0,0
217678,-133.333333333333,4,2,0,60,0,0
220535,-100,4,2,0,60,0,0
221964,-200,4,2,0,60,0,0
234821,-90.9090909090909,4,2,0,60,0,1
246250,-111.111111111111,4,2,0,60,0,0
247678,-166.666666666667,4,2,0,60,0,0
249107,-100,4,2,0,60,0,0
260535,-83.3333333333333,4,2,0,60,0,0
269107,-200,4,2,0,60,0,0

[Colours]
Combo1 : 254,103,242
Combo2 : 10,208,243
Combo3 : 50,17,206
Combo4 : 240,11,240

[HitObjects]
95,159,536,5,0,0:0:0:0:
87,84,714,1,0,0:0:0:0:
149,41,893,5,0,0:0:0:0:
223,147,1071,1,0,0:0:0:0:
216,72,1250,5,0,0:0:0:0:
162,189,1428,1,0,0:0:0:0:
149,41,1607,5,0,0:0:0:0:
223,147,1785,1,0,0:0:0:0:
277,29,1964,5,0,0:0:0:0:
215,72,2143,1,0,0:0:0:0:
290,177,2321,5,0,0:0:0:0:
277,29,2500,1,0,0:0:0:0:
162,189,2678,5,0,0:0:0:0:
344,60,2857,1,0,0:0:0:0:
290,177,3035,5,0,0:0:0:0:
149,41,3214,1,0,0:0:0:0:
216,71,3393,5,0,0:0:0:0:
224,146,3571,1,0,0:0:0:0:
162,189,3750,5,0,0:0:0:0:
88,83,3928,1,0,0:0:0:0:
95,158,4107,5,0,0:0:0:0:
149,41,4285,1,0,0:0:0:0:
162,189,4464,5,0,0:0:0:0:
88,83,4642,1,0,0:0:0:0:
224,146,4821,5,0,0:0:0:0:
216,71,4999,1,0,0:0:0:0:
290,177,5178,5,0,0:0:0:0:
344,60,5357,1,0,0:0:0:0:
419,166,5535,5,0,0:0:0:0:
290,177,5714,1,0,0:0:0:0:
290,177,5803,1,0,0:0:0:0:
290,177,5893,2,0,P|293:212|289:239,1,56.9999982604981
106,354,6250,6,0,B|119:306|91:268|108:212,1,142.500005435944
151,147,6785,1,0,0:0:0:0:
200,251,6964,2,0,P|224:221|256:208,1,71.2500027179719
352,181,7321,2,0,P|319:166|298:138,1,71.2500027179719
250,55,7678,5,0,0:0:0:0:
214,186,7857,1,0,0:0:0:0:
166,103,8035,1,0,0:0:0:0:
298,138,8214,1,0,0:0:0:0:
298,138,8303,1,0,0:0:0:0:
298,138,8393,2,0,P|319:166|352:181,1,71.2500027179719
450,152,8750,1,0,0:0:0:0:
429,253,8928,2,0,L|432:289,1,35.625001358986
420,262,9107,6,0,L|269:274,1,142.500005435944
168,281,9643,1,0,0:0:0:0:
228,349,9821,1,0,0:0:0:0:
227,220,10000,1,0,0:0:0:0:
103,346,10178,1,0,0:0:0:0:
111,218,10357,1,0,0:0:0:0:
335,351,10535,6,0,P|309:282|324:208,1,152
438,35,11428,6,0,L|403:38,1,28.4999991302491
265,56,11607,2,0,B|303:79|303:79|314:129,1,85.4999973907472
350,181,11964,6,0,P|291:188|248:156,1,95
123,38,12321,2,0,L|113:142,1,95
111,155,12589,1,0,0:0:0:0:
109,179,12678,1,0,0:0:0:0:
232,40,12857,1,0,0:0:0:0:
249,183,13035,1,0,0:0:0:0:
216,24,13214,1,0,0:0:0:0:
344,108,13393,5,0,0:0:0:0:
169,256,13571,1,0,0:0:0:0:
347,228,13750,2,0,P|300:255|283:308,1,95
410,350,14107,1,0,0:0:0:0:
396,161,14285,1,0,0:0:0:0:
283,290,14464,2,0,L|274:195,1,95
220,49,14821,5,0,0:0:0:0:
94,144,15000,1,0,0:0:0:0:
269,105,15178,2,0,P|224:122|175:104,1,95
180,108,15446,1,0,0:0:0:0:
180,108,15535,1,0,0:0:0:0:
332,33,15714,1,0,0:0:0:0:
322,178,15893,2,0,L|313:273,1,95
143,337,16250,5,0,0:0:0:0:
140,313,16339,1,0,0:0:0:0:
138,289,16428,1,0,0:0:0:0:
136,266,16517,1,0,0:0:0:0:
134,242,16607,2,0,L|128:189,3,47.5
126,157,16964,1,0,0:0:0:0:
305,199,17143,1,0,0:0:0:0:
134,242,17321,2,0,P|83:262|61:305,1,95
299,355,17678,6,0,B|273:285|329:246|291:164,1,190
161,51,18214,1,0,0:0:0:0:
161,51,18303,1,0,0:0:0:0:
161,51,18393,2,0,P|216:47|256:29,1,95
443,69,18750,2,0,P|388:73|348:91,1,95
297,226,19107,5,0,0:0:0:0:
275,124,19285,1,0,0:0:0:0:
147,239,19464,1,0,0:0:0:0:
170,98,19643,1,0,0:0:0:0:
320,264,19821,1,0,0:0:0:0:
287,79,20000,1,0,0:0:0:0:
130,264,20178,1,0,0:0:0:0:
163,79,20357,1,0,0:0:0:0:
319,188,20535,6,0,P|364:198|392:236,1,95
468,345,20893,2,0,L|478:241,1,95
480,228,21160,1,0,0:0:0:0:
482,204,21249,1,0,0:0:0:0:
492,68,21428,1,0,0:0:0:0:
357,112,21607,2,0,P|309:127|250:116,1,95
152,53,21964,5,0,0:0:0:0:
182,222,22143,1,0,0:0:0:0:
77,152,22321,1,0,0:0:0:0:
249,116,22500,1,0,0:0:0:0:
95,342,22678,5,0,0:0:0:0:
93,318,22767,1,0,0:0:0:0:
91,294,22856,1,0,0:0:0:0:
89,271,22945,1,0,0:0:0:0:
86,247,23035,1,0,0:0:0:0:
84,223,23124,1,0,0:0:0:0:
82,200,23213,1,0,0:0:0:0:
80,176,23302,1,0,0:0:0:0:
77,152,23393,6,0,L|73:99,7,38
144,102,24821,2,0,L|147:49,7,38
226,121,26250,6,0,P|244:145|251:166,7,47.5
174,181,27678,2,0,P|156:205|149:226,7,47.5
282,269,29107,6,0,B|315:260|315:260|332:240,7,56.9999982604981
336,171,30535,2,0,B|369:180|369:180|386:200,7,56.9999982604981
378,331,31964,6,0,P|370:290|374:255,7,66.4999979705811
304,242,33393,2,0,P|312:201|308:166,3,66.4999979705811
296,68,34107,5,0,0:0:0:0:
374,141,34285,2,0,L|371:112,1,28.4999991302491
393,161,34464,2,0,P|352:162|306:180,1,85.4999973907472
231,202,34821,6,0,P|257:242|356:242,1,152
159,116,35357,1,0,0:0:0:0:
159,116,35535,2,0,L|146:267,1,152
138,346,36071,1,0,0:0:0:0:
237,283,36250,2,0,P|283:281|324:311,1,76
458,346,36607,1,0,0:0:0:0:
458,346,36785,2,0,P|420:349|386:334,1,76
438,194,37143,2,0,L|431:281,1,76
346,196,37500,1,0,0:0:0:0:
346,196,37678,6,0,L|332:21,1,152
266,86,38214,1,0,0:0:0:0:
276,218,38393,2,0,P|326:270|396:250,2,152
266,86,39285,1,0,0:0:0:0:
205,190,39464,2,0,P|176:225|121:236,1,76
135,162,39821,1,0,0:0:0:0:
215,304,40000,1,0,0:0:0:0:
276,218,40178,1,0,0:0:0:0:
135,162,40357,1,0,0:0:0:0:
135,162,40535,6,0,B|200:165|217:115|300:121,2,152
8,256,41428,2,0,P|66:245|96:256,1,76
167,346,41785,1,0,0:0:0:0:
271,202,41964,1,0,0:0:0:0:
271,202,42143,1,0,0:0:0:0:
271,202,42321,2,0,P|276:261|301:299,1,76
337,334,42678,1,0,0:0:0:0:
455,286,42857,1,0,0:0:0:0:
271,202,43035,1,0,0:0:0:0:
455,154,43214,1,0,0:0:0:0:
288,121,43393,6,0,P|250:121|215:137,1,76
112,259,43750,2,0,P|130:225|134:188,1,76
80,37,44107,1,0,0:0:0:0:
80,37,44285,2,0,P|99:69|130:91,1,76
288,121,44643,2,0,P|268:153|237:175,1,76
87,216,45000,1,0,0:0:0:0:
270,242,45178,6,0,L|371:251,1,76
470,261,45535,1,0,0:0:0:0:
461,72,45714,1,0,0:0:0:0:
346,249,45893,1,0,0:0:0:0:
308,245,45982,1,0,0:0:0:0:
270,242,46071,1,0,0:0:0:0:
232,239,46160,1,0,0:0:0:0:
194,235,46250,5,0,0:0:0:0:
118,92,46428,2,0,P|114:135|90:172,1,66.4999979705811
194,235,46785,1,0,0:0:0:0:
230,58,46963,2,0,P|234:101|258:138,1,66.4999979705811
373,171,47321,1,0,0:0:0:0:
194,235,47500,1,0,0:0:0:0:
194,235,47589,1,0,0:0:0:0:
194,235,47678,5,0,0:0:0:0:
354,282,47857,1,0,0:0:0:0:
177,308,48035,2,0,P|132:277|124:246,1,66.4999979705811
66,66,48393,2,0,B|71:105|71:105|65:170,1,99.7499969558717
60,187,48750,2,0,L|141:193,1,66.4999979705811
310,228,49107,5,0,0:0:0:0:
143,193,49285,1,0,0:0:0:0:
323,121,49464,1,0,0:0:0:0:
166,196,49643,1,0,0:0:0:0:
340,233,49821,1,0,0:0:0:0:
189,196,50000,1,0,0:0:0:0:
299,131,50178,1,0,0:0:0:0:
254,269,50357,1,0,0:0:0:0:
254,269,50446,1,0,0:0:0:0:
254,269,50535,5,0,0:0:0:0:
266,82,50714,1,0,0:0:0:0:
304,333,50893,2,0,P|238:348|196:324,1,99.7499969558717
189,318,51250,2,0,P|152:341|118:334,1,66.4999979705811
56,347,51518,1,0,0:0:0:0:
56,347,51607,2,0,L|49:264,1,66.4999979705811
183,68,51964,5,0,0:0:0:0:
147,226,52143,2,0,P|146:190|132:152,1,66.4999979705811
183,68,52500,1,0,0:0:0:0:
245,253,52678,2,0,P|246:217|260:179,1,66.4999979705811
348,117,53035,1,0,0:0:0:0:
183,68,53214,1,0,0:0:0:0:
183,68,53303,1,0,0:0:0:0:
183,68,53393,5,0,0:0:0:0:
255,188,53571,1,0,0:0:0:0:
270,23,53750,2,0,L|263:97,1,66.4999979705811
238,297,54107,1,0,0:0:0:0:
354,174,54285,1,0,0:0:0:0:
190,200,54464,1,0,0:0:0:0:
349,278,54643,1,0,0:0:0:0:
349,278,54732,1,0,0:0:0:0:
349,278,54821,6,0,P|405:278|434:248,1,99.7499969558717
443,224,55178,1,0,0:0:0:0:
301,354,55357,2,0,P|268:348|244:326,1,66.4999979705811
234,142,55714,1,0,0:0:0:0:
170,228,55893,1,0,0:0:0:0:
349,278,56071,1,0,0:0:0:0:
342,169,56250,1,0,0:0:0:0:
244,326,56428,1,0,0:0:0:0:
311,88,56607,5,0,0:0:0:0:
234,142,56785,1,0,0:0:0:0:
234,142,56875,1,0,0:0:0:0:
234,142,56964,1,0,0:0:0:0:
237,56,57143,1,0,0:0:0:0:
277,247,57321,2,0,P|216:255|158:224,1,99.7499969558717
116,152,57678,6,0,P|118:217|64:277,1,128.249996086121
53,282,58035,1,0,0:0:0:0:
181,242,58214,1,0,0:0:0:0:
61,104,58393,2,0,P|96:80|138:84,1,85.4999973907472
272,186,58750,2,0,P|234:167|216:129,1,85.4999973907472
392,67,59107,6,0,L|379:194,1,128.249996086121
376,227,59464,1,0,0:0:0:0:
284,117,59643,1,0,0:0:0:0:
462,139,59821,1,0,0:0:0:0:
376,227,60000,2,0,L|310:232,1,42.7499986953736
255,250,60178,2,0,L|189:244,1,42.7499986953736
134,227,60357,1,0,0:0:0:0:
256,55,60535,6,0,P|276:115|277:179,1,128.249996086121
272,205,60893,1,0,0:0:0:0:
384,106,61071,1,0,0:0:0:0:
204,128,61250,2,0,P|178:161|170:203,1,85.4999973907472
170,203,61518,1,0,0:0:0:0:
170,203,61607,1,0,0:0:0:0:
262,342,61785,1,0,0:0:0:0:
349,191,61964,6,0,P|374:224|382:266,1,85.4999973907472
382,266,62232,1,0,0:0:0:0:
382,266,62321,1,0,0:0:0:0:
262,342,62500,1,0,0:0:0:0:
489,201,62678,1,0,0:0:0:0:
448,212,62767,1,0,0:0:0:0:
405,207,62856,1,0,0:0:0:0:
363,200,62945,1,0,0:0:0:0:
321,208,63035,1,0,0:0:0:0:
321,208,63125,1,0,0:0:0:0:
321,208,63214,2,0,L|323:250,1,42.7499986953736
249,346,63393,6,0,L|240:218,1,128.249996086121
239,189,63750,1,0,0:0:0:0:
229,59,63928,1,0,0:0:0:0:
119,225,64107,2,0,L|126:135,1,85.4999973907472
126,139,64375,1,0,0:0:0:0:
126,139,64464,1,0,0:0:0:0:
140,24,64643,1,0,0:0:0:0:
178,278,64821,5,0,0:0:0:0:
141,298,64910,1,0,0:0:0:0:
98,299,64999,1,0,0:0:0:0:
61,279,65088,1,0,0:0:0:0:
38,244,65178,1,0,0:0:0:0:
51,227,65268,1,0,0:0:0:0:
61,208,65357,1,0,0:0:0:0:
64,187,65446,1,0,0:0:0:0:
63,166,65535,2,0,L|59:121,3,42.7499986953736
127,90,65893,2,0,L|130:45,3,42.7499986953736
279,13,66250,6,0,L|271:98,1,85.4999973907472
264,184,66607,1,0,0:0:0:0:
127,90,66785,2,0,L|134:175,1,85.4999973907472
142,261,67142,1,0,0:0:0:0:
353,134,67321,2,0,L|345:219,1,85.4999973907472
337,304,67678,6,0,P|413:273|431:193,1,170.999994781494
431,193,68571,6,0,L|432:164,1,28.4999991302491
404,182,68750,2,0,L|405:153,1,28.4999991302491
377,171,68928,2,0,L|378:142,1,28.4999991302491
310,45,69107,6,0,L|306:149,1,104.500003189087
210,292,69464,2,0,L|206:188,1,104.500003189087
201,61,69821,1,0,0:0:0:0:
90,139,70000,1,0,0:0:0:0:
283,268,70178,2,0,P|282:319|251:361,1,104.500003189087
90,139,70535,6,0,P|91:190|122:231,1,104.500003189087
305,149,70893,1,0,0:0:0:0:
283,268,71071,1,0,0:0:0:0:
170,159,71250,1,0,0:0:0:0:
210,292,71428,1,0,0:0:0:0:
240,97,71607,2,0,P|311:68|375:108,1,156.750004783631
305,149,71964,6,0,B|336:222|277:276|313:354,1,209.000006378174
385,299,72500,1,0,0:0:0:0:
234,202,72678,1,0,0:0:0:0:
305,149,72857,1,0,0:0:0:0:
312,353,73035,2,0,P|253:348|214:302,1,104.500003189087
173,142,73393,5,0,0:0:0:0:
234,202,73571,1,0,0:0:0:0:
109,304,73750,1,0,0:0:0:0:
98,115,73928,2,0,P|130:74|182:63,1,104.500003189087
333,83,74285,1,0,0:0:0:0:
173,142,74464,2,0,P|205:182|257:193,1,104.500003189087
472,146,74821,5,0,0:0:0:0:
254,193,75000,1,0,0:0:0:0:
387,71,75178,1,0,0:0:0:0:
280,193,75357,1,0,0:0:0:0:
451,174,75535,2,0,P|449:230|424:280,1,104.500003189087
257,93,75893,2,0,P|259:149|284:199,1,104.500003189087
409,57,76250,5,0,0:0:0:0:
341,229,76428,2,0,L|232:238,1,104.500003189087
68,309,76785,2,0,L|176:318,1,104.500003189087
299,334,77143,1,0,0:0:0:0:
126,235,77321,1,0,0:0:0:0:
282,151,77500,1,0,0:0:0:0:
61,292,77678,6,0,P|42:222|103:150,1,156.750004783631
114,140,78035,2,0,P|113:87|161:43,1,104.500003189087
166,44,78303,1,0,0:0:0:0:
166,44,78393,1,0,0:0:0:0:
282,151,78571,1,0,0:0:0:0:
121,244,78750,2,0,L|113:139,1,104.500003189087
272,37,79107,6,0,L|277:94,1,42.7499986953736
282,151,79285,1,0,0:0:0:0:
283,172,79374,1,0,0:0:0:0:
285,193,79463,1,0,0:0:0:0:
287,214,79552,1,0,0:0:0:0:
289,236,79643,6,0,P|241:231|196:253,1,85.4999973907472
141,311,80000,1,0,0:0:0:0:
337,325,80178,1,0,0:0:0:0:
367,295,80267,1,0,0:0:0:0:
383,255,80356,1,0,0:0:0:0:
382,213,80445,1,0,0:0:0:0:
363,175,80535,6,0,P|398:130|446:112,1,104.500003189087
279,112,80893,2,0,P|244:157|196:175,1,104.500003189087
49,159,81250,1,0,0:0:0:0:
174,59,81428,1,0,0:0:0:0:
160,244,81607,2,0,L|150:355,1,104.500003189087
358,114,81964,6,0,L|367:225,1,104.500003189087
234,280,82321,1,0,0:0:0:0:
242,109,82500,1,0,0:0:0:0:
370,239,82678,1,0,0:0:0:0:
355,98,82857,1,0,0:0:0:0:
309,327,83035,2,0,P|268:360|217:364,1,104.500003189087
85,323,83393,6,0,B|163:324|164:280|239:279,1,156.750004783631
233,279,83750,2,0,P|220:228|236:179,1,104.500003189087
345,75,84107,1,0,0:0:0:0:
320,234,84285,1,0,0:0:0:0:
156,64,84464,2,0,P|168:114|152:163,1,104.500003189087
60,224,84821,5,0,0:0:0:0:
236,179,85000,1,0,0:0:0:0:
70,111,85178,1,0,0:0:0:0:
286,111,85357,2,0,P|317:159|310:221,1,104.500003189087
294,334,85714,1,0,0:0:0:0:
445,167,85893,2,0,P|414:215|421:277,1,104.500003189087
234,180,86250,5,0,0:0:0:0:
295,317,86428,1,0,0:0:0:0:
340,130,86607,1,0,0:0:0:0:
294,297,86785,1,0,0:0:0:0:
231,165,86964,2,0,P|225:112|187:59,1,104.500003189087
44,238,87321,1,0,0:0:0:0:
85,106,87500,1,0,0:0:0:0:
174,245,87678,6,0,L|289:255,1,104.500003189087
394,266,88035,1,0,0:0:0:0:
235,357,88214,2,0,L|350:346,1,104.500003189087
451,339,88571,1,0,0:0:0:0:
278,254,88750,2,0,L|174:245,1,104.500003189087
467,266,89107,5,0,0:0:0:0:
457,78,89285,1,0,0:0:0:0:
356,224,89464,1,0,0:0:0:0:
449,98,89643,1,0,0:0:0:0:
469,289,89821,2,0,P|425:330|381:333,1,104.500003189087
441,117,90178,1,0,0:0:0:0:
341,244,90357,1,0,0:0:0:0:
436,139,90535,6,0,B|377:127|377:127|269:133,1,156.750004783631
280,132,90893,2,0,P|223:104|207:51,1,104.500003189087
297,49,91250,1,0,0:0:0:0:
165,167,91428,1,0,0:0:0:0:
200,39,91607,1,0,0:0:0:0:
281,212,91785,1,0,0:0:0:0:
281,212,91875,1,0,0:0:0:0:
281,212,91964,6,0,P|281:264|259:303,1,85.4999973907472
200,336,92321,1,0,0:0:0:0:
343,309,92500,1,0,0:0:0:0:
176,240,92678,1,0,0:0:0:0:
393,185,92857,1,0,0:0:0:0:
112,131,93035,1,0,0:0:0:0:
421,72,93214,1,0,0:0:0:0:
48,17,93393,6,0,P|-7:154|98:257,1,313.49999043274
275,150,94464,5,0,0:0:0:0:
275,150,94821,5,0,0:0:0:0:
302,260,95000,1,0,0:0:0:0:
419,109,95178,1,0,0:0:0:0:
407,287,95357,1,0,0:0:0:0:
287,158,95535,1,0,0:0:0:0:
415,297,95714,1,0,0:0:0:0:
432,108,95893,1,0,0:0:0:0:
309,249,96071,1,0,0:0:0:0:
181,87,96250,6,0,B|173:185|173:185|158:237,1,142.5
145,262,96607,2,0,P|199:261|241:291,1,95
307,359,96964,1,0,0:0:0:0:
247,199,97143,1,0,0:0:0:0:
80,321,97321,2,0,P|58:252|71:217,1,95
200,107,97678,5,0,0:0:0:0:
145,262,97857,1,0,0:0:0:0:
76,119,98035,1,0,0:0:0:0:
232,280,98214,1,0,0:0:0:0:
283,116,98393,2,0,P|251:40|136:50,1,190
145,262,98928,1,0,0:0:0:0:
200,107,99107,1,0,0:0:0:0:
232,280,99285,1,0,0:0:0:0:
153,35,99464,2,0,P|198:21|243:34,1,95
448,115,99821,5,0,0:0:0:0:
445,139,99910,1,0,0:0:0:0:
443,163,99999,1,0,0:0:0:0:
441,186,100088,1,0,0:0:0:0:
467,202,100178,1,0,0:0:0:0:
470,226,100267,1,0,0:0:0:0:
472,250,100356,1,0,0:0:0:0:
474,273,100445,1,0,0:0:0:0:
476,297,100535,6,0,B|371:305|371:305|311:302,1,142.5
309,303,100893,2,0,P|324:248|309:200,1,95
182,99,101250,1,0,0:0:0:0:
241,248,101428,1,0,0:0:0:0:
319,89,101607,1,0,0:0:0:0:
315,212,101785,1,0,0:0:0:0:
175,10,101964,6,0,P|114:44|95:111,1,142.5
95,134,102321,2,0,P|71:182|80:232,1,95
203,328,102678,1,0,0:0:0:0:
52,308,102857,1,0,0:0:0:0:
162,194,103035,1,0,0:0:0:0:
122,367,103214,1,0,0:0:0:0:
243,243,103393,6,0,P|253:178|238:134,1,95
383,42,103750,2,0,P|373:107|388:151,1,95
454,310,104107,2,0,P|384:298|314:312,1,142.5
296,324,104464,2,0,L|196:315,1,95
66,106,104821,2,0,L|165:114,1,95
284,306,105178,2,0,L|184:297,1,95
80,122,105535,5,0,0:0:0:0:
103,124,105624,1,0,0:0:0:0:
127,126,105713,1,0,0:0:0:0:
150,128,105802,1,0,0:0:0:0:
169,145,105893,1,0,0:0:0:0:
204,141,105982,1,0,0:0:0:0:
239,138,106071,1,0,0:0:0:0:
275,135,106160,1,0,0:0:0:0:
310,132,106250,5,0,0:0:0:0:
189,297,106785,1,0,0:0:0:0:
106,109,107321,1,0,0:0:0:0:
251,214,107678,5,0,0:0:0:0:
395,108,107856,5,0,0:0:0:0:
191,130,108393,1,0,0:0:0:0:
312,296,108750,5,2,0:0:0:0:
312,296,108839,2,0,P|364:311|392:303,1,71.2500027179719
354,237,109107,6,0,P|297:226|241:297,1,142.500005435944
174,360,109643,1,0,0:0:0:0:
161,211,109821,2,0,L|154:113,1,71.2500027179719
86,115,110089,1,0,0:0:0:0:
86,115,110178,2,0,L|90:186,1,71.2500027179719
81,319,110535,6,0,B|98:319|98:319|116:317,3,35.625001358986
180,283,110893,2,0,B|197:282|197:282|215:284,3,35.625001358986
292,340,111250,2,0,P|305:309|306:271,1,71.2500027179719
247,124,111607,1,0,0:0:0:0:
238,139,111696,1,0,0:0:0:0:
233,156,111785,1,0,0:0:0:0:
231,174,111874,1,0,0:0:0:0:
232,192,111964,6,0,L|148:185,1,71.25
84,180,112321,6,0,P|88:221|181:261,1,142.500005435944
311,237,112857,1,0,0:0:0:0:
229,335,113035,1,0,0:0:0:0:
242,194,113214,2,0,L|248:115,1,71.2500027179719
324,247,113571,5,0,0:0:0:0:
242,345,113749,1,0,0:0:0:0:
255,204,113928,2,0,L|261:125,1,71.2500027179719
398,46,114285,5,0,0:0:0:0:
408,202,114464,1,0,0:0:0:0:
267,47,114643,1,0,0:0:0:0:
255,204,114821,2,0,B|213:194|213:194|134:192,1,106.875004076958
127,194,115178,6,0,P|136:237|76:314,1,142.500005435944
49,229,115714,1,0,0:0:0:0:
203,292,115893,1,0,0:0:0:0:
180,128,116071,2,0,P|147:114|111:112,1,71.2500027179719
27,154,116428,1,0,0:0:0:0:
207,214,116607,6,0,P|239:227|275:229,1,71.2500027179719
415,209,116964,1,0,0:0:0:0:
349,122,117143,1,0,0:0:0:0:
339,327,117321,1,0,0:0:0:0:
349,122,117500,1,0,0:0:0:0:
349,122,117589,1,0,0:0:0:0:
349,122,117678,6,0,B|276:134|262:93|182:112,1,142.500005435944
131,125,118214,1,0,0:0:0:0:
218,281,118393,2,0,P|236:232|227:180,1,106.875004076958
220,159,118750,2,0,P|232:121|228:83,1,71.2500027179719
149,241,119107,6,0,P|137:279|141:317,1,71.2500027179719
207,366,119464,1,0,0:0:0:0:
288,288,119643,2,0,L|217:281,1,71.2500027179719
78,247,120000,2,0,L|148:240,1,71.2500027179719
286,224,120357,1,0,0:0:0:0:
175,45,120535,6,0,P|171:121|111:172,1,142.500005435944
81,83,121071,1,0,0:0:0:0:
263,97,121250,2,0,L|341:103,1,71.2500027179719
443,163,121607,1,0,0:0:0:0:
445,58,121785,1,0,0:0:0:0:
375,203,121964,6,0,P|422:239|477:236,1,106.875004076958
499,227,122321,2,0,P|481:263|481:294,1,71.2500027179719
369,374,122678,2,0,P|387:338|387:307,1,71.2500027179719
361,178,123035,1,0,0:0:0:0:
361,178,123125,1,0,0:0:0:0:
361,178,123214,2,0,L|310:173,1,35.625001358986
192,234,123393,6,0,L|298:243,1,106.875004076958
328,246,123750,2,0,P|328:282|341:315,1,71.2500027179719
442,347,124107,1,0,0:0:0:0:
388,183,124285,2,0,P|356:165|321:160,1,71.2500027179719
225,243,124643,1,0,0:0:0:0:
225,243,124821,6,0,P|237:177|214:88,1,142.500005435944
102,37,125357,2,0,P|88:75|83:112,1,71.2500027179719
215,32,125714,1,0,0:0:0:0:
153,189,125893,1,0,0:0:0:0:
269,128,126071,1,0,0:0:0:0:
97,265,126250,6,0,P|147:279|199:269,1,106.875004076958
224,261,126607,2,0,P|266:274|306:271,1,71.2500027179719
375,230,126964,1,0,0:0:0:0:
177,192,127143,2,0,P|219:179|259:182,1,71.2500027179719
338,326,127500,6,0,P|305:296|288:259,1,71.2500027179719
373,119,127857,1,0,0:0:0:0:
373,119,128035,2,0,P|363:161|340:195,1,71.2500027179719
292,272,128393,1,0,0:0:0:0:
245,179,128571,2,0,L|203:182,1,35.625001358986
56,191,128750,5,0,0:0:0:0:
90,184,128839,1,0,0:0:0:0:
120,164,128928,1,0,0:0:0:0:
139,134,129017,1,0,0:0:0:0:
145,100,129107,5,0,0:0:0:0:
244,262,129285,2,0,P|236:211|248:171,1,85.4999973907472
137,68,129643,1,0,0:0:0:0:
90,267,129821,2,0,P|98:216|86:176,1,85.4999973907472
28,326,130178,5,0,0:0:0:0:
182,312,130357,2,0,L|283:304,1,85.4999973907472
89,183,130714,1,0,0:0:0:0:
243,197,130893,2,0,L|344:204,1,85.4999973907472
462,166,131250,1,0,0:0:0:0:
405,271,131428,1,0,0:0:0:0:
410,53,131607,2,0,P|361:87|274:72,1,128.249996086121
213,36,131964,5,0,0:0:0:0:
208,84,132143,1,0,0:0:0:0:
95,202,132321,1,0,0:0:0:0:
90,155,132500,1,0,0:0:0:0:
213,274,132678,1,0,0:0:0:0:
208,322,132857,1,0,0:0:0:0:
90,155,133035,5,0,0:0:0:0:
246,204,133214,2,0,P|285:254|287:301,1,85.4999973907472
128,348,133571,1,0,0:0:0:0:
171,192,133750,2,0,P|200:142|234:128,1,85.4999973907472
299,112,134018,1,0,0:0:0:0:
299,112,134107,2,0,P|270:62|236:48,1,85.4999973907472
288,274,134464,6,0,B|369:302|382:242|454:265,1,170.999994781494
232,325,135000,2,0,P|217:285|221:243,1,85.4999973907472
270,142,135357,1,0,0:0:0:0:
114,257,135535,2,0,P|128:217|124:175,1,85.4999973907472
76,74,135892,5,0,0:0:0:0:
221,243,136071,2,0,P|242:206|277:183,1,85.4999973907472
329,102,136428,1,0,0:0:0:0:
124,175,136607,2,0,P|102:138|67:115,1,85.4999973907472
3,89,136875,1,0,0:0:0:0:
3,89,136964,2,0,P|38:65|59:29,1,85.4999973907472
124,175,137321,2,0,L|130:275,1,85.4999973907472
379,302,137678,6,0,L|388:175,1,128.249996086121
391,134,138035,1,0,0:0:0:0:
264,226,138214,1,0,0:0:0:0:
264,226,138303,1,0,0:0:0:0:
264,226,138393,2,0,P|222:248|172:241,1,85.4999973907472
112,148,138750,1,0,0:0:0:0:
300,156,138928,2,0,P|335:190|342:244,1,85.4999973907472
382,343,139285,1,0,0:0:0:0:
425,197,139464,2,0,P|437:156|468:128,1,85.4999973907472
241,225,139821,6,0,P|217:146|254:71,1,170.999994781494
222,73,140267,1,0,0:0:0:0:
190,76,140356,1,0,0:0:0:0:
158,78,140445,1,0,0:0:0:0:
123,81,140535,5,0,0:0:0:0:
182,236,140714,1,0,0:0:0:0:
190,76,140893,2,0,P|253:82|289:110,1,104.500003189087
396,253,141250,2,0,B|359:175|423:129|376:43,1,209.000006378174
285,105,141785,1,0,0:0:0:0:
475,307,141964,6,0,P|489:257|476:208,1,104.500003189087
284,105,142321,2,0,P|271:154|285:204,1,104.500003189087
493,314,142678,2,0,P|502:263|488:214,1,104.500003189087
271,98,143035,2,0,P|257:147|266:198,1,104.500003189087
266,198,143303,1,0,0:0:0:0:
266,198,143393,5,0,0:0:0:0:
205,351,143571,1,0,0:0:0:0:
123,180,143750,1,0,0:0:0:0:
208,328,143928,1,0,0:0:0:0:
283,148,144107,1,0,0:0:0:0:
208,304,144285,1,0,0:0:0:0:
116,153,144464,1,0,0:0:0:0:
214,360,144643,1,0,0:0:0:0:
214,360,144732,1,0,0:0:0:0:
214,360,144821,6,0,P|265:353|304:320,1,104.500003189087
324,286,145089,2,0,P|272:279|233:246,1,104.500003189087
218,167,145357,5,0,0:0:0:0:
218,167,145446,1,0,0:0:0:0:
218,167,145535,2,0,P|174:192|153:239,1,104.500003189087
173,305,145803,2,0,P|152:257|107:232,1,104.500003189087
37,226,146071,1,0,0:0:0:0:
224,237,146250,6,0,B|296:244|296:244|384:227,1,152
374,228,146785,1,0,0:0:0:0:
397,160,146964,5,0,0:0:0:0:
455,220,147143,1,0,0:0:0:0:
355,311,147321,1,0,0:0:0:0:
311,147,147500,1,0,0:0:0:0:
466,333,147678,5,0,0:0:0:0:
259,252,147857,1,0,0:0:0:0:
424,96,148035,1,0,0:0:0:0:
335,345,148214,1,0,0:0:0:0:
281,111,148393,5,0,0:0:0:0:
502,225,148571,1,0,0:0:0:0:
254,250,148750,1,0,0:0:0:0:
424,96,148928,1,0,0:0:0:0:
410,326,149107,5,0,0:0:0:0:
373,198,149285,1,0,0:0:0:0:
373,198,149375,1,0,0:0:0:0:
373,198,149464,1,0,0:0:0:0:
233,325,149643,5,0,0:0:0:0:
273,161,149821,1,0,0:0:0:0:
273,161,149911,1,0,0:0:0:0:
273,161,150000,1,0,0:0:0:0:
47,252,150178,5,0,0:0:0:0:
203,86,150357,6,0,L|296:78,1,85.4999973907472
358,153,150714,2,0,L|272:160,1,85.4999973907472
341,234,151071,2,0,L|427:227,1,85.4999973907472
483,169,151428,6,0,B|497:177|497:177|509:193,10,19
358,153,151964,6,0,L|248:161,1,104.500003189087
83,71,152321,2,0,L|193:79,1,104.500003189087
323,86,152678,1,0,0:0:0:0:
295,243,152857,1,0,0:0:0:0:
187,78,153035,2,0,P|175:135|188:197,1,104.500003189087
415,35,153393,6,0,P|427:92|414:154,1,104.500003189087
363,298,153750,2,0,P|401:261|452:246,1,104.500003189087
454,350,154107,1,0,0:0:0:0:
356,186,154285,1,0,0:0:0:0:
275,349,154464,2,0,B|273:283|273:283|258:263|258:263|257:192,1,156.750004783631
255,126,154821,6,0,P|216:160|165:167,1,104.500003189087
55,72,155178,1,0,0:0:0:0:
181,88,155357,1,0,0:0:0:0:
145,267,155535,1,0,0:0:0:0:
165,167,155714,1,0,0:0:0:0:
237,235,155893,2,0,P|181:270|130:262,1,104.500003189087
309,163,156250,6,0,P|328:262|264:340,1,209.000006378174
236,111,156785,2,0,P|291:78|346:85,1,104.500003189087
414,131,157143,1,0,0:0:0:0:
255,195,157321,2,0,P|203:192|145:106,1,156.750004783631
191,12,157678,5,0,0:0:0:0:
50,78,157857,1,0,0:0:0:0:
236,111,158035,1,0,0:0:0:0:
73,78,158214,1,0,0:0:0:0:
295,55,158393,2,0,P|315:122|293:168,1,104.500003189087
162,198,158750,1,0,0:0:0:0:
246,299,158928,1,0,0:0:0:0:
106,263,159107,5,0,0:0:0:0:
296,229,159285,2,0,P|330:277|329:334,1,104.500003189087
425,228,159643,2,0,P|429:176|461:135,1,104.500003189087
512,216,160000,1,0,0:0:0:0:
358,126,160178,1,0,0:0:0:0:
477,38,160357,1,0,0:0:0:0:
477,38,160535,6,0,B|417:57|388:15|321:36,1,156.750004783631
295,45,160893,2,0,P|234:52|184:38,1,104.500003189087
78,149,161250,1,0,0:0:0:0:
104,40,161428,1,0,0:0:0:0:
160,179,161607,2,0,P|118:229|65:240,1,104.500003189087
192,41,161964,5,0,0:0:0:0:
242,209,162143,2,0,L|237:162,1,42.7499986953736
248,222,162500,6,0,P|305:198|358:205,1,85.4999973907472
402,265,162857,1,0,0:0:0:0:
221,312,163035,1,0,0:0:0:0:
186,286,163124,1,0,0:0:0:0:
165,249,163213,1,0,0:0:0:0:
161,207,163302,1,0,0:0:0:0:
175,167,163393,6,0,L|289:156,1,104.500003189087
442,80,163750,2,0,L|327:69,1,104.500003189087
226,20,164107,1,0,0:0:0:0:
175,167,164285,1,0,0:0:0:0:
67,33,164464,2,0,P|71:92|54:147,1,104.500003189087
286,260,164821,6,0,P|273:209|278:157,1,104.500003189087
422,285,165178,2,0,P|393:352|337:377,1,104.500003189087
217,347,165535,1,0,0:0:0:0:
336,290,165714,1,0,0:0:0:0:
185,277,165893,2,0,B|75:275|75:275|25:286,1,156.750004783631
29,285,166250,6,0,P|39:216|26:163,1,104.500003189087
156,40,166607,2,0,P|146:91|152:142,1,104.500003189087
185,277,166964,1,0,0:0:0:0:
268,197,167143,1,0,0:0:0:0:
189,363,167321,2,0,P|120:333|105:243,1,156.750004783631
107,222,167678,6,0,P|79:172|89:123,1,104.500003189087
197,56,168035,1,0,0:0:0:0:
196,55,168214,2,0,L|301:65,1,104.500003189087
412,77,168571,1,0,0:0:0:0:
153,161,168750,2,0,L|257:151,1,104.500003189087
474,129,169107,5,0,0:0:0:0:
389,313,169285,1,0,0:0:0:0:
320,143,169464,1,0,0:0:0:0:
390,289,169643,1,0,0:0:0:0:
479,115,169821,1,0,0:0:0:0:
387,173,170000,1,0,0:0:0:0:
486,256,170178,2,0,P|433:285|357:280,1,104.500003189087
196,178,170535,6,0,P|204:279|130:348,1,209.000006378174
51,272,171071,2,0,P|25:198|47:153,1,104.500003189087
83,97,171428,1,0,0:0:0:0:
149,251,171607,2,0,P|155:303|130:348,1,104.500003189087
115,172,171964,5,0,0:0:0:0:
274,262,172143,1,0,0:0:0:0:
130,348,172321,1,0,0:0:0:0:
307,264,172500,1,0,0:0:0:0:
142,174,172678,1,0,0:0:0:0:
204,261,172857,1,0,0:0:0:0:
217,121,173035,2,0,L|225:11,1,104.500003189087
370,148,173393,6,0,L|352:375,1,209.000006378174
183,248,173928,2,0,P|244:257|290:244,1,104.500003189087
370,148,174285,1,0,0:0:0:0:
151,160,174464,2,0,P|112:194|87:240,1,104.500003189087
284,246,174821,6,0,B|273:155|308:170|282:74,1,170.999994781494
229,21,175357,1,0,0:0:0:0:
206,99,175535,1,0,0:0:0:0:
282,76,175714,1,0,0:0:0:0:
146,42,175893,1,0,0:0:0:0:
176,237,176072,1,0,0:0:0:0:
364,44,176250,6,0,P|470:118|365:315,1,365.749988838196
176,237,177321,5,0,0:0:0:0:
162,224,177678,6,0,B|126:203|81:218|81:218|91:166|57:121,1,170.999994781494
31,63,178214,1,0,0:0:0:0:
6,189,178393,1,0,0:0:0:0:
36,44,178750,5,0,0:0:0:0:
162,224,179285,1,0,0:0:0:0:
255,25,179821,1,0,0:0:0:0:
310,88,180000,6,0,P|335:42|332:5,1,85.4999973907472
138,146,180357,2,0,P|138:188|161:223,1,85.4999973907472
275,270,180714,1,0,0:0:0:0:
214,162,180893,1,0,0:0:0:0:
165,322,181071,5,0,0:0:0:0:
376,221,181607,1,0,0:0:0:0:
183,88,182143,1,0,0:0:0:0:
262,113,182321,5,0,0:0:0:0:
244,32,182500,1,0,0:0:0:0:
204,164,182678,2,0,P|229:183|300:182,1,85.4999973907472
420,72,183035,1,0,0:0:0:0:
406,112,183124,1,0,0:0:0:0:
402,155,183213,1,0,0:0:0:0:
407,197,183302,1,0,0:0:0:0:
420,237,183393,6,0,P|344:250|287:333,1,170.999994781494
354,362,183928,1,0,0:0:0:0:
251,238,184107,2,0,P|210:205|155:198,1,85.4999973907472
97,209,184464,1,0,0:0:0:0:
97,209,184643,2,0,P|96:156|87:121,1,85.4999973907472
174,166,185000,2,0,P|175:113|184:78,1,85.4999973907472
228,21,185357,1,0,0:0:0:0:
258,181,185535,2,0,P|240:219|206:245,1,85.4999973907472
174,166,185893,1,0,0:0:0:0:
174,166,186071,1,0,0:0:0:0:
364,203,186250,6,0,P|417:268|407:357,1,170.999994781494
342,323,186785,1,0,0:0:0:0:
302,147,186964,2,0,P|339:126|381:123,1,85.4999973907472
251,76,187321,1,0,0:0:0:0:
445,70,187500,2,0,P|407:49|365:46,1,85.4999973907472
251,76,187857,1,0,0:0:0:0:
302,147,188035,1,0,0:0:0:0:
365,46,188214,1,0,0:0:0:0:
218,155,188393,6,0,L|216:169,1,14.2499995651245
279,223,188660,6,0,L|277:237,1,14.2499995651245
340,291,188928,6,0,L|338:305,1,14.2499995651245
218,155,189107,6,0,P|208:233|66:301,1,209.000006378174
64,241,189643,1,0,0:0:0:0:
152,119,189821,2,0,P|198:82|251:85,1,104.500003189087
357,197,190178,5,0,0:0:0:0:
382,89,190357,1,0,0:0:0:0:
268,191,190535,1,0,0:0:0:0:
241,81,190714,1,0,0:0:0:0:
418,153,190893,2,0,P|430:200|409:257,1,104.500003189087
306,344,191250,5,0,0:0:0:0:
306,344,191428,1,0,0:0:0:0:
168,281,191607,1,0,0:0:0:0:
168,281,191785,1,0,0:0:0:0:
357,197,191964,6,0,L|246:188,1,104.500003189087
408,137,192321,1,0,0:0:0:0:
227,120,192500,1,0,0:0:0:0:
357,197,192678,2,0,L|246:188,1,104.500003189087
122,128,193035,6,0,L|232:119,1,104.500003189087
71,68,193392,1,0,0:0:0:0:
252,51,193571,1,0,0:0:0:0:
122,128,193749,2,0,L|232:119,1,104.500003189087
412,189,194107,6,0,L|407:136,1,52.2500015945435
221,171,194285,2,0,L|225:118,1,52.2500015945435
429,221,194464,2,0,L|423:160,1,52.2500015945435
205,199,194642,2,0,L|210:138,1,52.2500015945435
447,236,194821,6,0,P|424:310|303:351,1,209.000006378174
337,279,195357,1,0,0:0:0:0:
205,199,195535,2,0,P|209:250|199:301,1,104.500003189087
76,196,195893,1,0,0:0:0:0:
107,62,196071,1,0,0:0:0:0:
205,199,196250,1,0,0:0:0:0:
186,82,196428,1,0,0:0:0:0:
76,196,196607,2,0,P|71:247|81:298,1,104.500003189087
234,184,196964,5,0,0:0:0:0:
304,155,197143,1,0,0:0:0:0:
239,206,197321,1,0,0:0:0:0:
309,177,197500,1,0,0:0:0:0:
90,89,197678,5,0,0:0:0:0:
128,79,197767,1,0,0:0:0:0:
166,69,197856,1,0,0:0:0:0:
204,71,197945,1,0,0:0:0:0:
244,74,198035,1,0,0:0:0:0:
355,191,198214,5,0,0:0:0:0:
343,153,198303,1,0,0:0:0:0:
340,114,198392,1,0,0:0:0:0:
347,76,198481,1,0,0:0:0:0:
363,40,198571,1,0,0:0:0:0:
247,184,198750,6,0,L|251:239,1,52.2500015945435
176,233,198928,2,0,L|171:288,1,52.2500015945435
98,271,199107,1,0,0:0:0:0:
52,72,199285,6,0,L|47:127,1,52.2500015945435
123,121,199463,2,0,L|127:176,1,52.2500015945435
201,159,199642,1,0,0:0:0:0:
348,51,199821,5,0,0:0:0:0:
350,77,199910,1,0,0:0:0:0:
340,104,199999,1,0,0:0:0:0:
337,130,200088,1,0,0:0:0:0:
348,157,200178,1,0,0:0:0:0:
351,183,200266,1,0,0:0:0:0:
340,210,200357,1,0,0:0:0:0:
337,236,200446,1,0,0:0:0:0:
360,270,200535,6,0,B|276:242|266:297|172:268,1,190
167,169,201071,1,0,0:0:0:0:
167,169,201250,2,0,P|85:209|76:300,1,190
151,318,201785,1,0,0:0:0:0:
241,226,201964,6,0,P|254:169|235:107,1,95
335,226,202321,2,0,P|322:283|341:345,1,95
423,201,202678,2,0,P|404:148|368:126,1,95
247,133,203035,2,0,P|266:80|302:58,1,95
289,201,203393,5,0,0:0:0:0:
235,282,203571,1,0,0:0:0:0:
191,184,203750,1,0,0:0:0:0:
235,292,203928,1,0,0:0:0:0:
241,113,204107,5,0,0:0:0:0:
289,201,204285,1,0,0:0:0:0:
177,184,204464,1,0,0:0:0:0:
300,204,204643,1,0,0:0:0:0:
156,275,204821,5,0,0:0:0:0:
181,169,205000,1,0,0:0:0:0:
235,307,205178,1,0,0:0:0:0:
185,155,205357,1,0,0:0:0:0:
152,289,205535,5,0,0:0:0:0:
148,308,205714,1,0,0:0:0:0:
304,223,205893,1,0,0:0:0:0:
300,204,206072,1,0,0:0:0:0:
151,52,206250,6,0,P|140:152|66:226,1,190
32,159,206785,1,0,0:0:0:0:
201,192,206964,2,0,B|277:224|314:161|390:186,1,190
418,264,207500,1,0,0:0:0:0:
442,113,207678,6,0,P|470:170|471:211,1,95
336,43,208035,2,0,P|308:100|307:141,1,95
338,218,208393,1,0,0:0:0:0:
338,218,208571,1,0,0:0:0:0:
187,137,208750,2,0,P|215:194|216:235,1,95
81,337,209107,5,0,0:0:0:0:
74,309,209285,1,0,0:0:0:0:
217,224,209464,1,0,0:0:0:0:
210,252,209643,1,0,0:0:0:0:
28,106,209821,5,0,0:0:0:0:
28,106,210000,1,0,0:0:0:0:
187,137,210178,1,0,0:0:0:0:
187,137,210357,1,0,0:0:0:0:
54,209,210535,5,0,0:0:0:0:
108,91,210714,1,0,0:0:0:0:
149,219,210893,1,0,0:0:0:0:
110,71,211071,1,0,0:0:0:0:
50,227,211250,5,0,0:0:0:0:
221,134,211428,1,0,0:0:0:0:
221,134,211518,1,0,0:0:0:0:
221,134,211607,2,0,P|268:163|291:199,1,95
421,357,211964,6,0,B|421:284|421:284|434:256|434:256|434:175,1,170.999994781494
432,158,212321,2,0,P|378:124|362:70,1,113.999996520996
241,24,212678,5,0,0:0:0:0:
206,218,212857,1,0,0:0:0:0:
284,105,213035,5,0,0:0:0:0:
319,299,213214,1,0,0:0:0:0:
432,158,213393,5,0,0:0:0:0:
234,291,213571,1,0,0:0:0:0:
417,260,213750,5,0,0:0:0:0:
224,143,213928,1,0,0:0:0:0:
418,369,214107,6,0,P|429:297|415:256,1,113.999996520996
290,95,214464,2,0,P|276:149|288:204,1,113.999996520996
167,321,214821,6,0,B|238:287|260:345|346:310,1,170.999994781494
364,310,215178,2,0,P|306:329|249:323,1,113.999996520996
96,204,215535,6,0,L|85:329,1,113.999996520996
231,77,215893,2,0,L|241:202,1,113.999996520996
352,342,216250,6,0,P|389:346|427:340,2,75.9999976806641
389,256,216607,6,0,P|411:225|425:190,2,75.9999976806641
333,180,216964,6,0,P|318:145|294:115,2,75.9999976806641
240,190,217321,6,0,P|202:185|164:191,2,75.9999976806641
289,269,217678,5,0,0:0:0:0:
101,108,219107,5,0,0:0:0:0:
93,98,220000,5,0,0:0:0:0:
203,320,220178,2,0,P|195:267|196:213,1,106.875004076958
196,171,220535,6,0,P|240:183|291:163,1,95
328,85,220893,1,0,0:0:0:0:
329,241,221071,1,0,0:0:0:0:
238,93,221250,1,0,0:0:0:0:
386,163,221428,1,0,0:0:0:0:
192,169,221607,1,0,0:0:0:0:
328,85,221785,1,0,0:0:0:0:
328,85,221875,1,0,0:0:0:0:
328,85,221964,6,0,P|321:134|338:283,1,190
346,292,233393,6,0,L|342:253,1,23.75
362,312,233928,6,0,L|358:273,1,23.75
377,330,234821,6,0,P|307:341|254:310,1,104.500003189087
273,169,235178,2,0,P|309:205|322:255,1,104.500003189087
312,368,235535,1,0,0:0:0:0:
184,268,235714,1,0,0:0:0:0:
426,244,235893,2,0,L|322:255,1,104.500003189087
136,89,236250,2,0,L|240:98,1,104.500003189087
434,113,236607,5,0,0:0:0:0:
426,245,236785,1,0,0:0:0:0:
305,82,236964,1,0,0:0:0:0:
322,255,237143,1,0,0:0:0:0:
374,48,237321,2,0,P|311:7|257:15,1,104.500003189087
80,76,237678,6,0,B|158:77|158:127|226:126,1,156.750004783631
225,126,238035,2,0,P|231:202|252:236,1,104.500003189087
348,316,238393,1,0,0:0:0:0:
323,157,238571,1,0,0:0:0:0:
159,327,238750,2,0,P|171:277|155:228,1,104.500003189087
46,153,239107,5,0,0:0:0:0:
239,212,239286,1,0,0:0:0:0:
73,280,239464,1,0,0:0:0:0:
289,280,239643,2,0,P|320:232|313:170,1,104.500003189087
297,57,240000,1,0,0:0:0:0:
448,224,240179,2,0,P|417:176|424:114,1,104.500003189087
237,211,240536,5,0,0:0:0:0:
298,74,240714,1,0,0:0:0:0:
343,261,240893,1,0,0:0:0:0:
297,94,241071,1,0,0:0:0:0:
234,226,241250,2,0,P|228:279|190:332,1,104.500003189087
47,153,241607,1,0,0:0:0:0:
88,285,241786,1,0,0:0:0:0:
177,146,241964,6,0,L|292:136,1,104.500003189087
397,125,242321,1,0,0:0:0:0:
238,34,242500,2,0,L|353:45,1,104.500003189087
454,52,242857,1,0,0:0:0:0:
281,137,243036,2,0,L|177:146,1,104.500003189087
470,125,243393,5,0,0:0:0:0:
460,313,243571,1,0,0:0:0:0:
359,167,243750,1,0,0:0:0:0:
452,293,243929,1,0,0:0:0:0:
472,102,244107,2,0,P|428:61|384:58,1,104.500003189087
444,274,244464,1,0,0:0:0:0:
344,147,244643,1,0,0:0:0:0:
439,252,244821,6,0,B|380:264|380:264|272:258,1,156.750004783631
283,259,245178,2,0,P|226:287|210:340,1,104.500003189087
300,342,245536,1,0,0:0:0:0:
168,224,245714,1,0,0:0:0:0:
203,352,245893,1,0,0:0:0:0:
284,179,246071,1,0,0:0:0:0:
284,179,246161,1,0,0:0:0:0:
284,179,246250,6,0,P|284:127|262:88,1,85.4999973907472
208,49,246607,1,0,0:0:0:0:
360,140,246786,1,0,0:0:0:0:
176,157,246964,1,0,0:0:0:0:
360,42,247143,1,0,0:0:0:0:
269,275,247321,1,0,0:0:0:0:
92,47,247500,1,0,0:0:0:0:
428,92,247679,6,0,P|483:229|378:332,1,313.49999043274
235,170,248750,5,0,0:0:0:0:
215,154,249107,6,0,P|213:219|198:264,1,95
107,339,249464,1,0,0:0:0:0:
82,214,249643,1,0,0:0:0:0:
246,107,249821,2,0,P|256:172|217:298,1,190
164,206,250357,1,0,0:0:0:0:
320,268,250535,6,0,P|354:320|357:366,1,95
429,250,250893,2,0,P|438:203|467:166,1,95
425,43,251250,1,0,0:0:0:0:
425,43,251428,1,0,0:0:0:0:
354,164,251607,1,0,0:0:0:0:
354,164,251785,1,0,0:0:0:0:
251,45,251964,6,0,B|172:21|144:77|49:52,1,190
63,55,252500,1,0,0:0:0:0:
105,229,252678,1,0,0:0:0:0:
210,113,252857,1,0,0:0:0:0:
155,295,253035,2,0,P|91:311|26:261,1,142.5
22,239,253393,6,0,L|13:133,1,95
210,113,253750,2,0,L|201:218,1,95
188,354,254107,1,0,0:0:0:0:
105,229,254285,1,0,0:0:0:0:
288,251,254464,1,0,0:0:0:0:
299,252,254553,1,0,0:0:0:0:
311,253,254642,1,0,0:0:0:0:
323,254,254731,1,0,0:0:0:0:
332,253,254821,6,0,P|331:186|345:141,1,95
452,90,255178,1,0,0:0:0:0:
310,36,255357,1,0,0:0:0:0:
356,178,255535,2,0,P|346:224|350:271,1,95
209,114,255893,6,0,P|210:181|196:226,1,95
89,277,256250,1,0,0:0:0:0:
231,331,256429,1,0,0:0:0:0:
185,189,256607,2,0,P|194:142|190:95,1,95
148,39,256964,1,0,0:0:0:0:
76,126,257143,1,0,0:0:0:0:
273,94,257321,2,0,B|330:94|330:94|379:80|379:80|413:80,1,142.5
452,81,257678,6,0,P|438:133|446:203,1,95
460,318,258035,2,0,P|421:279|357:251,1,95
227,223,258393,1,0,0:0:0:0:
333,171,258571,1,0,0:0:0:0:
225,322,258750,2,0,P|179:308|146:275,1,95
120,127,259107,1,0,0:0:0:0:
50,261,259285,1,0,0:0:0:0:
206,174,259464,2,0,P|213:98|188:54,1,95
144,240,259821,5,0,0:0:0:0:
157,251,259910,1,0,0:0:0:0:
173,259,259999,1,0,0:0:0:0:
190,264,260088,1,0,0:0:0:0:
208,266,260178,1,0,0:0:0:0:
225,264,260267,1,0,0:0:0:0:
242,258,260356,1,0,0:0:0:0:
257,249,260445,1,0,0:0:0:0:
271,237,260535,5,0,0:0:0:0:
213,37,260714,1,0,0:0:0:0:
144,240,260893,5,0,0:0:0:0:
177,140,261071,1,0,0:0:0:0:
59,163,261250,5,0,0:0:0:0:
271,237,261428,1,0,0:0:0:0:
58,304,261607,5,0,0:0:0:0:
177,140,261785,1,0,0:0:0:0:
259,348,261964,5,0,0:0:0:0:
271,124,262142,1,0,0:0:0:0:
425,319,262321,5,0,0:0:0:0:
360,152,262499,1,0,0:0:0:0:
160,239,262678,6,0,P|213:255|266:237,1,113.999996520996
413,85,263035,2,0,P|359:68|306:86,1,113.999996520996
160,223,263393,5,0,0:0:0:0:
145,53,263571,1,0,0:0:0:0:
266,237,263750,5,0,0:0:0:0:
306,86,263928,1,0,0:0:0:0:
341,299,264107,6,0,P|293:332|233:331,1,113.999996520996
58,201,264464,2,0,P|106:234|166:233,1,113.999996520996
341,103,264821,2,0,P|293:136|233:135,1,113.999996520996
58,5,265178,2,0,P|106:38|166:37,1,113.999996520996
268,11,265535,5,0,0:0:0:0:
145,142,265714,1,0,0:0:0:0:
341,103,265893,2,0,P|409:158|421:241,1,170.999994781494
390,326,266250,5,0,0:0:0:0:
327,205,266428,1,0,0:0:0:0:
322,223,266607,1,0,0:0:0:0:
229,326,266785,5,0,0:0:0:0:
235,152,266963,1,0,0:0:0:0:
218,168,267142,1,0,0:0:0:0:
65,255,267321,5,0,0:0:0:0:
180,69,267499,1,0,0:0:0:0:
152,76,267678,1,0,0:0:0:0:
0,147,267857,5,0,0:0:0:0:
218,168,268035,2,0,P|278:183|314:219,1,113.999996520996
390,326,268393,5,0,0:0:0:0:
391,304,268482,1,0,0:0:0:0:
393,283,268571,1,0,0:0:0:0:
394,262,268660,1,0,0:0:0:0:
396,240,268750,1,0,0:0:0:0:
397,219,268839,1,0,0:0:0:0:
399,198,268928,1,0,0:0:0:0:
400,176,269018,1,0,0:0:0:0:
402,155,269107,6,0,P|394:125|376:97,7,47.5
324,157,270535,2,0,P|314:178|309:202,7,47.5
340,273,271964,6,0,P|295:277|249:252,1,95
212,194,272500,1,0,0:0:0:0:
212,194,272678,1,0,0:0:0:0:
47,205,273035,6,0,P|92:209|138:184,1,95
175,126,273571,1,0,0:0:0:0:
175,126,273749,1,0,0:0:0:0:
