osu file format v14

[General]
AudioFilename: audio.mp3
AudioLeadIn: 0
PreviewTime: 57473
Countdown: 0
SampleSet: Normal
StackLeniency: 0.4
Mode: 0
LetterboxInBreaks: 0
WidescreenStoryboard: 1

[Editor]
DistanceSpacing: 1
BeatDivisor: 4
GridSize: 32
TimelineZoom: 1

[Metadata]
Title:youthful beautiful (TV size)
TitleUnicode:youthful beautiful (TV size)
Artist:Uchida Maaya
ArtistUnicode:内田真礼
Creator:P4ndemonium
Version:Normal
Source:SSSS.Gridman
Tags:ending ed 8th single シングル
BeatmapID:1832388
BeatmapSetID:875509

[Difficulty]
HPDrainRate:5
CircleSize:3
OverallDifficulty:5
ApproachRate:6
SliderMultiplier:1
SliderTickRate:1

[Events]
//Background and Video events
0,0,"gridmbnmbmbnmbnm.jpg",0,0
//Break Periods
2,12048,22227
//Storyboard Layer 0 (Background)
//Storyboard Layer 1 (Fail)
//Storyboard Layer 2 (Pass)
//Storyboard Layer 3 (Foreground)
//Storyboard Sound Samples

[TimingPoints]
420,357.142857142857,4,1,0,30,1,0
5598,-400,4,1,0,40,0,0
6044,-400,4,1,0,5,0,0
6134,-100,4,1,0,50,0,0
11848,-200,4,2,0,30,0,0
22919,-400,4,1,0,40,0,0
23187,-400,4,1,0,5,0,0
23277,-100,4,1,0,40,0,0
23991,-100,4,1,0,40,0,0
34705,-100,4,1,0,40,0,0
46134,-100,4,1,0,40,0,0
57562,-100,4,1,0,60,0,1
83277,-100,4,1,0,60,0,1
88812,-100,4,1,0,60,0,0

[Colours]
Combo1 : 0,128,0
Combo2 : 255,0,0
Combo3 : 0,0,255
Combo4 : 255,0,128

[HitObjects]
256,192,3277,12,0,5598,0:0:0:0:
413,29,6134,6,0,P|391:17|366:11,1,50,4|0,0:0|0:0,0:0:0:0:
331,47,6491,2,0,P|303:71|266:76,1,75,8|0,0:0|0:0,0:0:0:0:
242,68,6848,2,0,L|192:76,1,50
143,86,7205,1,8,0:0:0:0:
76,160,7562,6,0,P|88:182|94:207,1,50
91,256,7919,1,8,0:0:0:0:
153,334,8277,6,0,L|202:342,1,50
251,351,8634,1,8,0:0:0:0:
335,298,8991,6,0,P|323:276|317:251,1,50
353,216,9348,2,8,P|377:188|382:151,1,75
374,127,9705,2,0,L|382:77,1,50
392,28,10062,1,8,0:0:0:0:
489,51,10419,6,0,L|497:100,1,50
506,149,10776,1,8,0:0:0:0:
458,237,11134,6,8,P|437:282|443:331,2,100,8|8|4,0:0|0:0|0:0,0:0:0:0:
124,42,23277,6,0,L|141:140,1,100,4|0,0:0|0:0,0:0:0:0:
63,203,23991,2,0,P|102:232|152:238,1,100
216,315,24705,2,0,P|255:285|305:279,1,100
399,312,25419,2,0,L|416:213,1,100
488,144,26134,6,0,P|478:95|449:54,1,100
351,37,26848,2,0,P|310:65|284:107,1,100
211,175,27562,2,0,L|112:157,1,100
91,255,28277,2,0,L|189:272,1,100
257,345,28991,6,0,P|296:315|346:309,1,100
423,246,29705,2,0,P|452:206|458:156,1,100
379,95,30419,2,0,P|338:123|289:133,1,100
202,182,31134,2,0,P|156:161|124:124,1,100
28,152,31848,6,0,L|10:250,1,100
73,328,32562,2,0,L|171:310,1,100
261,266,33277,2,0,L|359:283,1,100
437,345,33991,1,0,0:0:0:0:
497,265,34348,1,0,0:0:0:0:
455,172,34705,6,0,P|395:98|418:4,1,200,4|0,0:0|0:0,0:0:0:0:
221,40,36134,2,0,L|24:74,1,200
73,161,37205,1,0,0:0:0:0:
40,255,37562,6,0,P|79:284|129:290,1,100
204,356,38277,2,0,P|249:335|279:296,1,100
362,241,38991,2,0,L|460:258,1,100,0|8,0:0|0:0,0:0:0:0:
510,171,39705,1,0,0:0:0:0:
442,97,40062,1,0,0:0:0:0:
469,1,40419,6,0,L|272:35,1,200
75,72,41848,2,0,P|135:146|112:240,1,200
178,315,42919,1,0,0:0:0:0:
264,264,43277,6,0,P|308:242|357:244,1,100
446,290,43991,1,0,0:0:0:0:
503,208,44348,1,0,0:0:0:0:
463,116,44705,6,0,L|480:17,2,100,0|8|0,0:0|0:0|0:0,0:0:0:0:
364,96,45777,1,8,0:0:0:0:
297,170,46134,6,0,P|269:194|232:199,1,75,4|8,0:0|0:0,0:0:0:0:
212,183,46491,2,0,L|162:175,1,50,0|8,0:0|0:0,0:0:0:0:
125,141,46848,2,0,P|119:91|105:43,1,100,0|8,0:0|0:0,0:0:0:0:
205,41,47562,6,0,P|233:17|270:12,1,75,0|8,0:0|0:0,0:0:0:0:
290,28,47919,2,0,L|340:36,1,50,0|8,0:0|0:0,0:0:0:0:
387,49,48277,2,0,P|392:98|406:146,1,100,0|8,0:0|0:0,0:0:0:0:
485,208,48991,6,0,P|461:236|456:273,1,75,0|8,0:0|0:0,0:0:0:0:
472,293,49348,2,0,L|480:343,1,50,0|8,0:0|0:0,0:0:0:0:
446,380,49705,2,0,P|397:366|348:360,1,100,0|8,0:0|0:0,0:0:0:0:
291,278,50419,6,0,P|263:254|226:249,1,75,0|8,0:0|0:0,0:0:0:0:
206,265,50776,2,0,L|156:273,1,50,0|8,0:0|0:0,0:0:0:0:
107,282,51134,1,0,0:0:0:0:
26,222,51491,1,8,0:0:0:0:
83,139,51848,6,0,P|111:115|148:110,1,75,0|8,0:0|0:0,0:0:0:0:
168,126,52205,2,0,L|218:134,1,50,0|8,0:0|0:0,0:0:0:0:
258,162,52562,6,0,P|286:186|323:191,1,75,0|8,0:0|0:0,0:0:0:0:
343,175,52919,2,0,L|393:167,1,50,0|8,0:0|0:0,0:0:0:0:
442,161,53277,6,0,P|466:189|471:226,1,75,0|8,0:0|0:0,0:0:0:0:
455,246,53634,2,0,L|447:296,1,50,0|8,0:0|0:0,0:0:0:0:
439,344,53991,6,0,P|390:358|341:364,1,100,0|8,0:0|0:0,0:0:0:0:
261,304,54705,5,12,0:0:0:0:
119,353,55241,1,12,0:0:0:0:
150,206,55777,1,12,0:0:0:0:
64,153,56134,5,4,0:0:0:0:
448,44,57562,6,0,P|419:83|413:133,1,100,4|8,0:0|0:0,0:0:0:0:
466,217,58277,2,0,L|449:316,1,100,0|8,0:0|0:0,0:0:0:0:
358,357,58991,6,0,P|319:328|269:322,1,100,0|8,0:0|0:0,0:0:0:0:
234,357,59527,2,0,L|135:374,1,100
86,381,60062,1,8,0:0:0:0:
15,310,60419,6,0,P|20:260|50:221,1,100,0|8,0:0|0:0,0:0:0:0:
129,160,61134,2,0,L|112:61,1,100,0|8,0:0|0:0,0:0:0:0:
146,26,61669,6,0,P|218:43|261:102,1,150,0|8,0:0|0:0,0:0:0:0:
297,137,62384,2,0,P|346:131|385:101,1,100
410,58,62919,1,8,0:0:0:0:
494,111,63277,6,0,L|477:210,1,100,0|8,0:0|0:0,0:0:0:0:
486,309,63991,2,0,P|437:303|398:273,1,100,0|8,0:0|0:0,0:0:0:0:
299,290,64705,6,0,L|200:307,1,100,0|8,0:0|0:0,0:0:0:0:
163,273,65241,2,0,P|166:199|125:138,1,150,0|8,0:0|0:0,0:0:0:0:
166,46,66134,6,0,P|209:23|259:25,1,100,0|8,0:0|0:0,0:0:0:0:
305,113,66848,2,0,P|344:143|393:149,1,100,0|8,0:0|0:0,0:0:0:0:
479,99,67562,5,0,0:0:0:0:
458,247,68098,1,0,0:0:0:0:
329,323,68634,2,0,L|255:310,1,75,8|0,0:0|0:0,0:0:0:0:
236,293,68991,6,0,P|192:315|142:313,1,100,4|8,0:0|0:0,0:0:0:0:
74,240,69705,2,0,L|91:141,1,100,0|8,0:0|0:0,0:0:0:0:
182,100,70419,6,0,P|225:122|275:120,1,100,0|8,0:0|0:0,0:0:0:0:
318,94,70955,2,0,L|417:111,1,100
465,122,71491,1,8,0:0:0:0:
510,211,71848,6,0,P|503:260|473:299,1,100,0|8,0:0|0:0,0:0:0:0:
381,338,72562,2,0,L|282:321,1,100,0|8,0:0|0:0,0:0:0:0:
253,280,73098,6,0,P|180:266|114:300,1,150,0|8,0:0|0:0,0:0:0:0:
71,275,73812,2,0,L|54:176,1,100
46,126,74348,1,8,0:0:0:0:
118,56,74705,6,0,P|167:60|206:90,1,100,4|8,0:0|0:0,0:0:0:0:
274,163,75419,2,0,P|323:158|362:128,1,100,0|8,0:0|0:0,0:0:0:0:
458,154,76134,2,0,L|475:253,1,100,0|8,0:0|0:0,0:0:0:0:
441,289,76669,2,0,L|342:272,1,100
293,264,77205,1,8,0:0:0:0:
235,345,77562,6,0,P|195:375|146:379,1,100,4|8,0:0|0:0,0:0:0:0:
71,312,78277,2,0,L|88:213,1,100,0|8,0:0|0:0,0:0:0:0:
171,158,78991,2,0,L|154:59,1,100,0|8,0:0|0:0,0:0:0:0:
252,77,79705,1,0,0:0:0:0:
341,33,80062,1,8,0:0:0:0:
420,94,80419,5,12,0:0:0:0:
256,192,80509,12,0,81848,0:0:0:0:
395,303,83277,6,0,L|296:286,1,100,4|8,0:0|0:0,0:0:0:0:
239,368,83991,2,0,L|140:385,1,100,8|8,0:0|0:0,0:0:0:0:
70,313,84705,2,0,P|74:263|104:224,1,100,8|8,0:0|0:0,0:0:0:0:
184,165,85419,2,0,P|179:115|149:76,1,100,8|8,0:0|0:0,0:0:0:0:
217,3,86134,5,8,0:0:0:0:
301,56,86491,2,0,L|400:73,1,100,8|8,0:0|0:0,0:0:0:0:
457,154,87205,1,8,0:0:0:0:
373,207,87562,2,8,L|274:224,1,100
209,300,88277,2,8,L|110:283,1,100
61,274,88812,1,8,0:0:0:0:
