osu file format v14

[General]
AudioFilename: audio.mp3
AudioLeadIn: 0
PreviewTime: 57473
Countdown: 0
SampleSet: Normal
StackLeniency: 0.4
Mode: 0
LetterboxInBreaks: 0
WidescreenStoryboard: 1

[Editor]
DistanceSpacing: 0.6
BeatDivisor: 4
GridSize: 32
TimelineZoom: 1

[Metadata]
Title:youthful beautiful (TV size)
TitleUnicode:youthful beautiful (TV size)
Artist:Uchida Maaya
ArtistUnicode:内田真礼
Creator:P4ndemonium
Version:Insane
Source:SSSS.Gridman
Tags:ending ed 8th single シングル
BeatmapID:1830500
BeatmapSetID:875509

[Difficulty]
HPDrainRate:5
CircleSize:4
OverallDifficulty:7.5
ApproachRate:9
SliderMultiplier:1.5
SliderTickRate:1

[Events]
//Background and Video events
0,0,"griddsidbaidybawed.jpg",0,0
//Break Periods
//Storyboard Layer 0 (Background)
//Storyboard Layer 1 (Fail)
//Storyboard Layer 2 (Pass)
//Storyboard Layer 3 (Foreground)
//Storyboard Sound Samples

[TimingPoints]
420,357.142857142857,4,1,0,30,1,0
5598,-400,4,1,0,40,0,0
6044,-400,4,1,0,5,0,0
6134,-100,4,1,0,50,0,0
11848,-200,4,2,0,30,0,0
22919,-400,4,1,0,40,0,0
23187,-400,4,1,0,5,0,0
23277,-400,4,1,0,40,0,0
23991,-133.333333333333,4,1,0,40,0,0
34705,-100,4,1,0,40,0,0
35241,-133.333333333333,4,1,0,40,0,0
35777,-100,4,1,0,40,0,0
36312,-133.333333333333,4,1,0,40,0,0
40419,-100,4,1,0,40,0,0
40955,-133.333333333333,4,1,0,40,0,0
41491,-100,4,1,0,40,0,0
42205,-133.333333333333,4,1,0,40,0,0
44705,-100,4,1,0,40,0,0
45777,-400,4,1,0,40,0,0
46044,-133.333333333333,4,1,0,5,0,0
46134,-133.333333333333,4,1,0,40,0,0
57027,-400,4,1,0,40,0,0
57562,-100,4,1,0,60,0,1
83277,-100,4,1,0,60,0,1
88812,-100,4,1,0,60,0,0

[Colours]
Combo1 : 0,128,0
Combo2 : 255,0,0
Combo3 : 0,0,255
Combo4 : 255,0,128

[HitObjects]
256,192,3277,12,0,5419,0:0:0:0:
24,102,5598,5,0,0:0:0:0:
24,102,5687,1,0,0:0:0:0:
24,102,5777,2,0,L|28:129,1,28.125,8|0,0:0|0:0,0:0:0:0:
100,169,6134,6,0,P|129:146|166:140,1,75,4|0,0:0|0:0,0:0:0:0:
223,250,6491,2,8,P|267:283|322:287,1,112.5
333,268,6848,2,0,P|362:245|399:239,1,75
444,368,7205,2,0,L|458:295,1,75,8|0,0:0|0:0,0:0:0:0:
384,165,7562,6,0,L|398:238,1,75
445,112,7919,2,0,P|416:89|380:83,1,75,8|0,0:0|0:0,0:0:0:0:
296,194,8277,6,0,L|308:121,1,75
220,223,8634,2,0,P|239:254|271:272,1,75,8|0,0:0|0:0,0:0:0:0:
136,325,8991,6,0,P|149:290|143:253,1,75
49,176,9348,2,8,P|52:120|85:76,1,112.5
100,65,9705,2,0,P|94:28|70:0,1,75
191,45,10062,2,0,L|177:118,1,75,8|0,0:0|0:0,0:0:0:0:
279,186,10419,6,0,L|265:113,1,75
376,92,10777,2,0,L|362:165,1,75,8|0,0:0|0:0,0:0:0:0:
505,222,11134,5,8,0:0:0:0:
479,210,11223,1,8,0:0:0:0:
451,208,11312,1,8,0:0:0:0:
425,217,11401,1,8,0:0:0:0:
403,236,11491,2,8,P|386:242|368:246,3,37.5
332,352,11848,6,0,P|273:278|88:314,1,300,4|0,0:0|0:0,0:0:0:0:
90,311,14705,6,0,P|27:221|54:115,1,225
174,323,16134,2,0,P|263:260|274:151,1,225
455,220,17562,6,0,P|463:86|329:86,1,300
98,263,20419,6,0,P|92:162|193:163,1,225
198,265,21848,2,0,P|243:295|298:289,1,112.5
313,278,22562,1,2,0:0:0:0:
398,332,22741,5,2,0:0:0:0:
398,332,22830,1,2,0:0:0:0:
398,332,22919,2,0,L|394:305,1,28.125,2|0,0:0|0:0,0:0:0:0:
446,242,23277,5,4,0:0:0:0:
450,218,23634,1,0,0:0:0:0:
479,136,23991,6,0,P|434:170|379:170,1,112.500004291535
362,160,24527,1,0,0:0:0:0:
318,87,24705,2,0,P|273:53|218:53,1,112.500004291535
165,119,25241,2,0,P|192:166|186:221,1,112.500004291535
176,239,25777,1,0,0:0:0:0:
154,336,25956,5,0,0:0:0:0:
154,336,26134,2,0,L|264:316,1,112.500004291535
353,362,26669,1,0,0:0:0:0:
353,362,26848,2,0,P|350:307|384:263,1,112.500004291535
402,257,27384,1,0,0:0:0:0:
371,157,27562,5,0,0:0:0:0:
347,153,27919,1,0,0:0:0:0:
323,149,28277,1,0,0:0:0:0:
278,76,28455,6,0,P|256:94|242:118,1,56.2500021457673
172,194,28812,2,0,P|161:140|121:101,1,112.500004291535
45,131,29348,2,0,P|39:158|25:182,1,56.2500021457673
70,277,29705,5,0,0:0:0:0:
70,277,29884,2,0,L|125:267,1,56.2500021457673
182,384,30241,2,0,L|15:354,1,168.750006437302
240,249,31312,6,0,P|261:267|275:291,1,56.2500021457673
346,368,31669,2,0,P|356:313|396:274,1,112.500004291535
504,229,32205,2,0,P|498:201|484:177,1,56.2500021457673
410,121,32562,5,0,0:0:0:0:
409,120,32741,2,0,L|400:176,1,56.2500021457673
309,88,33098,2,0,L|319:144,1,56.2500021457673
175,218,33455,5,0,0:0:0:0:
233,282,33634,2,0,L|223:337,1,56.2500021457673
55,284,33991,5,0,0:0:0:0:
192,206,34169,1,8,0:0:0:0:
103,136,34348,6,0,L|107:163,3,28.1250010728836
157,68,34705,6,0,P|193:70|227:54,1,75,4|0,0:0|0:0,0:0:0:0:
227,55,35241,5,0,0:0:0:0:
291,113,35419,2,0,L|281:168,1,56.2500021457673
410,248,35777,6,0,L|397:175,1,75
397,175,36312,5,0,0:0:0:0:
456,112,36491,2,0,P|469:88|472:60,1,56.2500021457673
311,177,36848,5,0,0:0:0:0:
315,201,37205,1,0,0:0:0:0:
285,350,37562,5,0,0:0:0:0:
285,350,37741,1,0,0:0:0:0:
216,291,37919,1,0,0:0:0:0:
216,291,38098,1,0,0:0:0:0:
138,338,38277,1,0,0:0:0:0:
69,279,38455,2,0,P|44:265|16:262,1,56.2500021457673
141,159,38812,5,0,0:0:0:0:
141,159,38902,1,0,0:0:0:0:
141,159,38991,1,0,0:0:0:0:
44,118,39169,1,8,0:0:0:0:
201,71,39348,1,8,0:0:0:0:
201,71,39705,6,0,P|214:95|217:123,1,56.2500021457673
272,195,39973,1,0,0:0:0:0:
272,195,40062,2,0,P|248:209|231:232,1,56.2500021457673
311,347,40419,6,0,P|347:344|381:360,1,75
381,360,40955,5,0,0:0:0:0:
452,312,41134,2,0,L|461:256,1,56.2500021457673
343,105,41491,6,0,L|356:178,1,75
356,178,42027,5,0,0:0:0:0:
311,252,42205,2,0,P|286:265|258:268,1,56.2500021457673
127,344,42562,5,0,0:0:0:0:
127,344,42741,1,8,0:0:0:0:
168,267,42919,1,0,0:0:0:0:
168,267,43098,1,0,0:0:0:0:
102,208,43277,2,0,P|88:183|85:155,1,56.2500021457673
88,137,43634,1,0,0:0:0:0:
199,115,43812,2,0,P|187:140|166:159,1,56.2500021457673
175,34,44169,5,8,0:0:0:0:
275,157,44348,1,0,0:0:0:0:
332,9,44527,1,8,0:0:0:0:
420,211,44705,6,0,P|386:194|349:197,1,75,0|8,0:0|0:0,0:0:0:0:
209,340,45062,2,0,L|282:326,1,75,8|0,0:0|0:0,0:0:0:0:
282,326,45330,1,0,0:0:0:0:
282,326,45419,1,0,0:0:0:0:
181,215,45598,5,0,0:0:0:0:
95,273,45777,2,0,L|122:277,1,28.125,10|0,0:0|0:0,0:0:0:0:
181,215,46134,6,0,P|157:182|153:140,1,84.3750032186509,4|8,0:0|0:0,0:0:0:0:
173,129,46491,2,0,P|187:105|210:90,1,56.2500021457673,0|8,0:0|0:0,0:0:0:0:
275,7,46848,2,0,P|275:34|287:60,1,56.2500021457673
404,35,47205,2,0,P|389:59|366:74,1,56.2500021457673,8|0,0:0|0:0,0:0:0:0:
451,185,47562,6,0,P|417:160|375:156,1,84.3750032186509,0|8,0:0|0:0,0:0:0:0:
366,177,47919,2,0,P|341:191|326:214,1,56.2500021457673,0|8,0:0|0:0,0:0:0:0:
297,291,48277,2,0,L|269:286,3,28.1250010728836,0|0|8|8,0:0|0:0|0:0|0:0,0:0:0:0:
246,265,48634,2,8,L|218:270,3,28.1250010728836
108,312,48991,6,0,P|132:278|136:236,1,84.3750032186509,0|8,0:0|0:0,0:0:0:0:
116,227,49348,2,0,P|101:202|78:187,1,56.2500021457673,0|8,0:0|0:0,0:0:0:0:
0,168,49705,1,0,0:0:0:0:
48,101,49884,1,8,0:0:0:0:
48,101,49973,1,8,0:0:0:0:
48,101,50062,2,0,L|38:45,1,56.2500021457673,8|0,0:0|0:0,0:0:0:0:
127,120,50419,6,0,P|160:95|202:91,1,84.3750032186509,0|8,0:0|0:0,0:0:0:0:
212,112,50776,2,0,P|236:126|251:149,1,56.2500021457673,0|8,0:0|0:0,0:0:0:0:
345,151,51134,2,0,L|340:178,3,28.1250010728836
321,204,51491,2,8,L|326:231,3,28.1250010728836
394,344,51848,6,0,P|360:319|318:315,1,84.3750032186509,4|8,0:0|0:0,0:0:0:0:
309,336,52205,2,0,P|284:350|269:373,1,56.2500021457673,0|8,0:0|0:0,0:0:0:0:
253,137,52562,6,0,P|248:178|265:216,1,84.3750032186509,0|8,0:0|0:0,0:0:0:0:
288,214,52919,2,0,P|312:227|340:230,1,56.2500021457673,0|8,0:0|0:0,0:0:0:0:
145,363,53277,6,0,P|183:346|208:311,1,84.3750032186509,0|8,0:0|0:0,0:0:0:0:
194,293,53634,2,0,P|194:264|181:239,1,56.2500021457673,0|8,0:0|0:0,0:0:0:0:
105,86,53991,5,8,0:0:0:0:
101,106,54080,1,8,0:0:0:0:
97,127,54169,1,0,0:0:0:0:
94,148,54258,1,0,0:0:0:0:
90,168,54348,2,0,L|80:223,1,56.2500021457673,8|0,0:0|0:0,0:0:0:0:
284,91,54705,5,12,0:0:0:0:
189,179,54884,1,2,0:2:0:0:
314,217,55062,1,2,0:2:0:0:
289,73,55241,5,12,0:0:0:0:
170,183,55420,1,2,0:2:0:0:
326,230,55598,1,2,0:2:0:0:
221,29,55777,5,12,0:0:0:0:
399,194,55956,1,2,0:2:0:0:
165,264,56134,1,4,0:0:0:0:
103,332,57027,6,0,L|100:314,2,18.75
165,264,57562,6,0,P|174:228|199:201,1,75,4|0,0:0|0:0,0:0:0:0:
326,230,57919,2,0,P|334:266|324:301,1,75,8|0,0:0|0:0,0:0:0:0:
147,275,58277,1,0,0:0:0:0:
275,161,58455,1,0,0:0:0:0:
330,319,58634,2,0,L|402:338,1,75,8|0,0:0|0:0,0:0:0:0:
494,278,58991,6,0,L|421:258,1,75
287,145,59349,1,8,0:0:0:0:
331,57,59527,2,0,P|378:112|376:186,1,150
213,158,60062,2,0,L|287:145,1,75,8|0,0:0|0:0,0:0:0:0:
179,44,60419,6,0,P|153:70|144:106,1,75
250,219,60777,2,0,P|239:183|213:158,1,75,8|0,0:0|0:0,0:0:0:0:
62,192,61134,2,0,P|98:200|133:190,1,75
177,265,61491,1,8,0:0:0:0:
109,350,61669,6,0,B|202:335|154:385|253:368,1,150
315,309,62205,1,8,0:0:0:0:
387,384,62384,2,0,P|409:314|471:275,1,150
350,164,62919,2,0,L|364:238,1,75,8|0,0:0|0:0,0:0:0:0:
418,117,63277,6,0,P|391:91|355:82,1,75,4|0,0:0|0:0,0:0:0:0:
302,19,63634,2,0,P|266:29|240:56,1,75,8|0,0:0|0:0,0:0:0:0:
174,161,63991,2,0,L|161:88,1,75
36,263,64348,5,8,0:0:0:0:
105,212,64526,1,0,0:0:0:0:
153,284,64705,1,0,0:0:0:0:
222,233,64884,2,0,P|252:212|290:209,1,75,0|8,0:0|0:0,0:0:0:0:
375,329,65241,2,0,L|362:256,1,75
456,112,65598,5,0,0:0:0:0:
409,184,65776,1,8,0:0:0:0:
370,107,65955,1,0,0:0:0:0:
495,189,66134,2,0,P|509:223|506:260,1,75
475,353,66491,6,8,P|429:322|375:329,1,112.5
367,347,66848,2,0,P|336:367|298:370,1,75
250,238,67205,2,0,L|237:312,1,75,8|0,0:0|0:0,0:0:0:0:
106,356,67562,5,0,0:0:0:0:
66,215,67741,1,8,0:0:0:0:
66,215,68098,5,0,0:0:0:0:
232,248,68277,1,0,0:0:0:0:
132,314,68455,1,0,0:0:0:0:
165,148,68634,2,8,L|171:111,3,37.5
161,179,68991,6,0,P|191:200|229:203,1,75,4|0,0:0|0:0,0:0:0:0:
334,103,69348,2,0,P|297:105|266:127,1,75,8|0,0:0|0:0,0:0:0:0:
474,166,69705,1,0,0:0:0:0:
409,60,69884,1,0,0:0:0:0:
377,243,70062,2,0,L|390:169,1,75,8|0,0:0|0:0,0:0:0:0:
507,326,70419,6,0,P|477:305|439:302,1,75
289,361,70777,1,8,0:0:0:0:
361,228,70955,2,0,P|310:281|307:354,1,150
171,312,71491,2,0,L|184:238,1,75,8|0,0:0|0:0,0:0:0:0:
214,83,71848,6,0,P|247:98|268:129,1,75
120,181,72205,2,0,P|116:144|133:110,1,75,8|0,0:0|0:0,0:0:0:0:
251,214,72562,2,0,P|221:235|183:238,1,75
268,129,72919,1,8,0:0:0:0:
332,241,73098,6,0,P|390:196|462:210,1,150
508,284,73634,1,8,0:0:0:0:
450,348,73812,2,0,B|357:333|405:383|306:366,1,150
183,275,74348,2,0,P|220:278|251:300,1,75,8|0,0:0|0:0,0:0:0:0:
119,384,74705,6,0,L|106:310,1,75,4|0,0:0|0:0,0:0:0:0:
15,335,75062,2,0,L|28:261,1,75,8|0,0:0|0:0,0:0:0:0:
156,128,75419,2,0,L|183:276,1,150,0|8,0:0|0:0,0:0:0:0:
28,261,75955,1,0,0:0:0:0:
19,181,76134,6,0,P|56:184|87:206,1,75
246,106,76491,1,8,0:0:0:0:
156,128,76669,2,0,L|169:54,1,75
323,157,77027,1,0,0:0:0:0:
233,179,77205,2,0,L|246:105,1,75,8|0,0:0|0:0,0:0:0:0:
417,49,77562,6,0,L|430:123,1,75,4|0,0:0|0:0,0:0:0:0:
336,83,77919,2,0,L|323:157,1,75,8|0,0:0|0:0,0:0:0:0:
417,243,78277,2,0,P|447:222|485:219,1,75
380,320,78634,1,8,0:0:0:0:
323,156,78812,2,0,L|296:303,1,150
207,326,79348,6,0,L|220:252,1,75,8|0,0:0|0:0,0:0:0:0:
104,156,79705,2,0,P|141:159|172:181,1,75
53,226,80062,1,8,0:0:0:0:
84,72,80241,1,8,0:0:0:0:
84,72,80330,1,8,0:0:0:0:
84,72,80419,1,8,0:0:0:0:
84,72,80777,5,8,0:0:0:0:
132,258,80955,1,8,0:0:0:0:
268,87,81134,5,8,0:0:0:0:
211,290,81312,1,8,0:0:0:0:
353,72,81491,5,8,0:0:0:0:
429,326,81669,1,8,0:0:0:0:
256,192,81848,5,8,0:0:0:0:
256,192,83277,6,4,L|242:265,1,75
317,384,83634,5,8,0:0:0:0:
201,285,83812,1,0,0:0:0:0:
384,199,83991,5,8,0:0:0:0:
233,364,84169,1,0,0:0:0:0:
259,173,84348,5,8,0:0:0:0:
415,316,84527,1,0,0:0:0:0:
183,274,84705,5,8,0:0:0:0:
347,121,84884,1,0,0:0:0:0:
128,128,85062,5,8,0:0:0:0:
298,308,85241,1,0,0:0:0:0:
73,194,85419,6,0,L|0:180,1,75,8|0,0:0|0:0,0:0:0:0:
183,62,85777,2,0,L|256:48,1,75,8|0,0:0|0:0,0:0:0:0:
175,293,86134,5,8,0:0:0:0:
128,128,86312,1,0,0:0:0:0:
294,216,86491,5,8,0:0:0:0:
96,272,86669,1,0,0:0:0:0:
308,131,86848,6,0,L|381:144,1,75,8|0,0:0|0:0,0:0:0:0:
181,341,87205,5,8,0:0:0:0:
228,162,87384,1,0,0:0:0:0:
308,337,87562,5,12,0:0:0:0:
73,279,87741,1,0,0:0:0:0:
214,88,87919,6,0,L|228:162,1,75,8|0,0:0|0:0,0:0:0:0:
141,227,88277,5,8,0:0:0:0:
267,261,88455,1,8,0:0:0:0:
125,126,88634,5,8,0:0:0:0:
313,91,88812,1,8,0:0:0:0:
