osu file format v14

[General]
AudioFilename: audio.mp3
AudioLeadIn: 0
PreviewTime: 57473
Countdown: 0
SampleSet: Normal
StackLeniency: 0.4
Mode: 0
LetterboxInBreaks: 0
WidescreenStoryboard: 1

[Editor]
DistanceSpacing: 1
BeatDivisor: 4
GridSize: 32
TimelineZoom: 1

[Metadata]
Title:youthful beautiful (TV size)
TitleUnicode:youthful beautiful (TV size)
Artist:Uchida Maaya
ArtistUnicode:内田真礼
Creator:P4ndemonium
Version:Hard
Source:SSSS.Gridman
Tags:ending ed 8th single シングル
BeatmapID:1831701
BeatmapSetID:875509

[Difficulty]
HPDrainRate:5
CircleSize:3.5
OverallDifficulty:7
ApproachRate:8
SliderMultiplier:1.5
SliderTickRate:1

[Events]
//Background and Video events
0,0,"gridsesarasrasr.png",0,0
//Break Periods
//Storyboard Layer 0 (Background)
//Storyboard Layer 1 (Fail)
//Storyboard Layer 2 (Pass)
//Storyboard Layer 3 (Foreground)
//Storyboard Sound Samples

[TimingPoints]
420,357.142857142857,4,1,0,30,1,0
5598,-400,4,1,0,40,0,0
6044,-400,4,1,0,5,0,0
6134,-100,4,1,0,50,0,0
11848,-200,4,2,0,30,0,0
22919,-400,4,1,0,40,0,0
23187,-400,4,1,0,5,0,0
23277,-125,4,1,0,40,0,0
23991,-125,4,1,0,40,0,0
34705,-111.111111111111,4,1,0,40,0,0
46134,-111.111111111111,4,1,0,40,0,0
57562,-100,4,1,0,60,0,1
83277,-100,4,1,0,60,0,1
88812,-100,4,1,0,60,0,0

[Colours]
Combo1 : 0,128,0
Combo2 : 255,0,0
Combo3 : 0,0,255
Combo4 : 255,0,128

[HitObjects]
358,148,5598,5,0,0:0:0:0:
358,148,5687,1,0,0:0:0:0:
358,148,5777,1,8,0:0:0:0:
359,147,6134,6,0,P|329:170|293:177,1,75,4|0,0:0|0:0,0:0:0:0:
237,111,6491,2,8,P|193:77|138:75,1,112.5
118,84,6848,2,0,L|104:157,1,75
34,209,7205,2,0,L|47:282,1,75,8|0,0:0|0:0,0:0:0:0:
121,328,7562,6,0,P|151:305|187:298,1,75
241,366,7919,2,0,L|314:379,1,75,8|0,0:0|0:0,0:0:0:0:
368,310,8277,6,0,P|345:280|338:244,1,75
406,190,8634,2,0,L|419:116,1,75,8|0,0:0|0:0,0:0:0:0:
380,37,8991,6,0,P|350:14|314:7,1,75
265,80,9348,2,8,P|221:113|166:115,1,112.5
146,106,9705,2,0,L|132:179,1,75
200,235,10062,2,0,L|213:308,1,75,8|0,0:0|0:0,0:0:0:0:
295,345,10419,6,0,P|308:310|335:285,1,75
419,260,10777,2,0,L|432:186,1,75,8|0,0:0|0:0,0:0:0:0:
381,114,11134,6,8,L|374:77,3,37.5
361,61,11491,2,8,L|367:24,3,37.5
358,6,11848,5,4,0:0:0:0:
154,378,14705,1,0,0:0:0:0:
256,192,16134,1,0,0:0:0:0:
70,90,17562,5,0,0:0:0:0:
442,294,20419,1,0,0:0:0:0:
256,192,21848,1,0,0:0:0:0:
388,63,23277,6,0,P|343:100|338:158,1,120,4|0,0:0|0:0,0:0:0:0:
418,262,23991,2,0,L|299:241,1,120
250,313,24705,6,0,L|131:333,1,120
62,281,25241,1,0,0:0:0:0:
94,185,25598,1,0,0:0:0:0:
34,102,25955,6,0,P|120:87|187:143,1,180
265,103,26669,1,0,0:0:0:0:
314,177,26848,2,0,L|432:156,1,120
490,320,27562,6,0,P|452:275|394:270,1,120
303,347,28277,1,0,0:0:0:0:
235,291,28455,6,0,L|175:280,1,60
88,320,28812,2,0,P|79:230|40:150,1,180
124,60,29705,5,0,0:0:0:0:
188,122,29884,2,0,L|247:111,1,60
298,182,30241,2,0,L|475:213,1,180
404,328,31312,6,0,L|344:338,1,60
266,382,31669,2,0,P|201:324|117:346,1,180
34,261,32562,5,0,0:0:0:0:
96,197,32741,2,0,L|85:137,1,60
167,91,33098,2,0,L|187:209,1,120
262,255,33634,2,0,P|285:236|313:228,1,60
388,274,33991,5,0,0:0:0:0:
449,210,34169,1,8,0:0:0:0:
411,132,34348,2,0,L|416:102,3,30
410,85,34705,6,0,P|381:66|348:64,1,67.4999979400635,4|0,0:0|0:0,0:0:0:0:
226,165,35241,2,0,P|259:162|288:145,1,67.4999979400635
135,60,35777,6,0,L|148:126,1,67.4999979400635
54,253,36312,2,0,L|67:187,1,67.4999979400635
120,330,36848,5,0,0:0:0:0:
205,305,37205,1,0,0:0:0:0:
273,361,37562,6,0,P|301:342|334:340,1,67.4999979400635
403,287,37919,2,0,L|414:220,1,67.4999979400635
485,170,38277,1,0,0:0:0:0:
413,120,38455,2,0,L|401:53,1,67.4999979400635
325,12,38812,5,0,0:0:0:0:
325,12,38902,1,0,0:0:0:0:
325,12,38991,2,0,P|296:30|263:32,1,67.4999979400635,0|8,0:0|0:0,0:0:0:0:
183,0,39348,1,8,0:0:0:0:
73,75,39705,6,0,L|60:141,1,67.4999979400635
133,189,40062,2,0,L|121:256,1,67.4999979400635
181,320,40419,6,0,P|209:301|242:299,1,67.4999979400635,4|0,0:0|0:0,0:0:0:0:
371,281,40955,2,0,P|352:254|323:238,1,67.4999979400635
469,339,41491,6,0,L|480:272,1,67.4999979400635
414,118,42027,2,0,L|427:185,1,67.4999979400635
329,65,42562,6,0,P|300:83|267:85,1,67.4999979400635,0|8,0:0|0:0,0:0:0:0:
213,17,42919,2,0,L|146:4,1,67.4999979400635
84,67,43277,6,0,P|122:122|119:189,1,134.999995880127
37,217,43812,2,0,P|0:271|2:338,1,134.999995880127,0|8,0:0|0:0,0:0:0:0:
76,384,44348,2,0,L|142:371,1,67.4999979400635,0|8,0:0|0:0,0:0:0:0:
198,305,44705,1,0,0:0:0:0:
270,354,44884,1,8,0:0:0:0:
321,284,45062,1,8,0:0:0:0:
405,337,45241,5,0,0:0:0:0:
405,337,45330,1,0,0:0:0:0:
405,336,45419,2,0,P|445:285|439:219,1,134.999995880127,0|8,0:0|0:0,0:0:0:0:
439,219,46134,6,0,P|410:177|410:127,1,101.249996910095,4|8,0:0|0:0,0:0:0:0:
418,108,46491,2,0,L|351:96,1,67.4999979400635,0|8,0:0|0:0,0:0:0:0:
291,32,46848,2,0,L|224:43,1,67.4999979400635
177,118,47205,2,0,L|111:107,1,67.4999979400635,8|0,0:0|0:0,0:0:0:0:
56,40,47562,6,8,P|27:81|27:131,1,101.249996910095
36,150,47919,2,0,L|24:216,1,67.4999979400635,0|8,0:0|0:0,0:0:0:0:
110,231,48277,2,0,L|98:297,1,67.4999979400635,0|8,0:0|0:0,0:0:0:0:
184,312,48634,2,0,L|172:378,1,67.4999979400635,8|0,0:0|0:0,0:0:0:0:
264,361,48991,6,0,P|305:332|355:332,1,101.249996910095,0|8,0:0|0:0,0:0:0:0:
374,342,49348,2,0,L|385:275,1,67.4999979400635,0|8,0:0|0:0,0:0:0:0:
449,216,49705,2,0,P|420:174|420:124,1,101.249996910095,0|8,0:0|0:0,0:0:0:0:
430,105,50062,2,0,L|363:93,1,67.4999979400635,0|8,0:0|0:0,0:0:0:0:
304,28,50419,6,0,P|262:0|212:0,1,101.249996910095,0|8,0:0|0:0,0:0:0:0:
193,11,50777,2,0,L|181:77,1,67.4999979400635,0|8,0:0|0:0,0:0:0:0:
117,138,51134,6,0,L|122:171,3,33.7499989700318,8|8|0|0,0:0|0:0|0:0|0:0,0:0:0:0:
142,185,51491,2,0,L|154:251,1,67.4999979400635,8|0,0:0|0:0,0:0:0:0:
218,310,51848,6,0,P|267:310|309:338,1,101.249996910095,4|8,0:0|0:0,0:0:0:0:
320,355,52205,2,0,L|386:343,1,67.4999979400635,0|8,0:0|0:0,0:0:0:0:
433,269,52562,6,0,P|433:219|461:177,1,101.249996910095,0|8,0:0|0:0,0:0:0:0:
478,167,52919,2,0,L|466:101,1,67.4999979400635,0|8,0:0|0:0,0:0:0:0:
397,45,53277,6,0,P|347:44|305:16,1,101.249996910095,0|8,0:0|0:0,0:0:0:0:
295,0,53634,2,0,L|229:12,1,67.4999979400635,0|8,0:0|0:0,0:0:0:0:
161,69,53991,6,8,L|155:102,3,33.7499989700318,8|8|0|0,0:0|0:0|0:0|0:0,0:0:0:0:
136,115,54348,2,0,L|124:181,1,67.4999979400635,8|0,0:0|0:0,0:0:0:0:
172,254,54705,5,12,0:0:0:0:
253,206,54884,2,0,L|265:272,1,67.4999979400635,2|2,0:2|0:2,0:2:0:0:
361,337,55241,5,12,0:0:0:0:
268,354,55419,2,0,L|279:287,1,67.4999979400635,2|2,0:2|0:2,0:2:0:0:
414,266,55777,5,12,0:0:0:0:
354,201,55955,1,2,0:2:0:0:
407,130,56134,1,4,0:0:0:0:
407,130,57562,6,0,P|373:114|335:115,1,75,4|0,0:0|0:0,0:0:0:0:
273,53,57919,2,0,P|242:74|225:107,1,75,8|0,0:0|0:0,0:0:0:0:
157,163,58277,1,0,0:0:0:0:
92,101,58455,1,0,0:0:0:0:
20,151,58634,2,0,L|33:224,1,75,8|0,0:0|0:0,0:0:0:0:
99,283,58991,6,8,B|198:290|136:325|234:334,1,150
306,282,59527,2,0,P|311:245|332:214,1,75
407,171,59884,1,0,0:0:0:0:
381,87,60062,2,0,L|307:73,1,75,8|0,0:0|0:0,0:0:0:0:
245,12,60419,6,0,P|208:17|177:38,1,75
130,113,60777,1,8,0:0:0:0:
52,70,60955,1,0,0:0:0:0:
0,140,61134,2,0,L|26:287,1,150,0|8,0:0|0:0,0:0:0:0:
104,328,61669,6,0,P|155:276|228:278,1,150
297,333,62205,1,8,0:0:0:0:
377,294,62384,2,0,L|403:146,1,150
336,91,62919,2,0,L|322:17,1,75,8|0,0:0|0:0,0:0:0:0:
270,150,63277,5,4,0:0:0:0:
270,150,63455,1,0,0:0:0:0:
182,121,63634,1,8,0:0:0:0:
182,121,63812,1,0,0:0:0:0:
130,192,63991,2,0,P|99:212|62:218,1,75
4,284,64348,2,0,L|17:357,1,75,8|0,0:0|0:0,0:0:0:0:
100,384,64705,5,0,0:0:0:0:
159,317,64884,2,0,P|189:296|226:290,1,75,0|8,0:0|0:0,0:0:0:0:
283,358,65241,2,0,L|356:371,1,75
419,310,65598,1,0,0:0:0:0:
368,240,65777,2,0,P|373:203|394:172,1,75,8|0,0:0|0:0,0:0:0:0:
464,120,66134,6,0,L|450:46,1,75
376,0,66491,2,8,P|325:23|271:14,1,112.5
249,5,66848,2,0,L|235:78,1,75
157,119,67205,2,0,L|170:192,1,75,8|0,0:0|0:0,0:0:0:0:
106,253,67562,5,0,0:0:0:0:
160,322,67741,2,0,P|190:342|227:348,1,75,8|0,0:0|0:0,0:0:0:0:
283,281,68098,5,0,0:0:0:0:
358,329,68277,1,0,0:0:0:0:
410,256,68455,1,0,0:0:0:0:
485,304,68634,2,8,L|491:340,3,37.5
499,285,68991,6,0,L|512:211,1,75,4|0,0:0|0:0,0:0:0:0:
472,132,69348,2,0,P|441:112|404:105,1,75,8|0,0:0|0:0,0:0:0:0:
313,88,69705,2,0,L|327:162,1,75
289,241,70062,2,0,P|258:261|221:267,1,75,8|0,0:0|0:0,0:0:0:0:
132,148,70419,6,0,L|146:222,1,75
66,271,70777,2,0,L|52:197,1,75,8|0,0:0|0:0,0:0:0:0:
0,127,71134,2,0,P|5:90|25:58,1,75
109,42,71491,2,0,P|145:47|177:67,1,75,8|0,0:0|0:0,0:0:0:0:
221,143,71848,6,0,P|257:137|289:117,1,75
336,43,72205,1,8,0:0:0:0:
414,86,72384,1,0,0:0:0:0:
507,67,72562,2,0,L|481:214,1,150,0|8,0:0|0:0,0:0:0:0:
512,296,73097,6,0,P|461:348|388:346,1,150
323,287,73634,1,8,0:0:0:0:
237,302,73812,2,0,L|90:328,1,150
23,271,74348,2,0,P|28:234|48:202,1,75,8|0,0:0|0:0,0:0:0:0:
110,141,74705,5,4,0:0:0:0:
110,141,74884,1,0,0:0:0:0:
193,186,75062,1,8,0:0:0:0:
193,186,75241,1,0,0:0:0:0:
251,118,75419,2,0,P|288:123|320:143,1,75
380,207,75777,1,8,0:0:0:0:
461,170,75955,1,0,0:0:0:0:
512,243,76134,6,0,L|498:316,1,75
425,365,76491,1,8,0:0:0:0:
349,323,76669,2,0,P|312:328|280:348,1,75
220,284,77027,1,0,0:0:0:0:
147,334,77205,2,0,L|73:320,1,75,8|0,0:0|0:0,0:0:0:0:
22,249,77562,5,0,0:0:0:0:
22,249,77741,1,0,0:0:0:0:
92,193,77919,1,8,0:0:0:0:
92,193,78098,1,0,0:0:0:0:
43,115,78277,2,0,L|56:41,1,75
133,0,78634,1,8,0:0:0:0:
159,84,78812,6,0,P|210:136|283:134,1,150
330,60,79348,2,0,P|361:40|398:35,1,75,8|0,0:0|0:0,0:0:0:0:
463,93,79705,2,0,L|449:166,1,75
373,211,80062,2,0,L|386:284,1,75,8|0,0:0|0:0,0:0:0:0:
403,371,80419,1,0,0:0:0:0:
403,371,80777,5,8,0:0:0:0:
315,357,80955,1,8,0:0:0:0:
296,257,81134,5,8,0:0:0:0:
190,273,81312,1,8,0:0:0:0:
162,384,81491,5,8,0:0:0:0:
38,364,81669,1,8,0:0:0:0:
118,221,81848,5,8,0:0:0:0:
118,221,83277,6,0,L|104:147,1,75,4|0,0:0|0:0,0:0:0:0:
158,78,83634,2,0,L|231:64,1,75,8|0,0:0|0:0,0:0:0:0:
301,118,83991,2,0,L|314:191,1,75,8|0,0:0|0:0,0:0:0:0:
388,239,84348,2,0,L|461:226,1,75,8|0,0:0|0:0,0:0:0:0:
347,381,84705,6,0,L|333:307,1,75,8|0,0:0|0:0,0:0:0:0:
259,260,85062,2,0,L|185:272,1,75,8|0,0:0|0:0,0:0:0:0:
314,191,85419,2,0,L|301:118,1,75,8|0,0:0|0:0,0:0:0:0:
355,49,85777,2,0,L|428:35,1,75,8|0,0:0|0:0,0:0:0:0:
499,83,86134,6,0,L|512:156,1,75,8|0,0:0|0:0,0:0:0:0:
461,226,86491,2,0,L|388:239,1,75,8|0,0:0|0:0,0:0:0:0:
333,307,86848,2,0,L|347:381,1,75,8|0,0:0|0:0,0:0:0:0:
259,260,87205,6,0,L|185:272,1,75,8|0,0:0|0:0,0:0:0:0:
118,221,87562,2,0,L|104:147,1,75,4|0,0:0|0:0,0:0:0:0:
158,78,87919,2,0,L|231:64,1,75,8|0,0:0|0:0,0:0:0:0:
301,118,88277,5,8,0:0:0:0:
395,101,88455,1,8,0:0:0:0:
362,190,88634,5,8,0:0:0:0:
456,173,88812,1,8,0:0:0:0:
