osu file format v14

[General]
AudioFilename: Uchida Maaya - youthful beautiful.mp3
AudioLeadIn: 0
PreviewTime: 57683
Countdown: 0
SampleSet: Soft
StackLeniency: 0.7
Mode: 0
LetterboxInBreaks: 0
EpilepsyWarning: 1
WidescreenStoryboard: 1

[Editor]
Bookmarks: 6314,12028,23456,34885,46314,57742,83456
DistanceSpacing: 1
BeatDivisor: 4
GridSize: 32
TimelineZoom: 2.7

[Metadata]
Title:youthful beautiful (TV Size)
TitleUnicode:youthful beautiful (TV Size)
Artist:Uchida Maaya
ArtistUnicode:内田真礼
Creator:frozz
Version:normal
Source:SSSS.GRIDMAN
Tags:ssss gridman ed ending female shinjou akane 新条 アカネ Shinjō RIRIKO 白戸佑輔 Shirato Yūsuke Yuusuke mecha vocalist japanese rock jrock j-rock anime -Keqing sanairrt
BeatmapID:2905102
BeatmapSetID:1408873

[Difficulty]
HPDrainRate:4
CircleSize:3
OverallDifficulty:4
ApproachRate:5
SliderMultiplier:0.999999999999999
SliderTickRate:1

[Events]
//Background and Video events
0,0,"Uchida Maaya - youthful beautiful.jpg",0,0
//Break Periods
//Storyboard Layer 0 (Background)
//Storyboard Layer 1 (Fail)
//Storyboard Layer 2 (Pass)
//Storyboard Layer 3 (Foreground)
Sprite,Foreground,Centre,"sb\info\map-by-frozz.png",320,240 S,0,3457,,0.4054193 F,0,3635,3814,0,1 F,0,3814,4707,1 F,0,4707,4885,1,0
//Storyboard Layer 4 (Overlay)
//Storyboard Sound Samples

[TimingPoints]
592,357.142857142857,4,2,1,40,1,0
592,-111.111111111111,4,2,1,40,0,0
3457,357.142857142857,4,2,1,50,1,0
3457,-111.111111111111,4,2,1,50,0,0
5957,-111.111111111111,4,2,1,65,0,0
6314,-100,4,2,1,70,0,0
12028,-111.111111111111,4,2,1,50,0,0
23457,-105.263157894737,4,2,1,60,0,0
34885,-105.263157894737,4,2,1,65,0,0
35064,-100,4,2,1,65,0,0
46314,-95.2380952380952,4,2,1,70,0,0
57207,-95.2380952380952,4,2,1,60,0,0
57742,-90.9090909090909,4,2,2,60,0,1
57920,-90.9090909090909,4,2,2,85,0,1
61135,-90.9090909090909,4,2,1,85,0,1
61314,-90.9090909090909,4,2,2,85,0,1
61850,-90.9090909090909,4,2,1,85,0,1
62385,-90.9090909090909,4,2,2,85,0,1
62564,-90.9090909090909,4,2,1,85,0,1
63100,-90.9090909090909,4,2,2,85,0,1
63635,-90.9090909090909,4,2,1,85,0,1
63814,-90.9090909090909,4,2,2,85,0,1
63992,-90.9090909090909,4,2,1,85,0,1
64171,-90.9090909090909,4,2,2,85,0,1
64707,-90.9090909090909,4,2,1,85,0,1
64885,-90.9090909090909,4,2,2,85,0,1
65064,-90.9090909090909,4,2,1,85,0,1
65957,-90.9090909090909,4,2,2,85,0,1
66135,-90.9090909090909,4,2,1,85,0,1
66314,-90.9090909090909,4,2,2,85,0,1
67564,-90.9090909090909,4,2,1,85,0,1
69171,-90.9090909090909,4,2,2,85,0,1
72564,-90.9090909090909,4,2,1,85,0,1
72742,-90.9090909090909,4,2,2,85,0,1
73278,-90.9090909090909,4,2,1,85,0,1
73813,-90.9090909090909,4,2,2,85,0,1
73992,-90.9090909090909,4,2,1,85,0,1
74528,-90.9090909090909,4,2,2,85,0,1
75063,-90.9090909090909,4,2,1,85,0,1
75242,-90.9090909090909,4,2,2,85,0,1
75420,-90.9090909090909,4,2,1,85,0,1
75600,-90.9090909090909,4,2,2,85,0,1
76135,-90.9090909090909,4,2,1,85,0,1
76314,-90.9090909090909,4,2,2,85,0,1
77920,-90.9090909090909,4,2,1,85,0,1
78100,-90.9090909090909,4,2,2,85,0,1
78278,-90.9090909090909,4,2,1,85,0,1
78457,-90.9090909090909,4,2,2,85,0,1
78992,-90.9090909090909,4,2,1,85,0,1
79171,-90.9090909090909,4,2,2,85,0,1
80600,-90.9090909090909,4,2,1,85,0,1
83456,-100,4,2,1,70,0,0

[Colours]
Combo1 : 240,106,255
Combo2 : 158,106,255

[HitObjects]
355,364,592,6,0,L|461:352,1,90,0|0,3:0|3:0,2:0:0:0:
431,264,1306,2,0,L|341:274,1,90,0|0,3:0|3:0,2:0:0:0:
267,325,2020,2,0,P|250:272|261:235,1,90,0|0,3:0|3:0,2:0:0:0:
330,186,2734,1,0,3:0:0:0:
336,98,3091,1,0,3:0:0:0:
257,54,3457,6,0,L|163:72,2,90,0|0|0,3:0|3:0|3:0,2:0:0:0:
336,98,4528,1,0,3:0:0:0:
412,50,4885,2,0,B|446:103|419:171|401:135|366:198|392:264,1,225,0|0,3:0|1:2,2:0:0:0:
420,295,5957,1,8,2:0:0:0:
346,362,6314,6,0,L|239:346,1,99.9999999999999,6|10,1:2|2:0,2:0:0:0:
205,371,6850,1,0,1:2:0:0:
205,371,7028,2,0,P|154:354|136:302,1,99.9999999999999,2|10,1:2|2:0,2:0:0:0:
198,236,7742,2,0,P|232:198|233:138,1,99.9999999999999,2|10,1:2|2:0,2:0:0:0:
219,109,8278,1,0,2:0:0:0:
219,109,8457,2,0,L|157:104,1,49.9999999999999,2|2,1:2|1:2,2:0:0:0:
123,85,8814,1,10,2:0:0:0:
45,21,9171,6,0,P|17:73|24:126,1,99.9999999999999,2|10,1:2|2:0,2:0:0:0:
50,158,9707,1,0,1:2:0:0:
50,158,9885,2,0,L|31:279,1,99.9999999999999,2|10,1:2|2:0,2:0:0:0:
93,337,10600,2,0,B|143:324|143:324|199:342,1,99.9999999999999,2|10,1:2|2:0,2:0:0:0:
236,355,11135,2,0,L|293:341,1,49.9999999999999,2|8,1:2|2:0,2:0:0:0:
353,270,11671,2,0,L|340:212,1,49.9999999999999,8|4,2:0|2:3,2:0:0:0:
302,199,12028,6,0,P|256:155|273:80,1,135,6|0,1:2|3:0,2:0:0:0:
306,72,12742,1,2,2:0:0:0:
481,32,13457,2,0,P|469:99|467:136,1,90,2|0,2:0|2:0,2:0:0:0:
453,163,13992,2,0,P|465:230|467:267,1,90,2|0,2:0|2:0,2:0:0:0:
417,328,14707,5,2,2:0:0:0:
417,328,14885,2,0,B|348:309|362:364|282:351,1,135,2|2,2:0|2:0,2:0:0:0:
249,330,15600,1,2,2:0:0:0:
74,373,16314,2,0,P|63:328|74:276,1,90,0|0,3:0|2:0,2:0:0:0:
94,248,16850,2,0,P|105:203|94:151,1,90,0|0,3:0|2:0,2:0:0:0:
75,121,17385,1,2,2:0:0:0:
16,52,17742,6,0,P|52:32|116:40,1,90,2|0,2:0|2:0,2:0:0:0:
185,61,18457,2,0,L|175:108,1,45,2|2,2:0|2:0,2:0:0:0:
243,163,18992,2,0,P|296:168|327:254,1,135,0|0,2:0|3:0,2:0:0:0:
268,354,20064,6,0,L|209:346,1,45,2|2,2:0|2:0,2:0:0:0:
178,355,20421,2,0,B|153:317|153:317|174:222,1,135,2|0,2:0|2:0,2:0:0:0:
129,156,21314,1,2,2:0:0:0:
129,156,21492,2,0,P|172:140|219:158,1,90,2|0,2:0|2:0,2:0:0:0:
282,95,22207,2,0,L|262:1,2,90,0|2|2,2:0|2:0|3:0,2:0:0:0:
316,124,23100,1,2,3:2:0:0:
366,204,23457,6,0,P|307:218|267:206,1,94.9999999999998,6|0,1:2|1:0,2:0:0:0:
211,140,24171,2,0,P|152:126|112:138,1,94.9999999999998,2|0,1:2|1:2,2:0:0:0:
73,216,24885,2,0,P|90:274|120:302,1,94.9999999999998,2|0,1:2|1:2,2:0:0:0:
160,286,25421,2,0,L|269:295,1,94.9999999999998,2|2,2:0|2:0,2:0:0:0:
321,368,26135,5,2,3:2:0:0:
321,368,26314,2,0,P|364:332|356:246,1,142.5,0|0,1:2|2:0,2:0:0:0:
321,223,27028,2,0,L|330:114,1,94.9999999999998,2|0,1:2|1:2,2:0:0:0:
397,63,27742,2,0,P|348:34|301:39,1,94.9999999999998,0|0,1:2|1:2,2:0:0:0:
232,86,28457,1,0,1:2:0:0:
232,86,28635,2,0,L|226:152,1,47.4999999999999,2|2,3:2|1:2,2:0:0:0:
224,180,28992,6,0,P|220:247|163:291,1,142.5,2|2,3:2|1:2,2:0:0:0:
76,253,29885,2,0,L|64:194,1,47.4999999999999,2|2,1:2|2:0,2:0:0:0:
40,120,30421,1,2,3:2:0:0:
40,120,30600,2,0,P|79:93|134:98,1,94.9999999999998,0|0,1:2|1:2,2:0:0:0:
211,146,31314,1,0,1:2:0:0:
211,146,31492,2,0,L|266:130,1,47.4999999999999,2|2,2:0|1:2,2:0:0:0:
301,148,31850,6,0,P|353:186|357:266,1,142.5,2|2,3:2|1:2,2:0:0:0:
265,273,32742,2,0,L|201:265,1,47.4999999999999,2|2,1:2|2:0,2:0:0:0:
206,361,33278,2,0,L|300:372,1,94.9999999999998,2|0,3:2|2:0,2:0:0:0:
346,362,33814,1,2,1:2:0:0:
438,341,34171,2,0,L|448:286,1,47.4999999999999,0|8,1:2|2:0,2:0:0:0:
456,247,34528,1,8,2:3:0:0:
479,152,34885,5,6,1:2:0:0:
479,152,35064,2,0,P|422:150|379:189,1,99.9999999999999,2|10,2:0|2:3,2:0:0:0:
372,220,35600,1,2,1:2:0:0:
284,265,35957,1,6,2:3:0:0:
284,265,36135,2,0,P|227:267|184:228,1,99.9999999999999,6|2,2:3|2:0,2:0:0:0:
177,197,36671,1,2,1:2:0:0:
260,142,37028,2,0,L|279:38,1,99.9999999999999,2|2,1:2|1:2,2:0:0:0:
178,54,37742,6,0,L|124:45,1,49.9999999999999,6|2,1:2|2:0,2:0:0:0:
80,32,38100,1,2,1:2:0:0:
35,123,38457,1,2,2:0:0:0:
35,123,38635,2,0,P|66:154|65:222,1,99.9999999999999,6|6,2:3|2:3,2:0:0:0:
47,252,39171,2,0,L|61:309,1,49.9999999999999,0|8,1:2|2:0,2:0:0:0:
76,347,39528,1,8,2:0:0:0:
158,290,39885,2,0,B|204:273|204:273|263:293,1,99.9999999999999,0|4,1:2|2:3,2:0:0:0:
330,360,40600,5,6,1:2:0:0:
330,360,40778,2,0,P|352:326|351:262,1,99.9999999999999,2|10,2:0|2:3,2:0:0:0:
325,225,41314,1,14,2:3:0:0:
241,181,41671,1,6,2:3:0:0:
241,181,41850,2,0,P|219:147|220:83,1,99.9999999999999,6|2,2:3|2:0,2:0:0:0:
246,46,42385,1,2,1:2:0:0:
328,102,42742,2,0,L|382:88,1,49.9999999999999,2|10,1:2|2:0,2:0:0:0:
424,75,43100,2,0,L|478:61,1,49.9999999999999,2|6,1:2|2:3,2:0:0:0:
499,104,43457,6,0,B|525:151|525:151|497:257,1,150,6|10,1:2|2:3,2:0:0:0:
475,343,44350,1,8,2:0:0:0:
475,343,44528,2,0,P|435:336|417:333,1,49.9999999999999,2|12,1:2|2:0,2:0:0:0:
378,351,44885,2,0,P|324:335|307:282,1,99.9999999999999,0|8,1:2|2:0,2:0:0:0:
345,206,45600,2,0,L|334:146,1,49.9999999999999,10|4,2:3|2:3,2:0:0:0:
326,107,45957,1,14,2:0:0:0:
400,33,46314,6,0,P|364:8|293:8,1,105,6|0,1:2|1:2,2:0:0:0:
263,34,46850,1,8,2:0:0:0:
263,34,47028,2,0,L|149:20,1,105,6|4,2:3|2:3,2:0:0:0:
76,86,47742,2,0,L|120:191,1,105,10|0,2:0|1:2,2:0:0:0:
210,231,48457,2,0,L|195:288,1,52.5,2|8,1:2|2:0,2:0:0:0:
183,332,48814,1,10,2:0:0:0:
86,373,49171,6,0,B|64:322|64:322|84:262,1,105,4|0,1:2|1:2,2:0:0:0:
62,231,49707,1,8,2:0:0:0:
62,231,49885,2,0,B|84:180|84:180|64:120,1,105,0|0,1:2|1:2,2:0:0:0:
24,37,50600,2,0,B|74:24|74:24|126:42,1,105,0|0,1:2|1:2,2:0:0:0:
208,104,51314,2,0,L|268:94,1,52.5,2|0,1:2|1:2,2:0:0:0:
309,111,51671,1,10,2:0:0:0:
354,16,52028,6,0,P|395:48|414:96,1,105,6|0,1:2|1:2,2:0:0:0:
435,150,52564,1,8,2:0:0:0:
435,150,52742,2,0,P|394:181|375:230,1,105,2|0,1:2|1:2,2:0:0:0:
406,330,53457,2,0,L|295:312,1,105,2|2,1:2|1:2,2:0:0:0:
207,357,54171,2,0,P|195:308|201:284,1,52.5,10|8,2:0|2:3,2:0:0:0:
205,255,54528,2,0,P|217:206|211:182,1,52.5,10|4,2:0|2:3,2:0:0:0:
203,153,54885,5,14,2:0:0:0:
82,51,55421,1,14,2:0:0:0:
54,207,55957,2,0,P|66:249|68:275,1,52.5,14|2,2:0|1:2,2:0:0:0:
78,309,56314,1,14,2:0:0:0:
203,78,57207,6,0,L|145:68,2,52.5,2|2|2,2:1|2:1|2:1,2:0:0:0:
253,100,57742,6,0,P|289:92|320:86,1,55,6|0,1:2|2:0,2:0:0:0:
358,107,58100,2,0,P|394:115|425:121,1,55,10|0,2:0|2:0,2:0:0:0:
463,98,58457,2,0,P|503:132|505:204,1,110,2|10,1:2|2:0,2:0:0:0:
467,287,59171,2,0,L|356:266,1,110,2|10,1:2|2:0,2:0:0:0:
313,294,59707,1,0,1:2:0:0:
313,294,59885,2,0,P|282:304|257:320,1,55,2|0,2:0|1:2,2:0:0:0:
230,360,60242,1,10,2:0:0:0:
127,320,60600,6,0,B|107:283|107:283|127:210,1,110,2|10,1:2|2:0,2:0:0:0:
178,196,61135,1,2,2:0:0:0:
178,196,61314,2,0,B|195:130|195:130|175:93,1,110,2|10,1:2|2:0,2:0:0:0:
138,53,61850,1,2,0:2:0:0:
50,119,62207,2,0,L|30:183,1,55,2|10,2:0|2:0,2:0:0:0:
42,225,62564,2,0,P|10:258|10:328,1,110,2|2,1:2|1:2,2:0:0:0:
35,366,63100,1,10,2:0:0:0:
124,301,63457,6,0,P|174:291|194:291,1,55,6|2,1:2|2:0,2:0:0:0:
232,301,63814,2,0,P|282:311|302:311,1,55,10|2,2:0|2:0,2:0:0:0:
340,305,64171,1,2,1:2:0:0:
438,364,64528,1,10,2:0:0:0:
438,364,64707,2,0,P|449:324|451:305,1,55,2|2,0:2|1:2,2:0:0:0:
460,256,65064,2,0,P|431:205|441:138,1,110,2|2,2:0|1:2,2:0:0:0:
479,57,65778,1,2,1:2:0:0:
479,57,65957,2,0,P|439:47|418:47,1,55,10|2,2:0|0:2,2:0:0:0:
379,76,66314,6,0,B|339:102|339:102|255:82,1,110,2|10,1:2|2:0,2:0:0:0:
186,27,67028,2,0,B|160:67|160:67|180:151,1,110,2|10,1:2|2:0,2:0:0:0:
201,181,67564,1,2,2:0:0:0:
201,181,67742,2,0,L|187:241,1,55,10|10,2:0|2:3,2:0:0:0:
290,276,68278,2,0,L|302:222,1,55,6|2,1:2|2:0,2:0:0:0:
350,195,68635,1,2,1:2:0:0:
447,257,68992,1,8,2:0:0:0:
447,257,69171,6,0,P|464:212|466:196,1,55,6|0,1:2|2:0,2:0:0:0:
454,151,69528,2,0,P|437:106|435:90,1,55,10|0,2:0|2:0,2:0:0:0:
438,44,69885,2,0,P|407:23|335:26,1,110,2|10,1:2|2:0,2:0:0:0:
237,71,70600,2,0,P|206:92|134:89,1,110,2|10,1:2|2:0,2:0:0:0:
88,72,71135,1,0,1:2:0:0:
88,72,71314,2,0,P|59:84|31:97,1,55,2|0,2:0|1:2,2:0:0:0:
3,137,71671,1,10,2:0:0:0:
49,236,72028,6,0,B|28:284|28:284|43:351,1,110,2|10,1:2|2:0,2:0:0:0:
91,372,72564,1,2,2:0:0:0:
91,372,72742,2,0,B|143:366|143:366|193:319,1,110,2|10,1:2|2:0,2:0:0:0:
191,272,73278,1,2,0:2:0:0:
261,187,73635,2,0,L|252:129,1,55,2|10,2:0|2:0,2:0:0:0:
254,77,73992,2,0,P|288:37|349:33,1,110,2|2,1:2|1:2,2:0:0:0:
389,59,74528,1,10,2:0:0:0:
485,6,74885,6,0,P|497:37|499:71,1,55,6|2,1:2|2:0,2:0:0:0:
487,112,75242,2,0,P|475:143|473:177,1,55,10|2,2:0|2:0,2:0:0:0:
481,218,75600,1,2,1:2:0:0:
407,300,75957,2,0,P|368:294|344:291,1,55,10|2,2:0|0:2,2:0:0:0:
301,312,76314,2,0,B|274:264|274:264|297:199,1,110,2|10,1:2|2:0,2:0:0:0:
337,180,76850,2,0,B|355:128|355:128|328:80,1,110,0|0,1:2|1:2,2:0:0:0:
273,76,77385,1,10,2:0:0:0:
177,21,77742,6,0,P|160:65|161:95,1,55,6|2,1:2|2:0,2:0:0:0:
172,125,78100,2,0,P|189:169|188:199,1,55,10|2,2:0|2:0,2:0:0:0:
174,229,78457,1,2,1:2:0:0:
95,306,78814,2,0,P|119:327|143:339,1,55,10|2,2:0|0:2,2:0:0:0:
193,346,79171,2,0,P|226:325|298:322,1,110,2|10,1:2|2:0,2:0:0:0:
352,310,79707,1,0,1:2:0:0:
352,310,79885,2,0,P|385:331|457:334,1,110,2|10,2:0|2:0,2:0:0:0:
481,228,80600,6,0,L|460:108,1,110,6|8,1:2|2:0,2:0:0:0:
367,74,81314,1,8,2:0:0:0:
367,74,81492,2,0,P|333:98|315:116,1,55,8|8,2:0|2:0,2:0:0:0:
310,163,81850,1,8,2:0:0:0:
310,163,82028,2,0,B|232:212|132:173|185:146|95:93|-3:142,1,330,14|8,1:2|2:0,2:0:0:0:
3,240,83457,6,0,B|-17:283|-17:283|3:347,1,99.9999999999999,6|10,1:2|2:0,2:0:0:0:
94,362,84171,2,0,L|148:350,1,49.9999999999999,10|2,2:0|1:2,2:0:0:0:
189,332,84528,2,0,L|243:344,1,49.9999999999999,10|0,2:0|1:2,2:0:0:0:
284,361,84885,2,0,B|298:336|298:336|285:249,1,99.9999999999999,14|10,2:0|2:0,2:0:0:0:
319,170,85600,2,0,L|311:113,1,49.9999999999999,10|2,2:0|1:2,2:0:0:0:
300,71,85957,1,10,2:0:0:0:
386,21,86314,6,0,B|437:27|437:27|472:75,1,99.9999999999999,14|10,2:0|2:0,2:0:0:0:
474,120,86850,1,2,1:2:0:0:
474,120,87028,2,0,B|434:148|434:148|428:199,1,99.9999999999999,10|10,2:0|2:0,2:0:0:0:
467,291,87742,2,0,L|354:275,1,99.9999999999999,6|10,1:2|2:0,2:0:0:0:
274,303,88457,1,10,2:0:0:0:
274,303,88635,2,0,P|239:322|220:335,1,49.9999999999999,10|10,2:0|2:0,2:0:0:0:
204,370,88992,1,6,1:2:0:0:
