osu file format v14

[General]
AudioFilename: thicc.mp3
AudioLeadIn: 0
PreviewTime: 57681
Countdown: 0
SampleSet: Soft
StackLeniency: 0.7
Mode: 0
LetterboxInBreaks: 0
WidescreenStoryboard: 0

[Editor]
Bookmarks: 539,6253,11967,17681,23396,29110,34824,40538,46253,51967,57681,83038,83396,88931
DistanceSpacing: 1
BeatDivisor: 4
GridSize: 32
TimelineZoom: 1.7

[Metadata]
Title:youthful beautiful (TV Size)
TitleUnicode:youthful beautiful (TV Size)
Artist:Uchida Maaya
ArtistUnicode:内田真礼
Creator:eiri-
Version:Normal
Source:SSSS.GRIDMAN
Tags:SSSS GRIDMAN Ayyri toybot Lafayla MaridiuS Onlybiscuit Log Off Now LON Log_Off_Now Sotarks Ending ED Japanese Anime
BeatmapID:1938322
BeatmapSetID:928014

[Difficulty]
HPDrainRate:4
CircleSize:3
OverallDifficulty:5
ApproachRate:5
SliderMultiplier:1
SliderTickRate:1

[Events]
//Background and Video events
0,0,"Akane 486.jpg",0,0
//Break Periods
//Storyboard Layer 0 (Background)
//Storyboard Layer 1 (Fail)
//Storyboard Layer 2 (Pass)
//Storyboard Layer 3 (Foreground)
//Storyboard Sound Samples

[TimingPoints]
539,357.142857142857,4,2,22,50,1,0
6253,-100,4,2,22,80,0,0
11967,-100,4,2,22,70,0,0
23396,-100,4,2,22,75,0,0
34824,-100,4,2,22,80,0,0
46253,-100,4,2,22,85,0,0
57681,-100,4,2,22,90,0,1
83038,-100,4,2,22,90,0,0
83396,-100,4,2,22,90,0,1
88931,-100,4,2,22,90,0,0

[Colours]
Combo1 : 181,200,244
Combo2 : 238,170,255
Combo3 : 206,171,254
Combo4 : 255,170,176

[HitObjects]
296,164,539,5,2,0:0:0:0:
368,246,896,2,0,P|431:253|487:236,2,100,2|2|2,0:0|0:0|0:0,0:0:0:0:
284,301,1967,2,0,P|221:294|165:311,1,100,2|2,0:0|0:0,0:0:0:0:
101,248,2681,2,0,L|92:199,1,50,2|2,0:0|0:0,0:0:0:0:
124,160,3038,2,0,L|133:111,1,50,2|2,0:0|0:0,0:0:0:0:
146,62,3396,5,2,0:0:0:0:
229,116,3753,2,0,L|242:222,2,100,2|2|2,0:0|0:0|0:0,0:0:0:0:
305,51,4824,2,0,B|355:42|355:42|418:63,1,100,2|0,0:0|0:0,0:0:0:0:
445,82,5360,1,2,0:0:0:0:
474,177,5717,2,0,L|471:235,1,50,0|8,1:0|0:0,0:0:0:0:
459,326,6253,6,0,L|354:313,1,100,6|10,1:2|0:2,0:0:0:0:
310,308,6788,1,0,0:2:0:0:
310,308,6967,2,0,L|299:237,1,50,2|2,1:2|1:2,0:0:0:0:
295,208,7324,1,10,0:2:0:0:
275,110,7681,6,0,L|170:123,1,100,2|10,1:2|0:2,0:0:0:0:
126,128,8216,1,0,0:2:0:0:
126,128,8395,2,0,L|115:199,1,50,2|2,1:2|1:2,0:0:0:0:
111,228,8752,1,10,0:2:0:0:
147,321,9110,6,0,P|194:330|250:307,1,100,2|10,1:2|0:2,0:0:0:0:
278,278,9646,1,0,0:2:0:0:
278,278,9824,2,0,L|346:273,1,50,2|2,0:2|1:2,0:0:0:0:
377,270,10181,1,10,0:2:0:0:
448,200,10538,6,0,B|461:147|461:147|448:80,1,100,2|10,1:2|0:2,0:0:0:0:
437,54,11074,1,2,0:2:0:0:
437,54,11253,2,0,L|371:42,1,50,8|8,0:2|0:2,0:0:0:0:
340,61,11610,2,0,L|274:49,1,50,8|4,0:0|0:3,0:0:0:0:
242,39,11967,5,4,1:2:0:0:
45,3,12681,2,0,B|54:104|54:104|32:172,1,150,2|0,0:0|0:0,0:0:0:0:
17,195,13396,2,0,P|60:198|112:226,1,100,2|2,0:0|0:0,0:0:0:0:
139,264,13931,1,2,0:0:0:0:
182,353,14288,1,2,0:0:0:0:
277,323,14646,1,2,0:0:0:0:
277,323,14824,6,0,L|288:206,1,100,0|0,0:0|0:0,0:0:0:0:
297,174,15360,1,2,0:0:0:0:
297,174,15538,2,0,P|343:176|399:136,1,100,2|0,0:0|0:0,0:0:0:0:
476,102,16253,2,0,L|465:268,1,150,0|0,0:0|0:0,0:0:0:0:
388,315,17146,2,0,L|395:373,2,50,2|2|2,0:0|0:0|0:0,0:0:0:0:
358,274,17681,6,0,P|302:264|251:283,1,100,0|2,0:0|0:0,0:0:0:0:
179,333,18396,2,0,B|123:329,1,50,2|2,0:0|0:0,0:0:0:0:
62,255,18931,2,0,L|54:142,1,100,2|0,0:0|0:0,0:0:0:0:
49,105,19467,1,0,0:0:0:0:
125,40,19824,1,0,0:0:0:0:
125,40,20003,2,0,P|173:30|220:46,1,100,2|2,0:0|0:0,0:0:0:0:
255,82,20538,5,0,0:0:0:0:
352,60,20896,1,2,0:0:0:0:
370,162,21253,1,2,0:0:0:0:
370,162,21431,2,0,P|371:227|380:282,2,100,2|2|2,0:0|0:0|0:0,0:0:0:0:
442,92,22503,1,2,0:0:0:0:
385,9,22860,2,0,L|324:3,1,50,2|0,3:2|3:0,0:0:0:0:
238,29,23396,5,4,1:2:0:0:
174,106,23753,1,0,1:2:0:0:
77,81,24110,2,0,L|71:199,1,100,2|0,1:2|1:2,0:0:0:0:
63,280,24824,1,2,1:2:0:0:
129,354,25181,1,2,1:2:0:0:
129,354,25360,2,0,L|231:345,1,100,2|2,0:2|0:2,0:0:0:0:
327,333,26074,1,2,0:2:0:0:
327,333,26253,6,0,P|356:271|350:180,1,150,0|2,1:2|0:2,0:0:0:0:
335,144,26967,1,2,1:2:0:0:
259,78,27324,2,0,B|209:66|209:66|146:80,1,100,0|0,1:2|1:2,0:0:0:0:
110,162,28038,2,0,B|157:172|157:172|207:160,1,100,0|0,1:2|1:2,0:0:0:0:
256,168,28574,2,0,L|252:223,1,50,2|2,0:2|1:2,0:0:0:0:
253,267,28931,1,2,0:2:0:0:
253,267,29110,6,0,L|352:258,1,100,0|2,1:2|1:2,0:0:0:0:
451,246,29824,1,2,1:2:0:0:
451,246,30003,2,0,L|456:183,1,50,2|0,0:2|1:2,0:0:0:0:
463,146,30360,2,0,P|435:122|365:111,1,100,2|0,0:2|0:2,0:0:0:0:
325,120,30896,1,0,1:2:0:0:
230,153,31253,1,0,1:2:0:0:
230,153,31431,2,0,L|216:87,2,50,2|2|2,0:2|1:2|0:2,0:0:0:0:
216,201,31967,6,0,L|94:195,1,100,0|2,1:2|1:2,0:0:0:0:
16,190,32681,1,2,1:2:0:0:
16,190,32860,2,0,P|-4:142|10:79,1,100,2|2,0:2|0:2,0:0:0:0:
47,6,33574,1,2,0:2:0:0:
47,6,33753,2,0,L|106:11,1,50,2|0,1:2|0:2,0:0:0:0:
196,19,34288,1,8,0:2:0:0:
196,19,34467,2,0,L|202:71,1,50,8|8,0:3|0:3,0:0:0:0:
206,118,34824,5,6,1:2:0:0:
206,118,35003,2,0,L|321:104,1,100,2|10,0:2|1:3,0:0:0:0:
354,100,35538,1,2,1:2:0:0:
453,86,35896,1,6,1:3:0:0:
453,86,36074,2,0,P|453:111|464:143,1,50,2|0,1:2|1:0,0:0:0:0:
481,180,36431,1,2,0:0:0:0:
481,180,36610,2,0,L|474:293,1,100,2|2,1:2|1:2,0:0:0:0:
393,338,37324,1,6,1:3:0:0:
332,258,37681,6,0,L|336:149,2,100,6|2|2,1:2|1:2|1:2,0:0:0:0:
292,289,38574,1,6,1:3:0:0:
218,356,38931,2,0,P|147:368|108:353,1,100,2|8,1:2|0:0,0:0:0:0:
87,323,39467,1,8,0:0:0:0:
104,224,39824,2,0,L|90:115,1,100,10|6,1:3|1:3,0:0:0:0:
84,25,40538,5,6,1:2:0:0:
84,25,40717,2,0,L|199:11,1,100,2|10,0:2|1:3,0:0:0:0:
232,7,41252,1,2,1:2:0:0:
314,63,41610,1,6,1:3:0:0:
314,63,41788,2,0,P|339:63|371:52,1,50,2|0,1:2|1:0,0:0:0:0:
409,39,42145,1,2,0:0:0:0:
409,39,42324,2,0,L|400:147,1,100,2|2,1:2|1:2,0:0:0:0:
390,238,43038,1,6,1:3:0:0:
325,314,43396,6,0,P|264:320|221:302,1,100,6|0,1:2|1:0,0:0:0:0:
192,272,43931,2,0,P|131:266|88:284,1,100,10|10,1:3|1:2,0:0:0:0:
51,303,44467,2,0,P|67:227|56:98,1,200,6|8,1:3|0:0,0:0:0:0:
23,11,45538,2,0,L|130:1,1,100,8|12,1:3|0:0,0:0:0:0:
212,45,46253,6,0,P|193:90|217:195,1,150,4|8,1:2|0:0,0:0:0:0:
241,226,46967,2,0,L|409:217,1,150,2|0,1:2|0:0,0:0:0:0:
440,214,47681,1,10,0:2:0:0:
485,125,48038,1,0,1:0:0:0:
425,44,48396,2,0,P|375:51|333:77,1,100,2|10,1:2|0:2,0:0:0:0:
316,124,48931,1,4,0:3:0:0:
316,124,49110,6,0,L|197:113,1,100,4|0,1:2|1:0,0:0:0:0:
117,100,49824,1,0,1:0:0:0:
86,195,50181,1,0,1:0:0:0:
170,248,50538,2,0,L|210:350,1,100,8|0,0:0|1:0,0:0:0:0:
305,341,51253,2,0,L|342:248,1,100,8|8,0:0|0:0,0:0:0:0:
384,157,51967,6,0,P|366:114|313:76,1,100,4|0,1:2|1:0,0:0:0:0:
275,85,52503,1,8,0:0:0:0:
275,85,52681,2,0,L|161:75,1,100,2|0,1:2|1:0,0:0:0:0:
123,162,53396,2,0,L|237:172,1,100,2|2,1:2|1:2,0:0:0:0:
283,250,54110,2,0,L|275:314,2,50,10|8|10,0:0|0:3|0:0,0:0:0:0:
365,193,54824,5,14,0:0:0:0:
442,321,55360,1,12,0:0:0:0:
505,185,55896,2,0,L|503:124,1,50,14|2,0:0|1:2,0:0:0:0:
501,84,56253,1,6,1:2:0:0:
501,84,57681,6,0,P|460:71|403:68,1,100,6|10,1:2|0:2,0:0:0:0:
306,94,58396,2,0,L|298:149,1,50,2|0,1:2|1:2,0:0:0:0:
289,192,58753,1,10,0:2:0:0:
269,289,59110,2,0,P|221:303|171:305,1,100,2|10,1:2|0:2,0:0:0:0:
121,296,59646,1,0,0:2:0:0:
121,296,59824,2,0,L|92:182,1,100,2|10,1:2|0:2,0:0:0:0:
66,103,60538,5,2,1:2:0:0:
148,46,60896,2,0,L|221:41,1,50,10|2,0:2|0:2,0:0:0:0:
247,41,61253,2,0,L|239:150,1,100,2|8,1:2|0:2,0:0:0:0:
234,190,61788,1,2,0:2:0:0:
291,272,62146,2,0,L|364:267,1,50,2|10,0:2|0:2,0:0:0:0:
390,263,62503,2,0,P|413:217|407:151,1,100,2|0,0:2|1:2,0:0:0:0:
396,122,63038,1,8,0:2:0:0:
320,56,63396,6,0,L|199:53,1,100,6|10,1:2|0:2,0:0:0:0:
170,60,63931,1,2,0:2:0:0:
170,60,64110,2,0,P|155:109|117:164,1,100,2|10,1:2|0:2,0:0:0:0:
41,198,64824,1,0,1:2:0:0:
41,198,65003,2,0,L|32:306,1,100,2|2,0:2|1:2,0:0:0:0:
116,352,65717,2,0,P|143:336|164:333,1,50,2|10,1:2|0:2,0:0:0:0:
210,342,66074,1,2,0:2:0:0:
210,342,66253,6,0,L|223:231,1,100,2|8,1:2|0:2,0:0:0:0:
232,143,66967,1,0,1:2:0:0:
326,111,67324,1,8,0:2:0:0:
326,111,67503,2,0,L|320:48,1,50,2|2,0:2|1:2,0:0:0:0:
317,11,67860,1,10,0:0:0:0:
223,46,68217,2,0,L|119:42,1,100,6|0,1:2|1:0,0:0:0:0:
81,70,68753,1,8,0:0:0:0:
113,164,69110,6,0,P|154:177|211:180,1,100,6|10,1:2|0:2,0:0:0:0:
307,155,69825,2,0,L|315:210,1,50,2|0,1:2|1:2,0:0:0:0:
324,253,70182,1,10,0:2:0:0:
261,330,70539,2,0,P|213:344|163:346,1,100,2|10,1:2|0:2,0:0:0:0:
113,337,71075,1,0,0:2:0:0:
113,337,71253,2,0,L|84:223,1,100,2|10,1:2|0:2,0:0:0:0:
57,145,71967,5,2,1:2:0:0:
127,74,72325,2,0,L|200:69,1,50,10|2,0:2|0:2,0:0:0:0:
226,68,72682,2,0,L|233:167,1,100,2|8,1:2|0:0,0:0:0:0:
239,217,73217,1,2,0:2:0:0:
321,274,73575,2,0,L|394:269,1,50,2|10,0:2|0:2,0:0:0:0:
420,265,73932,2,0,P|443:219|437:153,1,100,2|0,0:2|0:0,0:0:0:0:
426,124,74467,1,8,0:2:0:0:
350,57,74825,6,0,L|229:54,1,100,6|8,1:2|0:0,0:0:0:0:
200,52,75360,1,2,0:2:0:0:
200,52,75538,2,0,P|177:98|183:164,1,100,2|10,1:2|0:2,0:0:0:0:
191,244,76253,2,0,L|83:235,1,100,2|8,1:2|0:2,0:0:0:0:
48,260,76788,1,0,1:2:0:0:
90,350,77146,1,0,1:2:0:0:
90,350,77324,2,0,P|119:338|140:339,1,50,8|0,0:2|0:2,0:0:0:0:
183,358,77681,6,0,L|291:349,1,100,6|10,1:2|0:2,0:0:0:0:
382,339,78396,1,0,1:2:0:0:
450,265,78753,1,10,0:2:0:0:
450,265,78932,2,0,L|444:202,1,50,2|2,0:2|1:2,0:0:0:0:
433,115,79467,1,8,0:0:0:0:
350,58,79824,1,2,1:2:0:0:
279,129,80181,2,0,L|225:126,1,50,8|8,0:0|0:0,0:0:0:0:
179,120,80538,5,6,1:2:0:0:
104,53,80896,1,10,0:0:0:0:
40,130,81253,2,0,L|34:200,1,50,10|8,0:0|0:0,0:0:0:0:
62,222,81610,2,0,L|56:292,1,50,8|10,0:0|0:0,0:0:0:0:
49,321,81967,1,12,0:0:0:0:
49,321,83038,1,8,0:0:0:0:
140,361,83396,6,0,L|196:355,1,50,6|0,1:2|1:2,0:0:0:0:
228,323,83753,1,10,0:2:0:0:
320,360,84110,1,10,0:2:0:0:
399,299,84467,1,10,0:2:0:0:
491,336,84824,6,0,L|502:225,1,100,10|10,0:2|0:2,0:0:0:0:
473,194,85360,1,0,1:2:0:0:
473,194,85538,2,0,L|465:122,1,50,10|2,0:2|1:2,0:0:0:0:
462,94,85896,1,10,0:2:0:0:
375,43,86253,5,14,0:2:0:0:
294,102,86610,1,10,0:2:0:0:
208,50,86967,1,10,0:2:0:0:
127,109,87324,1,10,0:2:0:0:
176,195,87681,6,0,L|165:311,1,100,6|10,1:2|0:2,0:0:0:0:
181,342,88217,1,0,1:2:0:0:
181,342,88396,2,0,L|252:335,2,50,10|10|10,0:2|0:2|0:2,0:0:0:0:
142,373,88931,1,14,0:2:0:0:
