osu file format v14

[General]
AudioFilename: audio.mp3
AudioLeadIn: 0
PreviewTime: 57645
Countdown: 0
SampleSet: Normal
StackLeniency: 0.7
Mode: 1
LetterboxInBreaks: 0
WidescreenStoryboard: 1

[Editor]
Bookmarks: 5770,6306,12020,23449,34877,46306,56306,69163,83449,88984
DistanceSpacing: 1
BeatDivisor: 4
GridSize: 32
TimelineZoom: 2.4

[Metadata]
Title:youthful beautiful (TV Size)
TitleUnicode:youthful beautiful (TV Size)
Artist:Uchida Maaya
ArtistUnicode:内田真礼
Creator:Stompy_
Version:Ryxliee's Oni
Source:SSSS.GRIDMAN
Tags:ryxliee bighzonda bigh froskya revialink ssss gridman ending ed female vocals vocalist 白戸佑輔 グリッドマン 電光超人グリッドマン trigger jrock j-rock j rock japanese rock mecha anime jpop pop j-pop
BeatmapID:3756123
BeatmapSetID:1828742

[Difficulty]
HPDrainRate:5.5
CircleSize:2
OverallDifficulty:5.5
ApproachRate:9
SliderMultiplier:1.4
SliderTickRate:1

[Events]
//Background and Video events
0,0,"peakpx.jpg",0,0
//Break Periods
//Storyboard Layer 0 (Background)
//Storyboard Layer 1 (Fail)
//Storyboard Layer 2 (Pass)
//Storyboard Layer 3 (Foreground)
//Storyboard Layer 4 (Overlay)
//Storyboard Sound Samples

[TimingPoints]
592,357.142857142857,4,1,0,70,1,0
12020,-100,4,1,0,50,0,0
23449,-100,4,1,0,60,0,0
46306,-100,4,1,0,70,0,0
57734,-100,4,1,0,85,0,1
80591,-100,4,1,0,75,0,0
80948,-100,4,1,0,75,0,0

[HitObjects]
256,192,5770,5,0,0:0:0:0:
256,192,5859,1,0,0:0:0:0:
256,192,5949,1,8,0:0:0:0:
256,192,6306,1,12,0:0:0:0:
256,192,6484,1,0,0:0:0:0:
256,192,6663,1,8,0:0:0:0:
256,192,6841,1,0,0:0:0:0:
256,192,6931,1,8,0:0:0:0:
256,192,7020,1,0,0:0:0:0:
256,192,7199,1,0,0:0:0:0:
256,192,7377,1,8,0:0:0:0:
256,192,7556,1,0,0:0:0:0:
256,192,7645,1,0,0:0:0:0:
256,192,7734,1,8,0:0:0:0:
256,192,7913,1,0,0:0:0:0:
256,192,8091,1,8,0:0:0:0:
256,192,8270,1,8,0:0:0:0:
256,192,8359,1,8,0:0:0:0:
256,192,8449,1,0,0:0:0:0:
256,192,8627,1,0,0:0:0:0:
256,192,8806,1,8,0:0:0:0:
256,192,9163,1,0,0:0:0:0:
256,192,9341,1,0,0:0:0:0:
256,192,9520,1,8,0:0:0:0:
256,192,9699,1,0,0:0:0:0:
256,192,9788,1,8,0:0:0:0:
256,192,9877,1,0,0:0:0:0:
256,192,10056,1,0,0:0:0:0:
256,192,10234,1,8,0:0:0:0:
256,192,10413,1,8,0:0:0:0:
256,192,10502,1,0,0:0:0:0:
256,192,10591,1,8,0:0:0:0:
256,192,10770,1,0,0:0:0:0:
256,192,10949,1,8,0:0:0:0:
256,192,11127,1,0,0:0:0:0:
256,192,11306,1,8,0:0:0:0:
256,192,11484,1,0,0:0:0:0:
256,192,11574,1,8,0:0:0:0:
256,192,11663,1,8,0:0:0:0:
256,192,11752,1,8,0:0:0:0:
256,192,11841,1,0,0:0:0:0:
256,192,12020,1,12,0:0:0:0:
256,192,12734,1,0,0:0:0:0:
256,192,13449,1,0,0:0:0:0:
256,192,13806,1,0,0:0:0:0:
256,192,13984,1,8,0:0:0:0:
256,192,14341,1,8,0:0:0:0:
256,192,14699,1,8,0:0:0:0:
256,192,14877,1,0,0:0:0:0:
256,192,15413,1,0,0:0:0:0:
256,192,15591,1,8,0:0:0:0:
256,192,16306,1,0,0:0:0:0:
256,192,17199,1,0,0:0:0:0:
256,192,17377,1,0,0:0:0:0:
256,192,17555,1,8,0:0:0:0:
256,192,17734,1,8,0:0:0:0:
256,192,18091,1,0,0:0:0:0:
256,192,18449,1,8,0:0:0:0:
256,192,18627,1,0,0:0:0:0:
256,192,18984,1,8,0:0:0:0:
256,192,20056,1,0,0:0:0:0:
256,192,20234,1,0,0:0:0:0:
256,192,20413,1,8,0:0:0:0:
256,192,20591,1,8,0:0:0:0:
256,192,20949,1,0,0:0:0:0:
256,192,21306,1,8,0:0:0:0:
256,192,21484,1,0,0:0:0:0:
256,192,21841,1,8,0:0:0:0:
256,192,22199,1,8,0:0:0:0:
256,192,22556,1,0,0:0:0:0:
256,192,22734,1,8,0:0:0:0:
256,192,22913,1,0,0:0:0:0:
256,192,23002,1,0,0:0:0:0:
256,192,23091,1,8,0:0:0:0:
256,192,23449,1,4,0:0:0:0:
256,192,23627,1,0,0:0:0:0:
256,192,23806,1,8,0:0:0:0:
256,192,24163,1,8,0:0:0:0:
256,192,24342,1,8,0:0:0:0:
256,192,24520,1,0,0:0:0:0:
256,192,24877,1,8,0:0:0:0:
256,192,25234,1,8,0:0:0:0:
256,192,25413,1,0,0:0:0:0:
256,192,25591,1,0,0:0:0:0:
256,192,25770,1,8,0:0:0:0:
256,192,25860,1,8,0:0:0:0:
256,192,25949,1,0,0:0:0:0:
256,192,26127,1,8,0:0:0:0:
256,192,26306,1,0,0:0:0:0:
256,192,26484,1,8,0:0:0:0:
256,192,26663,1,0,0:0:0:0:
256,192,27020,1,0,0:0:0:0:
256,192,27199,1,0,0:0:0:0:
256,192,27377,1,8,0:0:0:0:
256,192,27734,1,8,0:0:0:0:
256,192,27913,1,8,0:0:0:0:
256,192,28091,1,0,0:0:0:0:
256,192,28449,1,8,0:0:0:0:
256,192,28627,1,0,0:0:0:0:
256,192,28806,1,8,0:0:0:0:
256,192,28984,1,8,0:0:0:0:
256,192,29074,1,8,0:0:0:0:
256,192,29163,1,0,0:0:0:0:
256,192,29520,1,8,0:0:0:0:
256,192,29877,1,0,0:0:0:0:
256,192,30056,1,0,0:0:0:0:
256,192,30234,1,8,0:0:0:0:
256,192,30413,1,0,0:0:0:0:
256,192,30502,1,0,0:0:0:0:
256,192,30591,1,8,0:0:0:0:
256,192,30770,1,8,0:0:0:0:
256,192,30949,1,0,0:0:0:0:
256,192,31306,1,8,0:0:0:0:
256,192,31484,1,0,0:0:0:0:
256,192,31663,1,8,0:0:0:0:
256,192,31841,1,8,0:0:0:0:
256,192,31930,1,8,0:0:0:0:
256,192,32020,1,0,0:0:0:0:
256,192,32377,1,8,0:0:0:0:
256,192,32734,1,0,0:0:0:0:
256,192,32913,1,8,0:0:0:0:
256,192,33002,1,0,0:0:0:0:
256,192,33091,1,8,0:0:0:0:
256,192,33270,1,0,0:0:0:0:
256,192,33359,1,8,0:0:0:0:
256,192,33449,1,0,0:0:0:0:
256,192,33627,1,0,0:0:0:0:
256,192,33806,1,8,0:0:0:0:
256,192,34163,1,0,0:0:0:0:
256,192,34341,1,8,0:0:0:0:
256,192,34520,1,0,0:0:0:0:
256,192,34609,1,0,0:0:0:0:
256,192,34699,1,0,0:0:0:0:
256,192,34788,1,0,0:0:0:0:
256,192,34877,1,12,0:0:0:0:
256,192,35056,1,8,0:0:0:0:
256,192,35234,1,0,0:0:0:0:
256,192,35413,1,8,0:0:0:0:
256,192,35502,1,8,0:0:0:0:
256,192,35591,1,0,0:0:0:0:
256,192,35949,1,8,0:0:0:0:
256,192,36127,1,0,0:0:0:0:
256,192,36216,1,8,0:0:0:0:
256,192,36306,1,0,0:0:0:0:
256,192,36484,1,8,0:0:0:0:
256,192,36663,1,0,0:0:0:0:
256,192,36752,1,0,0:0:0:0:
256,192,36841,1,8,0:0:0:0:
256,192,37020,1,0,0:0:0:0:
256,192,37377,1,8,0:0:0:0:
256,192,37556,1,0,0:0:0:0:
256,192,37645,1,0,0:0:0:0:
256,192,37734,1,12,0:0:0:0:
256,192,37913,1,0,0:0:0:0:
256,192,38091,1,0,0:0:0:0:
256,192,38270,1,8,0:0:0:0:
256,192,38449,1,0,0:0:0:0:
256,192,38538,1,0,0:0:0:0:
256,192,38627,1,8,0:0:0:0:
256,192,38806,1,8,0:0:0:0:
256,192,38984,1,0,0:0:0:0:
256,192,39074,1,8,0:0:0:0:
256,192,39163,1,0,0:0:0:0:
256,192,39341,1,8,0:0:0:0:
256,192,39520,1,8,0:0:0:0:
256,192,39877,1,0,0:0:0:0:
256,192,40056,1,8,0:0:0:0:
256,192,40145,1,8,0:0:0:0:
256,192,40234,1,0,0:0:0:0:
256,192,40413,1,0,0:0:0:0:
256,192,40502,1,0,0:0:0:0:
256,192,40591,1,12,0:0:0:0:
256,192,40770,1,8,0:0:0:0:
256,192,40949,1,0,0:0:0:0:
256,192,41127,1,8,0:0:0:0:
256,192,41216,1,8,0:0:0:0:
256,192,41306,1,0,0:0:0:0:
256,192,41484,1,0,0:0:0:0:
256,192,41663,1,8,0:0:0:0:
256,192,41841,1,0,0:0:0:0:
256,192,41931,1,8,0:0:0:0:
256,192,42020,1,0,0:0:0:0:
256,192,42199,1,0,0:0:0:0:
256,192,42377,1,8,0:0:0:0:
256,192,42466,1,0,0:0:0:0:
256,192,42556,1,8,0:0:0:0:
256,192,42734,1,0,0:0:0:0:
256,192,42913,1,8,0:0:0:0:
256,192,43091,1,0,0:0:0:0:
256,192,43270,1,0,0:0:0:0:
256,192,43359,1,0,0:0:0:0:
256,192,43449,1,12,0:0:0:0:
256,192,43806,1,0,0:0:0:0:
256,192,43984,1,8,0:0:0:0:
256,192,44163,1,8,0:0:0:0:
256,192,44252,1,0,0:0:0:0:
256,192,44341,1,8,0:0:0:0:
256,192,44520,1,0,0:0:0:0:
256,192,44699,1,12,0:0:0:0:
256,192,44877,1,0,0:0:0:0:
256,192,45056,1,8,0:0:0:0:
256,192,45234,1,8,0:0:0:0:
256,192,45413,1,0,0:0:0:0:
256,192,45502,1,8,0:0:0:0:
256,192,45591,1,0,0:0:0:0:
256,192,45770,1,0,0:0:0:0:
256,192,45949,1,12,0:0:0:0:
256,192,46306,1,12,0:0:0:0:
256,192,46574,1,8,0:0:0:0:
256,192,46663,1,0,0:0:0:0:
256,192,46841,1,8,0:0:0:0:
256,192,47020,1,0,0:0:0:0:
256,192,47199,1,0,0:0:0:0:
256,192,47288,1,0,0:0:0:0:
256,192,47377,1,8,0:0:0:0:
256,192,47556,1,0,0:0:0:0:
256,192,47734,1,8,0:0:0:0:
256,192,47913,1,0,0:0:0:0:
256,192,48002,1,8,0:0:0:0:
256,192,48091,1,0,0:0:0:0:
256,192,48270,1,8,0:0:0:0:
256,192,48449,1,0,0:0:0:0:
256,192,48627,1,8,0:0:0:0:
256,192,48716,1,0,0:0:0:0:
256,192,48806,1,8,0:0:0:0:
256,192,48895,1,8,0:0:0:0:
256,192,48984,1,0,0:0:0:0:
256,192,49163,1,12,0:0:0:0:
256,192,49341,1,0,0:0:0:0:
256,192,49431,1,8,0:0:0:0:
256,192,49520,1,0,0:0:0:0:
256,192,49699,1,8,0:0:0:0:
256,192,49877,1,0,0:0:0:0:
256,192,50056,1,0,0:0:0:0:
256,192,50145,1,8,0:0:0:0:
256,192,50234,1,8,0:0:0:0:
256,192,50413,1,0,0:0:0:0:
256,192,50591,1,8,0:0:0:0:
256,192,50770,1,0,0:0:0:0:
256,192,50859,1,8,0:0:0:0:
256,192,50949,1,0,0:0:0:0:
256,192,51038,1,0,0:0:0:0:
256,192,51127,1,8,0:0:0:0:
256,192,51306,1,8,0:0:0:0:
256,192,51395,1,0,0:0:0:0:
256,192,51574,1,0,0:0:0:0:
256,192,51663,1,8,0:0:0:0:
256,192,52020,1,12,0:0:0:0:
256,192,52288,1,8,0:0:0:0:
256,192,52377,1,0,0:0:0:0:
256,192,52555,1,8,0:0:0:0:
256,192,52734,1,0,0:0:0:0:
256,192,52913,1,0,0:0:0:0:
256,192,53002,1,8,0:0:0:0:
256,192,53091,1,0,0:0:0:0:
256,192,53270,1,8,0:0:0:0:
256,192,53448,1,8,0:0:0:0:
256,192,53627,1,0,0:0:0:0:
256,192,53716,1,8,0:0:0:0:
256,192,53805,1,8,0:0:0:0:
256,192,53984,1,8,0:0:0:0:
256,192,54074,1,8,0:0:0:0:
256,192,54163,1,0,0:0:0:0:
256,192,54252,1,8,0:0:0:0:
256,192,54341,1,0,0:0:0:0:
256,192,54520,1,8,0:0:0:0:
256,192,54698,1,0,0:0:0:0:
256,192,54788,1,0,0:0:0:0:
256,192,54877,1,12,0:0:0:0:
256,192,55056,1,0,0:0:0:0:
256,192,55234,1,0,0:0:0:0:
256,192,55413,1,12,0:0:0:0:
256,192,55591,1,0,0:0:0:0:
256,192,55770,1,0,0:0:0:0:
256,192,55949,1,12,0:0:0:0:
256,192,56127,1,0,0:0:0:0:
256,192,56306,1,12,0:0:0:0:
256,192,57199,1,0,0:0:0:0:
256,192,57377,1,0,0:0:0:0:
256,192,57556,1,0,0:0:0:0:
256,192,57734,1,12,0:0:0:0:
256,192,58091,1,8,0:0:0:0:
256,192,58270,1,0,0:0:0:0:
256,192,58359,1,8,0:0:0:0:
256,192,58449,1,0,0:0:0:0:
256,192,58627,1,0,0:0:0:0:
256,192,58806,1,8,0:0:0:0:
256,192,58895,1,0,0:0:0:0:
256,192,58984,1,0,0:0:0:0:
256,192,59074,1,0,0:0:0:0:
256,192,59163,1,8,0:0:0:0:
256,192,59341,1,0,0:0:0:0:
256,192,59520,1,8,0:0:0:0:
256,192,59699,1,8,0:0:0:0:
256,192,59877,1,0,0:0:0:0:
256,192,60056,1,0,0:0:0:0:
256,192,60234,1,8,0:0:0:0:
256,192,60324,1,8,0:0:0:0:
256,192,60413,1,0,0:0:0:0:
256,192,60591,1,8,0:0:0:0:
256,192,60949,1,0,0:0:0:0:
256,192,61127,1,8,0:0:0:0:
256,192,61306,1,0,0:0:0:0:
256,192,61484,1,0,0:0:0:0:
256,192,61663,1,8,0:0:0:0:
256,192,61841,1,0,0:0:0:0:
256,192,61931,1,0,0:0:0:0:
256,192,62020,1,8,0:0:0:0:
256,192,62199,1,0,0:0:0:0:
256,192,62377,1,8,0:0:0:0:
256,192,62556,1,8,0:0:0:0:
256,192,62645,1,8,0:0:0:0:
256,192,62734,1,0,0:0:0:0:
256,192,62912,1,0,0:0:0:0:
256,192,63091,1,8,0:0:0:0:
256,192,63449,1,12,0:0:0:0:
256,192,63627,1,0,0:0:0:0:
256,192,63806,1,8,0:0:0:0:
256,192,63984,1,0,0:0:0:0:
256,192,64074,1,8,0:0:0:0:
256,192,64163,1,0,0:0:0:0:
256,192,64341,1,0,0:0:0:0:
256,192,64520,1,8,0:0:0:0:
256,192,64699,1,0,0:0:0:0:
256,192,64877,1,8,0:0:0:0:
256,192,65056,1,8,0:0:0:0:
256,192,65145,1,0,0:0:0:0:
256,192,65234,1,8,0:0:0:0:
256,192,65413,1,0,0:0:0:0:
256,192,65770,1,0,0:0:0:0:
256,192,65949,1,8,0:0:0:0:
256,192,66127,1,0,0:0:0:0:
256,192,66306,1,8,0:0:0:0:
256,192,66484,1,0,0:0:0:0:
256,192,66574,1,0,0:0:0:0:
256,192,66663,1,8,0:0:0:0:
256,192,66841,1,0,0:0:0:0:
256,192,66931,1,8,0:0:0:0:
256,192,67020,1,0,0:0:0:0:
256,192,67199,1,0,0:0:0:0:
256,192,67377,1,8,0:0:0:0:
256,192,67556,1,0,0:0:0:0:
256,192,67734,1,8,0:0:0:0:
256,192,67913,1,8,0:0:0:0:
256,192,68002,1,0,0:0:0:0:
256,192,68091,1,0,0:0:0:0:
256,192,68181,1,0,0:0:0:0:
256,192,68270,1,12,0:0:0:0:
256,192,68627,1,0,0:0:0:0:
256,192,68806,1,8,0:0:0:0:
256,192,68895,1,8,0:0:0:0:
256,192,68984,1,0,0:0:0:0:
256,192,69074,1,0,0:0:0:0:
256,192,69163,1,12,0:0:0:0:
256,192,69520,1,8,0:0:0:0:
256,192,69699,1,0,0:0:0:0:
256,192,69788,1,0,0:0:0:0:
256,192,69878,1,8,0:0:0:0:
256,192,70056,1,0,0:0:0:0:
256,192,70234,1,8,0:0:0:0:
256,192,70324,1,0,0:0:0:0:
256,192,70413,1,8,0:0:0:0:
256,192,70503,1,0,0:0:0:0:
256,192,70592,1,8,0:0:0:0:
256,192,70770,1,0,0:0:0:0:
256,192,70949,1,8,0:0:0:0:
256,192,71128,1,0,0:0:0:0:
256,192,71306,1,8,0:0:0:0:
256,192,71485,1,0,0:0:0:0:
256,192,71663,1,8,0:0:0:0:
256,192,71753,1,8,0:0:0:0:
256,192,71842,1,0,0:0:0:0:
256,192,72020,1,8,0:0:0:0:
256,192,72378,1,0,0:0:0:0:
256,192,72556,1,0,0:0:0:0:
256,192,72735,1,8,0:0:0:0:
256,192,72913,1,0,0:0:0:0:
256,192,73092,1,8,0:0:0:0:
256,192,73270,1,0,0:0:0:0:
256,192,73360,1,0,0:0:0:0:
256,192,73449,1,8,0:0:0:0:
256,192,73628,1,0,0:0:0:0:
256,192,73806,1,8,0:0:0:0:
256,192,73985,1,8,0:0:0:0:
256,192,74074,1,0,0:0:0:0:
256,192,74163,1,8,0:0:0:0:
256,192,74341,1,0,0:0:0:0:
256,192,74520,1,8,0:0:0:0:
256,192,74878,1,12,0:0:0:0:
256,192,75056,1,0,0:0:0:0:
256,192,75234,1,8,0:0:0:0:
256,192,75413,1,0,0:0:0:0:
256,192,75502,1,8,0:0:0:0:
256,192,75591,1,0,0:0:0:0:
256,192,75770,1,0,0:0:0:0:
256,192,75949,1,8,0:0:0:0:
256,192,76127,1,8,0:0:0:0:
256,192,76306,1,0,0:0:0:0:
256,192,76484,1,0,0:0:0:0:
256,192,76574,1,0,0:0:0:0:
256,192,76663,1,8,0:0:0:0:
256,192,76841,1,0,0:0:0:0:
256,192,77199,1,0,0:0:0:0:
256,192,77377,1,8,0:0:0:0:
256,192,77734,1,4,0:0:0:0:
256,192,77913,1,0,0:0:0:0:
256,192,78091,1,8,0:0:0:0:
256,192,78270,1,0,0:0:0:0:
256,192,78359,1,0,0:0:0:0:
256,192,78449,1,0,0:0:0:0:
256,192,78627,1,0,0:0:0:0:
256,192,78806,1,8,0:0:0:0:
256,192,78984,1,8,0:0:0:0:
256,192,79163,1,0,0:0:0:0:
256,192,79341,1,0,0:0:0:0:
256,192,79431,1,0,0:0:0:0:
256,192,79520,1,8,0:0:0:0:
256,192,79699,1,0,0:0:0:0:
256,192,79877,1,8,0:0:0:0:
256,192,80056,1,0,0:0:0:0:
256,192,80145,1,0,0:0:0:0:
256,192,80235,1,8,0:0:0:0:
256,192,80413,1,8,0:0:0:0:
256,192,80502,1,8,0:0:0:0:
256,192,80591,1,4,0:0:0:0:
256,192,80949,1,8,0:0:0:0:
256,192,81127,1,0,0:0:0:0:
256,192,81306,1,8,0:0:0:0:
256,192,81484,1,0,0:0:0:0:
256,192,81663,1,8,0:0:0:0:
256,192,81841,1,0,0:0:0:0:
256,192,81931,1,0,0:0:0:0:
256,192,82020,1,12,0:0:0:0:
256,192,83091,5,0,0:0:0:0:
256,192,83449,1,12,0:0:0:0:
256,192,83627,1,0,0:0:0:0:
256,192,83806,1,8,0:0:0:0:
256,192,83984,1,0,0:0:0:0:
256,192,84074,1,0,0:0:0:0:
256,192,84163,1,8,0:0:0:0:
256,192,84342,1,0,0:0:0:0:
256,192,84520,1,8,0:0:0:0:
256,192,84699,1,0,0:0:0:0:
256,192,84788,1,0,0:0:0:0:
256,192,84877,1,8,0:0:0:0:
256,192,85056,1,0,0:0:0:0:
256,192,85234,1,8,0:0:0:0:
256,192,85413,1,8,0:0:0:0:
256,192,85502,1,0,0:0:0:0:
256,192,85592,1,8,0:0:0:0:
256,192,85770,1,0,0:0:0:0:
256,192,85949,1,8,0:0:0:0:
256,192,86306,1,12,0:0:0:0:
256,192,86484,1,0,0:0:0:0:
256,192,86663,1,8,0:0:0:0:
256,192,86842,1,8,0:0:0:0:
256,192,86931,1,0,0:0:0:0:
256,192,87020,1,8,0:0:0:0:
256,192,87199,1,0,0:0:0:0:
256,192,87377,1,8,0:0:0:0:
256,192,87556,1,0,0:0:0:0:
256,192,87645,1,0,0:0:0:0:
256,192,87734,1,12,0:0:0:0:
256,192,87913,1,0,0:0:0:0:
256,192,88092,1,8,0:0:0:0:
256,192,88270,1,0,0:0:0:0:
256,192,88449,1,8,0:0:0:0:
256,192,88627,1,8,0:0:0:0:
256,192,88806,1,8,0:0:0:0:
256,192,88984,1,4,0:0:0:0:
