osu file format v14

[General]
AudioFilename: audio.mp3
AudioLeadIn: 0
PreviewTime: 57645
Countdown: 0
SampleSet: Normal
StackLeniency: 0.7
Mode: 1
LetterboxInBreaks: 0
WidescreenStoryboard: 0

[Editor]
DistanceSpacing: 1
BeatDivisor: 4
GridSize: 32
TimelineZoom: 1

[Metadata]
Title:youthful beautiful (TV Size)
TitleUnicode:youthful beautiful (TV Size)
Artist:Uchida Maaya
ArtistUnicode:内田真礼
Creator:Stompy_
Version:Kantan
Source:SSSS.GRIDMAN
Tags:ryxliee bighzonda bigh froskya revialink ssss gridman ending ed female vocals vocalist 白戸佑輔 グリッドマン 電光超人グリッドマン trigger jrock j-rock j rock japanese rock mecha anime jpop pop j-pop
BeatmapID:3753304
BeatmapSetID:1828742

[Difficulty]
HPDrainRate:8
CircleSize:3
OverallDifficulty:3
ApproachRate:9
SliderMultiplier:1.4
SliderTickRate:1

[Events]
//Background and Video events
0,0,"peakpx.jpg",0,0
//Break Periods
//Storyboard Layer 0 (Background)
//Storyboard Layer 1 (Fail)
//Storyboard Layer 2 (Pass)
//Storyboard Layer 3 (Foreground)
//Storyboard Layer 4 (Overlay)
//Storyboard Sound Samples

[TimingPoints]
592,357.142857142857,4,1,0,70,1,0
12020,-100,4,1,0,50,0,0
23449,-100,4,1,0,60,0,0
46306,-100,4,1,0,70,0,0
57734,-100,4,1,0,85,0,1
80591,-100,4,1,0,75,0,0

[HitObjects]
251,191,6306,5,4,0:0:0:0:
251,191,7021,1,8,0:0:0:0:
251,191,7735,1,0,0:0:0:0:
251,191,8092,1,0,0:0:0:0:
251,191,8449,1,8,0:0:0:0:
251,191,9163,1,0,0:0:0:0:
251,191,9878,1,8,0:0:0:0:
251,191,10592,1,0,0:0:0:0:
251,191,10949,1,8,0:0:0:0:
251,191,11306,1,0,0:0:0:0:
251,191,12021,1,4,0:0:0:0:
251,191,14878,1,8,0:0:0:0:
251,191,16306,1,0,0:0:0:0:
251,191,17734,1,8,0:0:0:0:
251,191,20592,1,0,0:0:0:0:
251,191,22021,1,8,0:0:0:0:
251,191,23449,1,4,0:0:0:0:
251,191,24163,1,8,0:0:0:0:
251,191,24878,1,0,0:0:0:0:
251,191,25234,1,8,0:0:0:0:
251,191,25592,1,0,0:0:0:0:
251,191,26306,1,0,0:0:0:0:
251,191,27020,1,8,0:0:0:0:
251,191,27734,1,0,0:0:0:0:
251,191,29163,1,8,0:0:0:0:
251,191,29520,1,0,0:0:0:0:
251,191,29877,1,8,0:0:0:0:
251,191,30592,1,0,0:0:0:0:
251,191,32021,1,8,0:0:0:0:
251,191,32377,1,8,0:0:0:0:
251,191,32734,1,0,0:0:0:0:
251,191,33449,1,0,0:0:0:0:
251,191,33806,1,8,0:0:0:0:
251,191,34878,1,12,0:0:0:0:
251,191,36306,1,0,0:0:0:0:
251,191,37020,1,0,0:0:0:0:
251,191,37734,1,12,0:0:0:0:
251,191,39163,1,8,0:0:0:0:
251,191,39878,1,0,0:0:0:0:
251,191,40235,1,0,0:0:0:0:
251,191,40591,1,12,0:0:0:0:
251,191,42021,1,8,0:0:0:0:
251,191,42734,1,0,0:0:0:0:
251,191,43449,1,12,0:0:0:0:
251,191,43984,1,0,0:0:0:0:
251,191,44520,1,8,0:0:0:0:
251,191,45592,1,0,0:0:0:0:
251,191,45949,1,8,0:0:0:0:
251,191,46306,1,4,0:0:0:0:
251,191,47735,1,0,0:0:0:0:
251,191,48449,1,8,0:0:0:0:
251,191,48806,1,0,0:0:0:0:
251,191,49163,1,8,0:0:0:0:
251,191,50235,1,0,0:0:0:0:
251,191,50592,1,8,0:0:0:0:
251,191,51306,1,0,0:0:0:0:
251,191,52021,1,12,0:0:0:0:
251,191,52735,1,0,0:0:0:0:
251,191,53449,1,8,0:0:0:0:
251,191,53806,1,0,0:0:0:0:
251,191,54163,1,8,0:0:0:0:
251,191,54878,1,8,0:0:0:0:
251,191,55413,1,8,0:0:0:0:
251,191,55949,1,8,0:0:0:0:
251,191,56306,1,4,0:0:0:0:
251,191,57735,1,12,0:0:0:0:
251,191,58091,1,0,0:0:0:0:
251,191,58449,1,8,0:0:0:0:
251,191,59163,1,0,0:0:0:0:
251,191,59521,1,0,0:0:0:0:
251,191,59878,1,8,0:0:0:0:
251,191,60592,1,0,0:0:0:0:
251,191,61306,1,8,0:0:0:0:
251,191,62021,1,8,0:0:0:0:
251,191,63091,1,0,0:0:0:0:
251,191,63449,1,12,0:0:0:0:
251,191,64163,1,0,0:0:0:0:
251,191,64877,1,8,0:0:0:0:
251,191,65592,1,0,0:0:0:0:
251,191,65949,1,8,0:0:0:0:
251,191,66306,1,0,0:0:0:0:
251,191,67021,1,8,0:0:0:0:
251,191,67735,1,0,0:0:0:0:
251,191,68271,1,0,0:0:0:0:
251,191,69163,1,12,0:0:0:0:
251,191,69520,1,0,0:0:0:0:
251,191,69878,1,8,0:0:0:0:
251,191,70592,1,0,0:0:0:0:
251,191,70949,1,8,0:0:0:0:
251,191,71306,1,0,0:0:0:0:
251,191,72020,1,8,0:0:0:0:
251,191,72734,1,0,0:0:0:0:
251,191,73449,1,8,0:0:0:0:
251,191,74520,1,0,0:0:0:0:
251,191,74878,1,12,0:0:0:0:
251,191,75591,1,8,0:0:0:0:
251,191,75949,1,0,0:0:0:0:
251,191,76306,1,8,0:0:0:0:
251,191,77735,1,0,0:0:0:0:
251,191,78449,1,8,0:0:0:0:
251,191,78806,1,8,0:0:0:0:
251,191,79163,1,0,0:0:0:0:
251,191,79878,1,8,0:0:0:0:
251,191,80592,1,4,0:0:0:0:
251,191,81306,1,8,0:0:0:0:
251,191,81663,1,8,0:0:0:0:
251,191,82021,1,4,0:0:0:0:
251,191,83091,1,8,0:0:0:0:
251,191,83449,1,4,0:0:0:0:
251,191,84163,1,8,0:0:0:0:
251,191,84521,1,0,0:0:0:0:
251,191,84878,1,8,0:0:0:0:
251,191,85592,1,0,0:0:0:0:
251,191,86306,1,12,0:0:0:0:
251,191,87021,1,8,0:0:0:0:
251,191,87378,1,8,0:0:0:0:
251,191,87735,1,0,0:0:0:0:
251,191,88449,1,0,0:0:0:0:
251,191,88985,1,8,0:0:0:0:
