osu file format v14

[General]
AudioFilename: audio.mp3
AudioLeadIn: 0
PreviewTime: 57645
Countdown: 0
SampleSet: Normal
StackLeniency: 0.7
Mode: 1
LetterboxInBreaks: 0
WidescreenStoryboard: 1

[Editor]
Bookmarks: 5770,6306,12020,23449,34877,46306,56306,69163,88984
DistanceSpacing: 1
BeatDivisor: 4
GridSize: 32
TimelineZoom: 2.7

[Metadata]
Title:youthful beautiful (TV Size)
TitleUnicode:youthful beautiful (TV Size)
Artist:Uchida Maaya
ArtistUnicode:内田真礼
Creator:Stompy_
Version:Froskya's Bond
Source:SSSS.GRIDMAN
Tags:ryxliee bighzonda bigh froskya revialink ssss gridman ending ed female vocals vocalist 白戸佑輔 グリッドマン 電光超人グリッドマン trigger jrock j-rock j rock japanese rock mecha anime jpop pop j-pop
BeatmapID:3753302
BeatmapSetID:1828742

[Difficulty]
HPDrainRate:6
CircleSize:3
OverallDifficulty:6
ApproachRate:9
SliderMultiplier:1.4
SliderTickRate:1

[Events]
//Background and Video events
0,0,"peakpx.jpg",0,0
//Break Periods
//Storyboard Layer 0 (Background)
//Storyboard Layer 1 (Fail)
//Storyboard Layer 2 (Pass)
//Storyboard Layer 3 (Foreground)
//Storyboard Layer 4 (Overlay)
//Storyboard Sound Samples

[TimingPoints]
592,357.142857142857,4,1,0,70,1,0
5769,-125.00001,4,1,0,70,0,0
5858,-117.68574,4,1,0,70,0,0
5948,-111.111115,4,1,0,70,0,0
6306,-100,4,1,0,70,0,0
10590,-100.028015,4,1,0,70,0,0
10769,-102.59541,4,1,0,70,0,0
10858,-103.92162,4,1,0,70,0,0
10948,-105.298065,4,1,0,70,0,0
11126,-108.13062,4,1,0,70,0,0
11305,-111.13703,4,1,0,70,0,0
11394,-112.69494,4,1,0,70,0,0
11483,-114.29715,4,1,0,70,0,0
11573,-115.96437,4,1,0,70,0,0
11662,-117.66159,4,1,0,70,0,0
11751,-119.409225,4,1,0,70,0,0
11840,-121.209564,4,1,0,70,0,0
11930,-123.0862,4,1,0,70,0,0
12019,-125.00001,4,1,0,50,0,0
12734,-142.857142857143,4,1,0,50,0,0
22555,-142.85715,4,1,0,50,0,0
22733,-136.37523,4,1,0,50,0,0
22912,-130.4242,4,1,0,50,0,0
23001,-127.65451,4,1,0,50,0,0
23090,-125.00001,4,1,0,50,0,0
23449,-111.111111111111,4,1,0,60,0,0
34162,-111.111115,4,1,0,60,0,0
34340,-108.1163,4,1,0,60,0,0
34519,-105.26315,4,1,0,60,0,0
34608,-103.89989,4,1,0,60,0,0
34698,-102.55673,4,1,0,60,0,0
34787,-101.26224,4,1,0,60,0,0
34876,-100,4,1,0,60,0,0
44876,-100,4,1,0,60,0,0
45055,-101.69813,4,1,0,60,0,0
45233,-103.44495,4,1,0,60,0,0
45412,-105.26315,4,1,0,60,0,0
45501,-106.191185,4,1,0,60,0,0
45590,-107.13572,4,1,0,60,0,0
45769,-109.08721,4,1,0,60,0,0
45948,-111.111115,4,1,0,60,0,0
46305,-111.111115,4,1,0,70,0,0
46483,-110.72785,4,1,0,70,0,0
46573,-110.535065,4,1,0,70,0,0
46662,-110.34509,4,1,0,70,0,0
46751,-110.15577,4,1,0,70,0,0
46840,-109.96709,4,1,0,70,0,0
46930,-109.77696,4,1,0,70,0,0
47019,-109.58958,4,1,0,70,0,0
47108,-109.40283,4,1,0,70,0,0
47198,-109.21463,4,1,0,70,0,0
47287,-109.02916,4,1,0,70,0,0
47376,-108.844315,4,1,0,70,0,0
47465,-108.6601,4,1,0,70,0,0
47555,-108.47445,4,1,0,70,0,0
47644,-108.29148,4,1,0,70,0,0
47733,-108.10913,4,1,0,70,0,0
47823,-107.925354,4,1,0,70,0,0
47912,-107.74423,4,1,0,70,0,0
48001,-107.56372,4,1,0,70,0,0
48090,-107.38381,4,1,0,70,0,0
48180,-107.20249,4,1,0,70,0,0
48269,-107.023796,4,1,0,70,0,0
48358,-106.84569,4,1,0,70,0,0
48448,-106.66617,4,1,0,70,0,0
48537,-106.48925,4,1,0,70,0,0
48626,-106.31291,4,1,0,70,0,0
48715,-106.13715,4,1,0,70,0,0
48805,-105.96002,4,1,0,70,0,0
48894,-105.78543,4,1,0,70,0,0
48983,-105.61141,4,1,0,70,0,0
49162,-105.26315,4,1,0,70,0,0
49340,-104.91911,4,1,0,70,0,0
49430,-104.74602,4,1,0,70,0,0
49519,-104.5754,4,1,0,70,0,0
49608,-104.40535,4,1,0,70,0,0
49698,-104.23393,4,1,0,70,0,0
49787,-104.06498,4,1,0,70,0,0
49876,-103.896576,4,1,0,70,0,0
49965,-103.728714,4,1,0,70,0,0
50055,-103.55952,4,1,0,70,0,0
50144,-103.392746,4,1,0,70,0,0
50233,-103.2265,4,1,0,70,0,0
50323,-103.058945,4,1,0,70,0,0
50412,-102.89378,4,1,0,70,0,0
50501,-102.72914,4,1,0,70,0,0
50590,-102.565025,4,1,0,70,0,0
50680,-102.3996,4,1,0,70,0,0
50769,-102.236534,4,1,0,70,0,0
50858,-102.07399,4,1,0,70,0,0
50948,-101.91014,4,1,0,70,0,0
51037,-101.74864,4,1,0,70,0,0
51126,-101.58764,4,1,0,70,0,0
51215,-101.42715,4,1,0,70,0,0
51305,-101.265366,4,1,0,70,0,0
51394,-101.105896,4,1,0,70,0,0
51483,-100.94693,4,1,0,70,0,0
51572,-100.78845,4,1,0,70,0,0
51662,-100.62871,4,1,0,70,0,0
51751,-100.47124,4,1,0,70,0,0
51840,-100.314255,4,1,0,70,0,0
52019,-100.0035,4,1,0,70,0,0
52198,-100.63381,4,1,0,70,0,0
52287,-100.950165,4,1,0,70,0,0
52376,-101.26852,4,1,0,70,0,0
52465,-101.58889,4,1,0,70,0,0
52555,-101.914925,4,1,0,70,0,0
52644,-102.239395,4,1,0,70,0,0
52733,-102.56594,4,1,0,70,0,0
52823,-102.898285,4,1,0,70,0,0
52912,-103.22907,4,1,0,70,0,0
53001,-103.56198,4,1,0,70,0,0
53090,-103.89705,4,1,0,70,0,0
53180,-104.23809,4,1,0,70,0,0
53269,-104.57755,4,1,0,70,0,0
53358,-104.919235,4,1,0,70,0,0
53448,-105.26704,4,1,0,70,0,0
53537,-105.61325,4,1,0,70,0,0
53626,-105.96174,4,1,0,70,0,0
53715,-106.31254,4,1,0,70,0,0
53805,-106.66965,4,1,0,70,0,0
53894,-107.02517,4,1,0,70,0,0
53983,-107.38306,4,1,0,70,0,0
54073,-107.747406,4,1,0,70,0,0
54162,-108.110146,4,1,0,70,0,0
54251,-108.47535,4,1,0,70,0,0
54340,-108.84302,4,1,0,70,0,0
54430,-109.21738,4,1,0,70,0,0
54519,-109.590096,4,1,0,70,0,0
54608,-109.96538,4,1,0,70,0,0
54698,-110.34749,4,1,0,70,0,0
54787,-110.72799,4,1,0,70,0,0
54876,-111.111115,4,1,0,70,0,0
57198,-111.111115,4,1,0,70,0,0
57376,-103.46162,4,1,0,70,0,0
57555,-96.76252,4,1,0,70,0,0
57734,-90.90909,4,1,0,85,0,1
79519,-90.90909,4,1,0,85,0,1
79698,-92.31167,4,1,0,85,0,1
79787,-93.025276,4,1,0,85,0,1
79876,-93.75001,4,1,0,85,0,1
80055,-95.24234,4,1,0,85,0,1
80144,-96.002144,4,1,0,85,0,1
80233,-96.774185,4,1,0,85,0,1
80412,-98.365166,4,1,0,85,0,1
80501,-99.17585,4,1,0,85,0,1
80591,-100,4,1,0,75,0,0
80948,-108.101974,4,1,0,75,0,0
81126,-106.66568,4,1,0,75,0,0
81305,-105.259285,4,1,0,75,0,0
81483,-103.89705,4,1,0,75,0,0
81662,-102.56227,4,1,0,75,0,0
81840,-101.26852,4,1,0,75,0,0
81930,-100.62672,4,1,0,75,0,0
82019,-100.028,4,1,0,75,0,0
82198,-101.72547,4,1,0,75,0,0
82555,-105.289,4,1,0,75,0,0
82912,-109.11125,4,1,0,75,0,0
83090,-111.12262,4,1,0,75,0,0
83449,-100,4,1,0,75,0,0

[HitObjects]
256,192,5770,5,0,0:0:0:0:
256,192,5859,1,0,0:0:0:0:
256,192,5949,1,8,0:0:0:0:
256,192,6306,1,12,0:0:0:0:
256,192,6484,1,0,0:0:0:0:
256,192,6573,1,0,0:0:0:0:
256,192,6663,1,8,0:0:0:0:
256,192,6841,1,8,0:0:0:0:
256,192,6931,1,0,0:0:0:0:
256,192,7020,1,8,0:0:0:0:
256,192,7109,1,8,0:0:0:0:
256,192,7199,1,0,0:0:0:0:
256,192,7377,1,8,0:0:0:0:
256,192,7556,1,0,0:0:0:0:
256,192,7734,1,8,0:0:0:0:
256,192,7913,1,0,0:0:0:0:
256,192,8002,1,0,0:0:0:0:
256,192,8091,1,8,0:0:0:0:
256,192,8270,1,0,0:0:0:0:
256,192,8449,1,8,0:0:0:0:
256,192,8538,1,0,0:0:0:0:
256,192,8627,1,8,0:0:0:0:
256,192,8716,1,0,0:0:0:0:
256,192,8806,1,8,0:0:0:0:
256,192,8984,1,0,0:0:0:0:
256,192,9163,1,8,0:0:0:0:
256,192,9341,1,0,0:0:0:0:
256,192,9431,1,0,0:0:0:0:
256,192,9520,1,8,0:0:0:0:
256,192,9699,1,8,0:0:0:0:
256,192,9788,1,0,0:0:0:0:
256,192,9877,1,8,0:0:0:0:
256,192,9966,1,8,0:0:0:0:
256,192,10056,1,0,0:0:0:0:
256,192,10234,1,8,0:0:0:0:
256,192,10413,1,0,0:0:0:0:
256,192,10591,1,8,0:0:0:0:
256,192,10770,1,8,0:0:0:0:
256,192,10859,1,8,0:0:0:0:
256,192,10949,1,0,0:0:0:0:
256,192,11127,1,0,0:0:0:0:
256,192,11306,1,8,0:0:0:0:
256,192,11395,1,0,0:0:0:0:
256,192,11484,1,0,0:0:0:0:
256,192,11574,1,0,0:0:0:0:
256,192,11663,1,8,0:0:0:0:
256,192,11752,1,8,0:0:0:0:
256,192,11841,1,0,0:0:0:0:
256,192,11931,1,0,0:0:0:0:
256,192,12020,1,12,0:0:0:0:
256,192,12734,1,0,0:0:0:0:
256,192,13449,1,0,0:0:0:0:
256,192,13806,1,0,0:0:0:0:
256,192,13984,1,8,0:0:0:0:
256,192,14341,1,8,0:0:0:0:
256,192,14699,1,8,0:0:0:0:
256,192,14877,1,0,0:0:0:0:
256,192,15413,1,0,0:0:0:0:
256,192,15591,1,8,0:0:0:0:
258,194,16306,1,0,0:0:0:0:
256,192,17199,1,8,0:0:0:0:
256,192,17377,1,8,0:0:0:0:
256,192,17556,1,0,0:0:0:0:
256,192,17734,1,8,0:0:0:0:
256,192,18091,1,0,0:0:0:0:
256,192,18449,1,8,0:0:0:0:
256,192,18627,1,0,0:0:0:0:
256,192,18984,1,8,0:0:0:0:
256,192,20056,1,8,0:0:0:0:
256,192,20234,1,8,0:0:0:0:
256,192,20413,1,0,0:0:0:0:
256,192,20591,1,8,0:0:0:0:
256,192,20949,1,0,0:0:0:0:
256,192,21306,1,8,0:0:0:0:
256,192,21484,1,0,0:0:0:0:
256,192,21841,1,8,0:0:0:0:
256,192,22199,1,0,0:0:0:0:
256,192,22556,1,8,0:0:0:0:
256,192,22734,1,0,0:0:0:0:
256,192,22913,1,8,0:0:0:0:
256,192,23002,1,8,0:0:0:0:
256,192,23091,1,0,0:0:0:0:
256,192,23449,1,12,0:0:0:0:
256,192,23627,1,0,0:0:0:0:
256,192,23806,1,0,0:0:0:0:
256,192,24163,1,8,0:0:0:0:
256,192,24341,1,0,0:0:0:0:
256,192,24520,1,0,0:0:0:0:
256,192,24877,1,8,0:0:0:0:
256,192,25056,1,0,0:0:0:0:
256,192,25234,1,0,0:0:0:0:
256,192,25324,1,0,0:0:0:0:
256,192,25413,1,8,0:0:0:0:
256,192,25591,1,0,0:0:0:0:
256,192,25770,1,8,0:0:0:0:
256,192,25859,1,8,0:0:0:0:
256,192,25949,1,0,0:0:0:0:
256,192,26127,1,8,0:0:0:0:
256,192,26306,1,0,0:0:0:0:
256,192,26663,1,0,0:0:0:0:
256,192,26841,1,8,0:0:0:0:
256,192,26930,1,0,0:0:0:0:
256,192,27020,1,8,0:0:0:0:
256,192,27199,1,0,0:0:0:0:
256,192,27377,1,8,0:0:0:0:
256,192,27734,1,0,0:0:0:0:
256,192,27913,1,0,0:0:0:0:
256,192,28091,1,8,0:0:0:0:
256,192,28270,1,8,0:0:0:0:
256,192,28449,1,0,0:0:0:0:
256,192,28627,1,8,0:0:0:0:
256,192,28716,1,0,0:0:0:0:
256,192,28806,1,8,0:0:0:0:
256,192,28984,1,0,0:0:0:0:
256,192,29163,1,8,0:0:0:0:
256,192,29520,1,8,0:0:0:0:
256,192,29699,1,0,0:0:0:0:
256,192,29877,1,8,0:0:0:0:
256,192,29966,1,8,0:0:0:0:
256,192,30056,1,0,0:0:0:0:
256,192,30234,1,0,0:0:0:0:
256,192,30413,1,8,0:0:0:0:
256,192,30591,1,0,0:0:0:0:
256,192,30770,1,0,0:0:0:0:
256,192,30949,1,8,0:0:0:0:
256,192,31127,1,0,0:0:0:0:
256,192,31484,1,8,0:0:0:0:
256,192,31663,1,8,0:0:0:0:
256,192,31841,1,0,0:0:0:0:
256,192,31931,1,0,0:0:0:0:
256,192,32020,1,8,0:0:0:0:
256,192,32199,1,0,0:0:0:0:
256,192,32377,1,8,0:0:0:0:
256,192,32556,1,0,0:0:0:0:
256,192,32645,1,0,0:0:0:0:
256,192,32734,1,8,0:0:0:0:
256,192,32913,1,8,0:0:0:0:
256,192,33091,1,0,0:0:0:0:
256,192,33270,1,8,0:0:0:0:
256,192,33359,1,8,0:0:0:0:
256,192,33449,1,0,0:0:0:0:
256,192,33627,1,8,0:0:0:0:
256,192,33716,1,0,0:0:0:0:
256,192,33806,1,8,0:0:0:0:
256,192,33984,1,0,0:0:0:0:
256,192,34163,1,8,0:0:0:0:
256,192,34341,1,0,0:0:0:0:
256,192,34520,1,8,0:0:0:0:
256,192,34609,1,0,0:0:0:0:
256,192,34699,1,0,0:0:0:0:
256,192,34788,1,0,0:0:0:0:
256,192,34877,1,12,0:0:0:0:
256,192,35056,1,8,0:0:0:0:
256,192,35234,1,0,0:0:0:0:
256,192,35413,1,8,0:0:0:0:
256,192,35502,1,8,0:0:0:0:
256,192,35591,1,0,0:0:0:0:
256,192,35770,1,0,0:0:0:0:
256,192,35949,1,8,0:0:0:0:
256,192,36127,1,8,0:0:0:0:
255,192,36216,1,8,0:0:0:0:
255,192,36306,1,0,0:0:0:0:
255,192,36484,1,8,0:0:0:0:
255,192,36663,1,8,0:0:0:0:
255,192,36841,1,0,0:0:0:0:
255,192,37020,1,8,0:0:0:0:
256,192,37109,1,8,0:0:0:0:
256,192,37199,1,0,0:0:0:0:
253,192,37377,1,8,0:0:0:0:
253,192,37556,1,0,0:0:0:0:
253,192,37645,1,0,0:0:0:0:
253,192,37734,1,12,0:0:0:0:
256,192,37913,1,0,0:0:0:0:
256,192,38091,1,8,0:0:0:0:
256,192,38181,1,8,0:0:0:0:
256,192,38270,1,0,0:0:0:0:
256,192,38449,1,8,0:0:0:0:
256,192,38538,1,0,0:0:0:0:
256,192,38627,1,8,0:0:0:0:
256,192,38806,1,0,0:0:0:0:
256,192,38984,1,8,0:0:0:0:
256,192,39073,1,8,0:0:0:0:
256,192,39163,1,0,0:0:0:0:
256,192,39341,1,8,0:0:0:0:
256,192,39520,1,8,0:0:0:0:
256,192,39699,1,0,0:0:0:0:
256,192,39877,1,8,0:0:0:0:
256,192,40056,1,0,0:0:0:0:
256,192,40145,1,0,0:0:0:0:
256,192,40234,1,8,0:0:0:0:
256,192,40324,1,8,0:0:0:0:
256,192,40413,1,0,0:0:0:0:
256,192,40502,1,0,0:0:0:0:
256,192,40591,1,12,0:0:0:0:
256,192,40770,1,8,0:0:0:0:
256,192,40948,1,0,0:0:0:0:
256,192,41127,1,8,0:0:0:0:
256,192,41216,1,8,0:0:0:0:
256,192,41305,1,0,0:0:0:0:
256,192,41484,1,0,0:0:0:0:
256,192,41663,1,8,0:0:0:0:
256,192,41841,1,8,0:0:0:0:
255,192,41930,1,8,0:0:0:0:
255,192,42020,1,0,0:0:0:0:
255,192,42198,1,8,0:0:0:0:
255,192,42377,1,8,0:0:0:0:
255,192,42555,1,0,0:0:0:0:
255,192,42734,1,8,0:0:0:0:
256,192,42823,1,0,0:0:0:0:
256,192,42913,1,8,0:0:0:0:
253,192,43091,1,8,0:0:0:0:
253,192,43270,1,0,0:0:0:0:
253,192,43359,1,0,0:0:0:0:
253,192,43448,1,12,0:0:0:0:
256,192,43627,1,8,0:0:0:0:
256,192,43805,1,0,0:0:0:0:
256,192,43984,1,8,0:0:0:0:
256,192,44074,1,8,0:0:0:0:
256,192,44163,1,0,0:0:0:0:
256,192,44252,1,0,0:0:0:0:
256,192,44341,1,8,0:0:0:0:
256,192,44520,1,8,0:0:0:0:
256,192,44699,1,12,0:0:0:0:
256,192,44877,1,8,0:0:0:0:
256,192,45056,1,0,0:0:0:0:
256,192,45234,1,0,0:0:0:0:
256,192,45413,5,8,0:0:0:0:
256,192,45502,1,0,0:0:0:0:
256,192,45591,1,8,0:0:0:0:
256,192,45770,1,0,0:0:0:0:
256,192,45949,1,12,0:0:0:0:
256,192,46306,1,12,0:0:0:0:
256,192,46484,1,0,0:0:0:0:
256,192,46574,1,0,0:0:0:0:
256,192,46663,1,8,0:0:0:0:
256,192,46752,1,0,0:0:0:0:
256,192,46841,1,0,0:0:0:0:
256,192,46931,1,0,0:0:0:0:
256,192,47020,1,8,0:0:0:0:
256,192,47109,1,8,0:0:0:0:
256,192,47199,1,0,0:0:0:0:
256,192,47288,1,0,0:0:0:0:
256,192,47377,1,8,0:0:0:0:
256,192,47466,1,0,0:0:0:0:
256,192,47556,1,8,0:0:0:0:
256,192,47645,1,8,0:0:0:0:
256,192,47734,1,8,0:0:0:0:
256,192,47824,1,0,0:0:0:0:
256,192,47913,1,0,0:0:0:0:
256,192,48002,1,0,0:0:0:0:
256,192,48091,1,8,0:0:0:0:
256,192,48181,1,0,0:0:0:0:
256,192,48270,1,8,0:0:0:0:
256,192,48359,1,0,0:0:0:0:
256,192,48449,1,8,0:0:0:0:
256,192,48538,1,8,0:0:0:0:
256,192,48627,1,0,0:0:0:0:
256,192,48716,1,0,0:0:0:0:
256,192,48806,1,8,0:0:0:0:
256,192,48895,1,8,0:0:0:0:
256,192,48984,1,0,0:0:0:0:
256,192,49163,1,12,0:0:0:0:
256,192,49341,1,0,0:0:0:0:
256,192,49431,1,0,0:0:0:0:
256,192,49520,1,8,0:0:0:0:
256,192,49609,1,0,0:0:0:0:
256,192,49699,1,8,0:0:0:0:
256,192,49788,1,8,0:0:0:0:
256,192,49877,1,0,0:0:0:0:
256,192,49966,1,0,0:0:0:0:
256,192,50056,1,8,0:0:0:0:
256,192,50145,1,0,0:0:0:0:
256,192,50234,1,8,0:0:0:0:
256,192,50324,1,0,0:0:0:0:
256,192,50413,1,0,0:0:0:0:
256,192,50502,1,0,0:0:0:0:
256,192,50591,1,8,0:0:0:0:
256,192,50681,1,8,0:0:0:0:
256,192,50770,1,0,0:0:0:0:
256,192,50859,1,0,0:0:0:0:
256,192,50949,1,8,0:0:0:0:
256,192,51038,1,0,0:0:0:0:
256,192,51127,1,8,0:0:0:0:
256,192,51216,1,8,0:0:0:0:
256,192,51306,1,8,0:0:0:0:
256,192,51395,1,0,0:0:0:0:
256,192,51484,1,0,0:0:0:0:
256,192,51573,1,0,0:0:0:0:
256,192,51663,1,8,0:0:0:0:
256,192,51752,1,8,0:0:0:0:
256,192,51841,1,0,0:0:0:0:
256,192,52020,1,12,0:0:0:0:
256,192,52199,1,0,0:0:0:0:
256,192,52288,1,8,0:0:0:0:
256,192,52377,1,0,0:0:0:0:
256,192,52466,1,0,0:0:0:0:
256,192,52556,1,8,0:0:0:0:
256,192,52645,1,0,0:0:0:0:
256,192,52734,1,8,0:0:0:0:
256,192,52824,1,8,0:0:0:0:
256,192,52913,1,0,0:0:0:0:
256,192,53002,1,0,0:0:0:0:
256,192,53091,1,8,0:0:0:0:
256,192,53181,1,0,0:0:0:0:
256,192,53270,1,8,0:0:0:0:
256,192,53359,1,8,0:0:0:0:
256,192,53449,1,8,0:0:0:0:
256,192,53538,1,0,0:0:0:0:
256,192,53627,1,0,0:0:0:0:
256,192,53716,1,0,0:0:0:0:
256,192,53806,1,8,0:0:0:0:
256,192,53895,1,8,0:0:0:0:
256,192,53984,1,0,0:0:0:0:
256,192,54074,1,0,0:0:0:0:
256,192,54163,1,8,0:0:0:0:
256,192,54252,1,0,0:0:0:0:
256,192,54341,1,8,0:0:0:0:
256,192,54431,1,0,0:0:0:0:
256,192,54520,1,8,0:0:0:0:
256,192,54609,1,8,0:0:0:0:
256,192,54699,1,0,0:0:0:0:
256,192,54788,1,0,0:0:0:0:
256,192,54877,5,12,0:0:0:0:
256,192,55056,1,0,0:0:0:0:
256,192,55234,1,0,0:0:0:0:
256,192,55413,1,12,0:0:0:0:
256,192,55591,1,0,0:0:0:0:
256,192,55770,1,0,0:0:0:0:
256,192,55949,1,12,0:0:0:0:
256,192,56127,1,0,0:0:0:0:
256,192,56216,1,0,0:0:0:0:
256,192,56306,5,12,0:0:0:0:
256,192,56484,1,0,0:0:0:0:
256,192,56841,1,8,0:0:0:0:
256,192,57199,5,0,0:0:0:0:
256,192,57377,1,8,0:0:0:0:
256,192,57556,1,0,0:0:0:0:
256,192,57734,1,12,0:0:0:0:
256,192,57913,1,0,0:0:0:0:
256,192,58002,1,0,0:0:0:0:
256,192,58091,1,8,0:0:0:0:
256,192,58181,1,8,0:0:0:0:
256,192,58270,1,0,0:0:0:0:
256,192,58449,1,8,0:0:0:0:
256,192,58538,1,8,0:0:0:0:
256,192,58627,1,0,0:0:0:0:
256,192,58806,1,8,0:0:0:0:
256,192,58984,1,0,0:0:0:0:
256,192,59074,1,0,0:0:0:0:
256,192,59163,1,8,0:0:0:0:
256,192,59341,1,0,0:0:0:0:
256,192,59520,1,8,0:0:0:0:
256,192,59609,1,8,0:0:0:0:
256,192,59699,1,0,0:0:0:0:
256,192,59788,1,0,0:0:0:0:
256,192,59877,1,8,0:0:0:0:
256,192,60056,1,0,0:0:0:0:
256,192,60234,1,8,0:0:0:0:
256,192,60324,1,0,0:0:0:0:
256,192,60413,1,8,0:0:0:0:
256,192,60502,1,0,0:0:0:0:
256,192,60591,1,8,0:0:0:0:
256,192,60770,1,0,0:0:0:0:
256,192,60859,1,0,0:0:0:0:
256,192,60949,1,8,0:0:0:0:
256,192,61127,1,8,0:0:0:0:
256,192,61306,1,0,0:0:0:0:
256,192,61484,1,0,0:0:0:0:
256,192,61663,1,8,0:0:0:0:
256,192,61752,1,0,0:0:0:0:
256,192,61841,1,8,0:0:0:0:
256,192,62020,1,0,0:0:0:0:
256,192,62199,1,8,0:0:0:0:
256,192,62288,1,8,0:0:0:0:
256,192,62377,1,0,0:0:0:0:
256,192,62556,1,8,0:0:0:0:
256,192,62734,1,0,0:0:0:0:
256,192,62824,1,8,0:0:0:0:
256,192,62913,1,0,0:0:0:0:
256,192,63002,1,0,0:0:0:0:
256,192,63091,1,8,0:0:0:0:
256,192,63270,1,0,0:0:0:0:
256,192,63449,1,12,0:0:0:0:
256,192,63627,1,8,0:0:0:0:
256,192,63716,1,0,0:0:0:0:
256,192,63806,1,8,0:0:0:0:
256,192,63895,1,8,0:0:0:0:
256,192,63984,1,0,0:0:0:0:
256,192,64163,1,8,0:0:0:0:
256,192,64341,1,0,0:0:0:0:
256,192,64520,1,8,0:0:0:0:
256,192,64609,1,0,0:0:0:0:
256,192,64699,1,8,0:0:0:0:
256,192,64877,1,0,0:0:0:0:
256,192,65056,1,8,0:0:0:0:
256,192,65145,1,8,0:0:0:0:
256,192,65234,1,0,0:0:0:0:
256,192,65413,1,8,0:0:0:0:
256,192,65591,1,0,0:0:0:0:
256,192,65681,1,0,0:0:0:0:
256,192,65770,1,8,0:0:0:0:
256,192,65859,1,0,0:0:0:0:
256,192,65949,1,8,0:0:0:0:
256,192,66038,1,8,0:0:0:0:
256,192,66127,1,0,0:0:0:0:
256,192,66306,1,8,0:0:0:0:
256,192,66484,1,0,0:0:0:0:
256,192,66574,1,0,0:0:0:0:
256,192,66663,1,8,0:0:0:0:
256,192,66841,1,8,0:0:0:0:
256,192,66931,1,0,0:0:0:0:
256,192,67020,1,8,0:0:0:0:
256,192,67199,1,0,0:0:0:0:
256,192,67377,1,8,0:0:0:0:
256,192,67556,1,0,0:0:0:0:
256,192,67734,1,8,0:0:0:0:
256,192,67824,1,0,0:0:0:0:
256,192,67913,1,8,0:0:0:0:
256,192,68002,1,8,0:0:0:0:
256,192,68091,1,0,0:0:0:0:
256,192,68270,1,12,0:0:0:0:
256,192,68449,1,8,0:0:0:0:
256,192,68627,1,0,0:0:0:0:
256,192,68806,1,8,0:0:0:0:
256,192,68895,1,0,0:0:0:0:
256,192,68984,1,0,0:0:0:0:
256,192,69074,1,0,0:0:0:0:
256,192,69163,1,12,0:0:0:0:
256,192,69342,1,0,0:0:0:0:
256,192,69431,1,0,0:0:0:0:
256,192,69520,1,8,0:0:0:0:
256,192,69610,1,8,0:0:0:0:
256,192,69699,1,0,0:0:0:0:
256,192,69878,1,8,0:0:0:0:
256,192,69967,1,8,0:0:0:0:
256,192,70056,1,0,0:0:0:0:
256,192,70235,1,8,0:0:0:0:
256,192,70413,1,0,0:0:0:0:
256,192,70503,1,0,0:0:0:0:
256,192,70592,1,8,0:0:0:0:
256,192,70770,1,0,0:0:0:0:
256,192,70949,1,8,0:0:0:0:
256,192,71038,1,0,0:0:0:0:
256,192,71128,1,0,0:0:0:0:
256,192,71217,1,0,0:0:0:0:
256,192,71306,1,8,0:0:0:0:
256,192,71485,1,0,0:0:0:0:
256,192,71663,1,8,0:0:0:0:
256,192,71752,1,8,0:0:0:0:
256,192,71842,1,0,0:0:0:0:
256,192,71931,1,0,0:0:0:0:
256,192,72020,1,8,0:0:0:0:
256,192,72199,1,0,0:0:0:0:
256,192,72378,1,8,0:0:0:0:
256,192,72466,1,0,0:0:0:0:
256,192,72556,1,8,0:0:0:0:
256,192,72645,1,0,0:0:0:0:
256,192,72735,1,8,0:0:0:0:
256,192,72913,1,0,0:0:0:0:
256,192,73091,1,8,0:0:0:0:
256,192,73181,1,0,0:0:0:0:
256,192,73270,1,8,0:0:0:0:
256,192,73449,1,0,0:0:0:0:
256,192,73628,1,8,0:0:0:0:
256,192,73717,1,8,0:0:0:0:
256,192,73806,1,0,0:0:0:0:
256,192,73985,1,8,0:0:0:0:
256,192,74163,1,0,0:0:0:0:
256,192,74253,1,8,0:0:0:0:
256,192,74342,1,0,0:0:0:0:
256,192,74431,1,0,0:0:0:0:
256,192,74520,1,8,0:0:0:0:
256,192,74699,1,0,0:0:0:0:
256,192,74878,1,12,0:0:0:0:
256,192,75056,1,8,0:0:0:0:
256,192,75145,1,0,0:0:0:0:
256,192,75235,1,8,0:0:0:0:
256,192,75324,1,8,0:0:0:0:
256,192,75413,1,0,0:0:0:0:
256,192,75592,1,8,0:0:0:0:
256,192,75770,1,0,0:0:0:0:
256,192,75949,1,8,0:0:0:0:
256,192,76038,1,0,0:0:0:0:
256,192,76128,1,8,0:0:0:0:
256,192,76306,1,0,0:0:0:0:
256,192,76485,1,8,0:0:0:0:
256,192,76574,1,8,0:0:0:0:
256,192,76663,1,0,0:0:0:0:
256,192,76842,1,8,0:0:0:0:
256,192,77020,1,0,0:0:0:0:
256,192,77199,1,0,0:0:0:0:
256,192,77288,1,0,0:0:0:0:
256,192,77378,1,8,0:0:0:0:
256,192,77556,1,0,0:0:0:0:
256,192,77735,1,12,0:0:0:0:
256,192,77913,1,0,0:0:0:0:
256,192,78003,1,0,0:0:0:0:
256,192,78092,1,8,0:0:0:0:
256,192,78270,1,8,0:0:0:0:
256,192,78360,1,0,0:0:0:0:
256,192,78449,1,8,0:0:0:0:
256,192,78628,1,0,0:0:0:0:
256,192,78806,1,8,0:0:0:0:
256,192,78895,1,0,0:0:0:0:
256,192,78985,1,8,0:0:0:0:
256,192,79074,1,8,0:0:0:0:
256,192,79163,1,0,0:0:0:0:
256,192,79342,1,0,0:0:0:0:
256,192,79520,1,8,0:0:0:0:
256,192,79699,1,0,0:0:0:0:
256,192,79788,1,0,0:0:0:0:
256,192,79877,5,8,0:0:0:0:
256,192,80056,1,0,0:0:0:0:
256,192,80145,1,8,0:0:0:0:
256,192,80234,1,0,0:0:0:0:
256,192,80413,1,0,0:0:0:0:
256,192,80502,1,0,0:0:0:0:
256,192,80591,5,12,0:0:0:0:
256,192,80949,1,8,0:0:0:0:
256,192,81127,1,0,0:0:0:0:
256,192,81306,1,8,0:0:0:0:
256,192,81484,1,8,0:0:0:0:
256,192,81663,1,0,0:0:0:0:
256,192,81841,1,0,0:0:0:0:
256,192,81931,1,0,0:0:0:0:
256,192,82020,1,12,0:0:0:0:
256,192,82199,1,0,0:0:0:0:
256,192,82556,1,8,0:0:0:0:
256,192,82913,1,0,0:0:0:0:
256,192,83091,1,8,0:0:0:0:
256,192,83449,1,12,0:0:0:0:
256,192,83627,1,0,0:0:0:0:
256,192,83716,1,0,0:0:0:0:
256,192,83806,1,8,0:0:0:0:
256,192,83984,1,8,0:0:0:0:
256,192,84163,1,8,0:0:0:0:
256,192,84252,1,0,0:0:0:0:
256,192,84341,1,8,0:0:0:0:
256,192,84431,1,8,0:0:0:0:
256,192,84520,1,0,0:0:0:0:
256,192,84699,1,8,0:0:0:0:
256,192,84877,1,8,0:0:0:0:
256,192,85056,1,0,0:0:0:0:
256,192,85145,1,0,0:0:0:0:
256,192,85234,1,8,0:0:0:0:
256,192,85413,1,0,0:0:0:0:
256,192,85591,1,8,0:0:0:0:
256,192,85681,1,0,0:0:0:0:
256,192,85770,1,8,0:0:0:0:
256,192,85859,1,0,0:0:0:0:
256,192,85949,1,8,0:0:0:0:
256,192,86038,1,8,0:0:0:0:
256,192,86127,1,0,0:0:0:0:
256,192,86216,1,0,0:0:0:0:
256,192,86306,1,12,0:0:0:0:
256,192,86484,1,0,0:0:0:0:
256,192,86663,1,8,0:0:0:0:
256,192,86752,1,0,0:0:0:0:
256,192,86841,1,8,0:0:0:0:
256,192,87020,1,8,0:0:0:0:
256,192,87199,1,0,0:0:0:0:
256,192,87377,1,8,0:0:0:0:
256,192,87466,1,8,0:0:0:0:
256,192,87556,1,0,0:0:0:0:
256,192,87645,1,0,0:0:0:0:
256,192,87734,1,12,0:0:0:0:
256,192,87913,1,0,0:0:0:0:
256,192,88091,1,8,0:0:0:0:
256,192,88270,1,0,0:0:0:0:
256,192,88359,1,0,0:0:0:0:
256,192,88449,1,8,0:0:0:0:
256,192,88627,1,8,0:0:0:0:
256,192,88806,1,0,0:0:0:0:
256,192,88984,1,12,0:0:0:0:
