osu file format v14

[General]
AudioFilename: audio.mp3
AudioLeadIn: 0
PreviewTime: 151904
Countdown: 0
SampleSet: Soft
StackLeniency: 0.5
Mode: 0
LetterboxInBreaks: 0
EpilepsyWarning: 1
WidescreenStoryboard: 1

[Editor]
Bookmarks: 6279,11993,23422,23600,23779,23957,24136,24314,24493,24672,24850,25029,25207,25386,25564,25743,25922,26100,26279,26457,26636,26814,26993,27172,27350,27529,27707,27886,28064,28243,28422,28600,28779,28957,29136,29314,29493,29672,29850,30029,30207,30386,30564,30743,30922,31100,31279,31457,31636,31814,31993,32172,32350,32529,32707,32886,33064,33243,33422,33600,33779,33957,34136,34314,34493,34672,34850,46279,57707,69136,94850,106279,129136,140564,151993,177707,189136,200564,211993,223422,233422,234850,249136
DistanceSpacing: 1.4
BeatDivisor: 4
GridSize: 4
TimelineZoom: 2.299999

[Metadata]
Title:youthful beautiful
TitleUnicode:youthful beautiful
Artist:Uchida Maaya
ArtistUnicode:内田真礼
Creator:Meg
Version:Original
Source:SSSS.GRIDMAN
Tags:anime グリッドマン ed ending iMage-- kuei izacchi Yuria
BeatmapID:1980972
BeatmapSetID:948557

[Difficulty]
HPDrainRate:6
CircleSize:4
OverallDifficulty:8
ApproachRate:9.2
SliderMultiplier:1.7
SliderTickRate:1

[Events]
//Background and Video events
0,0,"BG.png",0,0
//Break Periods
2,23622,34250
//Storyboard Layer 0 (Background)
Sprite,Background,Centre,"sb\highlight.png",64,192 C,0,223422,,64,0,128 M,0,223422,223466,64,192,78.00641,182.3842 F,2,223422,224693,1,0 S,2,223422,224693,1,0.2 P,0,223422,224693,A M,0,223466,223511,78.00641,182.3842,90.59532,170.9826 M,0,223511,223555,90.59532,170.9826,101.2201,157.7381 M,0,223555,223600,101.2201,157.7381,109.3542,142.8369 M,0,223600,223645,109.3542,142.8369,114.6936,126.7203 M,0,223645,223689,114.6936,126.7203,117.2792,109.9358 M,0,223689,223734,117.2792,109.9358,117.4239,92.94873 M,0,223734,223779,117.4239,92.94873,117.3438,81.65308 M,0,223779,223823,117.3438,81.65308,125.5853,96.51823 M,0,223823,223868,125.5853,96.51823,134.8864,110.7427 M,0,223868,223913,134.8864,110.7427,145.4011,124.0924 M,0,223913,223957,145.4011,124.0924,157.3233,135.8243 M,0,223957,224002,157.3233,135.8243,171.8088,126.9389 M,0,224002,224047,171.8088,126.9389,185.5341,116.9137 M,0,224047,224091,185.5341,116.9137,198.6548,106.1069 M,0,224091,224136,198.6548,106.1069,210.8483,95.3623 M,0,224136,224180,210.8483,95.3623,205.1249,111.3613 M,0,224180,224225,205.1249,111.3613,201.2628,127.906 M,0,224225,224270,201.2628,127.906,199.5473,144.8064 M,0,224270,224314,199.5473,144.8064,200.1707,161.7809 M,0,224314,224359,200.1707,161.7809,203.1635,178.5015 M,0,224359,224404,203.1635,178.5015,208.3813,194.6683 M,0,224404,224448,208.3813,194.6683,215.5527,210.071 M,0,224448,224493,215.5527,210.071,224.3558,224.6057
Sprite,Background,Centre,"sb\highlight.png",359,126 C,0,224850,,211,168,255 M,0,224850,224894,359,126,349.9119,117.0839 F,2,224850,226121,1,0 S,2,224850,226121,1,0.2 P,0,224850,226121,A M,0,224894,224939,349.9119,117.0839,339.217,110.192 M,0,224939,224983,339.217,110.192,327.2012,106.0393 M,0,224983,225028,327.2012,106.0393,314.5193,105.2663 M,0,225028,225073,314.5193,105.2663,302.157,108.187 M,0,225073,225117,302.157,108.187,291.1728,114.5694 M,0,225117,225162,291.1728,114.5694,282.409,123.7714 M,0,225162,225207,282.409,123.7714,276.426,134.9863 M,0,225207,225251,276.426,134.9863,273.5679,147.3731 M,0,225251,225296,273.5679,147.3731,274.0692,160.0739 M,0,225296,225341,274.0692,160.0739,278.0684,172.1321 M,0,225341,225385,278.0684,172.1321,285.5121,182.414 M,0,225385,225430,285.5121,182.414,295.9702,189.5858 M,0,225430,225475,295.9702,189.5858,308.3129,192.4566 M,0,225475,225519,308.3129,192.4566,320.8606,190.6328 M,0,225519,225564,320.8606,190.6328,332.1343,184.7869 M,0,225564,225608,332.1343,184.7869,341.4407,176.117 M,0,225608,225653,341.4407,176.117,348.7623,165.6999 M,0,225653,225698,348.7623,165.6999,354.4492,154.2979 M,0,225698,225742,354.4492,154.2979,353.5941,164.2453 M,0,225742,225787,353.5941,164.2453,353.7833,176.9813 M,0,225787,225832,353.7833,176.9813,355.9679,189.5289 M,0,225832,225876,355.9679,189.5289,360.0941,201.5795 M,0,225876,225921,360.0941,201.5795,365.939,212.8993
Sprite,Background,Centre,"sb\highlight.png",515,135 C,0,226279,,64,0,128 M,0,226279,226323,515,135,505.9119,126.0839 F,2,226279,227550,1,0 S,2,226279,227550,1,0.2 P,0,226279,227550,A M,0,226323,226368,505.9119,126.0839,495.217,119.192 M,0,226368,226412,495.217,119.192,483.2012,115.0393 M,0,226412,226457,483.2012,115.0393,470.5193,114.2663 M,0,226457,226502,470.5193,114.2663,458.157,117.187 M,0,226502,226546,458.157,117.187,447.1728,123.5694 M,0,226546,226591,447.1728,123.5694,438.409,132.7715 M,0,226591,226636,438.409,132.7715,432.426,143.9863 M,0,226636,226680,432.426,143.9863,429.568,156.3732 M,0,226680,226725,429.568,156.3732,430.0692,169.0739 M,0,226725,226770,430.0692,169.0739,434.0684,181.1321 M,0,226770,226814,434.0684,181.1321,441.5121,191.414 M,0,226814,226859,441.5121,191.414,451.9702,198.5858 M,0,226859,226904,451.9702,198.5858,464.313,201.4565 M,0,226904,226948,464.313,201.4565,476.8606,199.6328 M,0,226948,226993,476.8606,199.6328,488.1344,193.7869 M,0,226993,227037,488.1344,193.7869,497.4407,185.117 M,0,227037,227082,497.4407,185.117,504.7623,174.6998 M,0,227082,227127,504.7623,174.6998,510.4493,163.2978 M,0,227127,227171,510.4493,163.2978,509.5942,173.2453 M,0,227171,227216,509.5942,173.2453,509.7833,185.9813 M,0,227216,227261,509.7833,185.9813,511.968,198.5289 M,0,227261,227305,511.968,198.5289,516.0941,210.5795 M,0,227305,227350,516.0941,210.5795,521.9391,221.8993
Sprite,Background,Centre,"sb\highlight.png",73,206 C,0,227707,,211,168,255 M,0,227707,227751,73,206,78.05114,217.6936 F,2,227707,228978,1,0 S,2,227707,228978,1,0.2 P,0,227707,228978,A M,0,227751,227796,78.05114,217.6936,84.9499,228.3953 M,0,227796,227840,84.9499,228.3953,93.78833,237.5518 M,0,227840,227885,93.78833,237.5518,104.4185,244.5398 M,0,227885,227930,104.4185,244.5398,116.3792,248.8706 M,0,227930,227974,116.3792,248.8706,129.0119,250.3991 M,0,227974,228019,129.0119,250.3991,141.6992,249.3462 M,0,228019,228064,141.6992,249.3462,154.0212,246.1229 M,0,228064,228108,154.0212,246.1229,165.7549,241.1583 M,0,228108,228153,165.7549,241.1583,176.8115,234.8219 M,0,228153,228198,176.8115,234.8219,174.8471,236.6259 M,0,228198,228242,174.8471,236.6259,165.3586,245.1329 M,0,228242,228287,165.3586,245.1329,156.8438,254.6144 M,0,228287,228332,156.8438,254.6144,149.398,264.9567 M,0,228332,228376,149.398,264.9567,143.0942,276.0323 M,0,228376,228421,143.0942,276.0323,137.9817,287.7061 M,0,228421,228465,137.9817,287.7061,134.0857,299.8405 M,0,228465,228510,134.0857,299.8405,131.4119,312.3018 M,0,228510,228555,131.4119,312.3018,129.9445,324.9623 M,0,228555,228599,129.9445,324.9623,129.6494,337.7044 M,0,228599,228644,129.6494,337.7044,130.4841,350.423 M,0,228644,228689,130.4841,350.423,132.3898,363.026 M,0,228689,228733,132.3898,363.026,135.3034,375.4352 M,0,228733,228778,135.3034,375.4352,139.157,387.5858
Sprite,Background,Centre,"sb\highlight.png",293,310 C,0,229136,,64,0,128 M,0,229136,229180,293,310,283.9119,301.0839 F,2,229136,230407,1,0 S,2,229136,230407,1,0.2 P,0,229136,230407,A M,0,229180,229225,283.9119,301.0839,273.217,294.192 M,0,229225,229269,273.217,294.192,261.2012,290.0393 M,0,229269,229314,261.2012,290.0393,248.5193,289.2663 M,0,229314,229359,248.5193,289.2663,236.157,292.1871 M,0,229359,229403,236.157,292.1871,225.1728,298.5693 M,0,229403,229448,225.1728,298.5693,216.409,307.7715 M,0,229448,229493,216.409,307.7715,210.4259,318.9863 M,0,229493,229537,210.4259,318.9863,207.5679,331.3731 M,0,229537,229582,207.5679,331.3731,208.0692,344.0739 M,0,229582,229627,208.0692,344.0739,212.0684,356.1321 M,0,229627,229671,212.0684,356.1321,219.5122,366.414 M,0,229671,229716,219.5122,366.414,229.9702,373.5858 M,0,229716,229761,229.9702,373.5858,242.313,376.4566 M,0,229761,229805,242.313,376.4566,254.8606,374.6328 M,0,229805,229850,254.8606,374.6328,266.1344,368.7868 M,0,229850,229894,266.1344,368.7868,275.4407,360.1169 M,0,229894,229939,275.4407,360.1169,282.7624,349.6998 M,0,229939,229984,282.7624,349.6998,288.4493,338.2978 M,0,229984,230028,288.4493,338.2978,287.5941,348.2453 M,0,230028,230073,287.5941,348.2453,287.7833,360.9813 M,0,230073,230118,287.7833,360.9813,289.968,373.529 M,0,230118,230162,289.968,373.529,294.0941,385.5795 M,0,230162,230207,294.0941,385.5795,299.939,396.8994
Sprite,Background,Centre,"sb\highlight.png",488,260 C,0,230564,,211,168,255 M,0,230564,230608,488,260,482.215,248.6513 F,2,230564,231835,1,0 S,2,230564,231835,1,0.2 P,0,230564,231835,A M,0,230608,230653,482.215,248.6513,474.752,238.3338 M,0,230653,230697,474.752,238.3338,465.588,229.497 M,0,230697,230742,465.588,229.497,454.8668,222.6383 M,0,230742,230787,454.8668,222.6383,442.9565,218.1578 M,0,230787,230831,442.9565,218.1578,430.3669,216.3055 M,0,230831,230876,430.3669,216.3055,417.6645,217.0943 M,0,230876,230921,417.6645,217.0943,405.3697,220.3911 M,0,230921,230965,405.3697,220.3911,393.9256,225.9676 M,0,230965,231010,393.9256,225.9676,383.7108,233.5663 M,0,231010,231055,383.7108,233.5663,375.1019,242.9443 M,0,231055,231099,375.1019,242.9443,368.4688,253.807 M,0,231099,231144,368.4688,253.807,364.2231,265.8027 M,0,231144,231189,364.2231,265.8027,362.6769,278.4314 M,0,231189,231233,362.6769,278.4314,363.9364,291.0942 M,0,231233,231278,363.9364,291.0942,367.7129,303.2526 M,0,231278,231322,367.7129,303.2526,373.432,314.636 M,0,231322,231367,373.432,314.636,380.404,325.3061 M,0,231367,231412,380.404,325.3061,387.9696,335.5683 M,0,231412,231456,387.9696,335.5683,395.4637,345.8821 M,0,231456,231501,395.4637,345.8821,402.1122,356.7521 M,0,231501,231546,402.1122,356.7521,406.9944,368.5088 M,0,231546,231590,406.9944,368.5088,409.3475,381.0137 M,0,231590,231635,409.3475,381.0137,409.1415,393.7431
Sprite,Background,Centre,"sb\highlight.png",488,260 C,0,231993,,211,168,255 M,0,231993,232037,488,260,500.7055,259.0959 F,2,231993,233264,1,0 S,2,231993,233264,1,0.2 P,0,231993,233264,A M,0,232037,232082,500.7055,259.0959,513.3809,260.301 M,0,232082,232126,513.3809,260.301,525.604,263.8466 M,0,232126,232171,525.604,263.8466,536.8326,269.832 M,0,232171,232216,536.8326,269.832,546.4949,278.1104 M,0,232216,232260,546.4949,278.1104,554.1401,288.282 M,0,232260,232305,554.1401,288.282,559.5094,299.8204 M,0,232305,232350,559.5094,299.8204,562.5013,312.1929 M,0,232350,232394,562.5013,312.1929,563.1157,324.9087 M,0,232394,232439,563.1157,324.9087,561.387,337.5217 M,0,232439,232484,561.387,337.5217,557.3477,349.594 M,0,232484,232528,557.3477,349.594,551.0424,360.65 M,0,232528,232573,551.0424,360.65,542.5914,370.1628 M,0,232573,232618,542.5914,370.1628,532.2681,377.5987 M,0,232618,232662,532.2681,377.5987,520.5669,382.5982 M,0,232662,232707,520.5669,382.5982,508.0975,385.1678 M,0,232707,232751,508.0975,385.1678,495.369,385.697 M,0,232751,232796,495.369,385.697,482.6534,384.8156 M,0,232796,232841,482.6534,384.8156,470.002,383.2363 M,0,232841,232885,470.002,383.2363,457.3412,381.739 M,0,232885,232930,457.3412,381.739,444.6096,381.2053 M,0,232930,232975,444.6096,381.2053,431.9509,382.5649 M,0,232975,233019,431.9509,382.5649,419.817,386.3983 M,0,233019,233064,419.817,386.3983,408.6697,392.5477
Sprite,Background,Centre,"sb\highlight.png",64,192 M,0,223422,223466,64,192,78.00641,182.3842 F,2,223422,224693,1,0 S,2,223422,224693,1,0.2 P,0,223422,224693,A M,0,223466,223511,78.00641,182.3842,90.59532,170.9826 M,0,223511,223555,90.59532,170.9826,101.2201,157.7381 M,0,223555,223600,101.2201,157.7381,109.3542,142.8369 M,0,223600,223645,109.3542,142.8369,114.6936,126.7203 M,0,223645,223689,114.6936,126.7203,117.2792,109.9358 M,0,223689,223734,117.2792,109.9358,117.4239,92.94873 M,0,223734,223779,117.4239,92.94873,117.3438,81.65308 M,0,223779,223823,117.3438,81.65308,125.5853,96.51823 M,0,223823,223868,125.5853,96.51823,134.8864,110.7427 M,0,223868,223913,134.8864,110.7427,145.4011,124.0924 M,0,223913,223957,145.4011,124.0924,157.3233,135.8243 M,0,223957,224002,157.3233,135.8243,171.8088,126.9389 M,0,224002,224047,171.8088,126.9389,185.5341,116.9137 M,0,224047,224091,185.5341,116.9137,198.6548,106.1069 M,0,224091,224136,198.6548,106.1069,210.8483,95.3623 M,0,224136,224180,210.8483,95.3623,205.1249,111.3613 M,0,224180,224225,205.1249,111.3613,201.2628,127.906 M,0,224225,224270,201.2628,127.906,199.5473,144.8064 M,0,224270,224314,199.5473,144.8064,200.1707,161.7809 M,0,224314,224359,200.1707,161.7809,203.1635,178.5015 M,0,224359,224404,203.1635,178.5015,208.3813,194.6683 M,0,224404,224448,208.3813,194.6683,215.5527,210.071 M,0,224448,224493,215.5527,210.071,224.3558,224.6057
Sprite,Background,Centre,"sb\highlight.png",359,126 M,0,224850,224894,359,126,349.9119,117.0839 F,2,224850,226121,1,0 S,2,224850,226121,1,0.2 P,0,224850,226121,A M,0,224894,224939,349.9119,117.0839,339.217,110.192 M,0,224939,224983,339.217,110.192,327.2012,106.0393 M,0,224983,225028,327.2012,106.0393,314.5193,105.2663 M,0,225028,225073,314.5193,105.2663,302.157,108.187 M,0,225073,225117,302.157,108.187,291.1728,114.5694 M,0,225117,225162,291.1728,114.5694,282.409,123.7714 M,0,225162,225207,282.409,123.7714,276.426,134.9863 M,0,225207,225251,276.426,134.9863,273.5679,147.3731 M,0,225251,225296,273.5679,147.3731,274.0692,160.0739 M,0,225296,225341,274.0692,160.0739,278.0684,172.1321 M,0,225341,225385,278.0684,172.1321,285.5121,182.414 M,0,225385,225430,285.5121,182.414,295.9702,189.5858 M,0,225430,225475,295.9702,189.5858,308.3129,192.4566 M,0,225475,225519,308.3129,192.4566,320.8606,190.6328 M,0,225519,225564,320.8606,190.6328,332.1343,184.7869 M,0,225564,225608,332.1343,184.7869,341.4407,176.117 M,0,225608,225653,341.4407,176.117,348.7623,165.6999 M,0,225653,225698,348.7623,165.6999,354.4492,154.2979 M,0,225698,225742,354.4492,154.2979,353.5941,164.2453 M,0,225742,225787,353.5941,164.2453,353.7833,176.9813 M,0,225787,225832,353.7833,176.9813,355.9679,189.5289 M,0,225832,225876,355.9679,189.5289,360.0941,201.5795 M,0,225876,225921,360.0941,201.5795,365.939,212.8993
Sprite,Background,Centre,"sb\highlight.png",515,135 M,0,226279,226323,515,135,505.9119,126.0839 F,2,226279,227550,1,0 S,2,226279,227550,1,0.2 P,0,226279,227550,A M,0,226323,226368,505.9119,126.0839,495.217,119.192 M,0,226368,226412,495.217,119.192,483.2012,115.0393 M,0,226412,226457,483.2012,115.0393,470.5193,114.2663 M,0,226457,226502,470.5193,114.2663,458.157,117.187 M,0,226502,226546,458.157,117.187,447.1728,123.5694 M,0,226546,226591,447.1728,123.5694,438.409,132.7715 M,0,226591,226636,438.409,132.7715,432.426,143.9863 M,0,226636,226680,432.426,143.9863,429.568,156.3732 M,0,226680,226725,429.568,156.3732,430.0692,169.0739 M,0,226725,226770,430.0692,169.0739,434.0684,181.1321 M,0,226770,226814,434.0684,181.1321,441.5121,191.414 M,0,226814,226859,441.5121,191.414,451.9702,198.5858 M,0,226859,226904,451.9702,198.5858,464.313,201.4565 M,0,226904,226948,464.313,201.4565,476.8606,199.6328 M,0,226948,226993,476.8606,199.6328,488.1344,193.7869 M,0,226993,227037,488.1344,193.7869,497.4407,185.117 M,0,227037,227082,497.4407,185.117,504.7623,174.6998 M,0,227082,227127,504.7623,174.6998,510.4493,163.2978 M,0,227127,227171,510.4493,163.2978,509.5942,173.2453 M,0,227171,227216,509.5942,173.2453,509.7833,185.9813 M,0,227216,227261,509.7833,185.9813,511.968,198.5289 M,0,227261,227305,511.968,198.5289,516.0941,210.5795 M,0,227305,227350,516.0941,210.5795,521.9391,221.8993
Sprite,Background,Centre,"sb\highlight.png",73,206 M,0,227707,227751,73,206,78.05114,217.6936 F,2,227707,228978,1,0 S,2,227707,228978,1,0.2 P,0,227707,228978,A M,0,227751,227796,78.05114,217.6936,84.9499,228.3953 M,0,227796,227840,84.9499,228.3953,93.78833,237.5518 M,0,227840,227885,93.78833,237.5518,104.4185,244.5398 M,0,227885,227930,104.4185,244.5398,116.3792,248.8706 M,0,227930,227974,116.3792,248.8706,129.0119,250.3991 M,0,227974,228019,129.0119,250.3991,141.6992,249.3462 M,0,228019,228064,141.6992,249.3462,154.0212,246.1229 M,0,228064,228108,154.0212,246.1229,165.7549,241.1583 M,0,228108,228153,165.7549,241.1583,176.8115,234.8219 M,0,228153,228198,176.8115,234.8219,174.8471,236.6259 M,0,228198,228242,174.8471,236.6259,165.3586,245.1329 M,0,228242,228287,165.3586,245.1329,156.8438,254.6144 M,0,228287,228332,156.8438,254.6144,149.398,264.9567 M,0,228332,228376,149.398,264.9567,143.0942,276.0323 M,0,228376,228421,143.0942,276.0323,137.9817,287.7061 M,0,228421,228465,137.9817,287.7061,134.0857,299.8405 M,0,228465,228510,134.0857,299.8405,131.4119,312.3018 M,0,228510,228555,131.4119,312.3018,129.9445,324.9623 M,0,228555,228599,129.9445,324.9623,129.6494,337.7044 M,0,228599,228644,129.6494,337.7044,130.4841,350.423 M,0,228644,228689,130.4841,350.423,132.3898,363.026 M,0,228689,228733,132.3898,363.026,135.3034,375.4352 M,0,228733,228778,135.3034,375.4352,139.157,387.5858
Sprite,Background,Centre,"sb\highlight.png",293,310 M,0,229136,229180,293,310,283.9119,301.0839 F,2,229136,230407,1,0 S,2,229136,230407,1,0.2 P,0,229136,230407,A M,0,229180,229225,283.9119,301.0839,273.217,294.192 M,0,229225,229269,273.217,294.192,261.2012,290.0393 M,0,229269,229314,261.2012,290.0393,248.5193,289.2663 M,0,229314,229359,248.5193,289.2663,236.157,292.1871 M,0,229359,229403,236.157,292.1871,225.1728,298.5693 M,0,229403,229448,225.1728,298.5693,216.409,307.7715 M,0,229448,229493,216.409,307.7715,210.4259,318.9863 M,0,229493,229537,210.4259,318.9863,207.5679,331.3731 M,0,229537,229582,207.5679,331.3731,208.0692,344.0739 M,0,229582,229627,208.0692,344.0739,212.0684,356.1321 M,0,229627,229671,212.0684,356.1321,219.5122,366.414 M,0,229671,229716,219.5122,366.414,229.9702,373.5858 M,0,229716,229761,229.9702,373.5858,242.313,376.4566 M,0,229761,229805,242.313,376.4566,254.8606,374.6328 M,0,229805,229850,254.8606,374.6328,266.1344,368.7868 M,0,229850,229894,266.1344,368.7868,275.4407,360.1169 M,0,229894,229939,275.4407,360.1169,282.7624,349.6998 M,0,229939,229984,282.7624,349.6998,288.4493,338.2978 M,0,229984,230028,288.4493,338.2978,287.5941,348.2453 M,0,230028,230073,287.5941,348.2453,287.7833,360.9813 M,0,230073,230118,287.7833,360.9813,289.968,373.529 M,0,230118,230162,289.968,373.529,294.0941,385.5795 M,0,230162,230207,294.0941,385.5795,299.939,396.8994
Sprite,Background,Centre,"sb\highlight.png",488,260 M,0,230564,230608,488,260,482.215,248.6513 F,2,230564,231835,1,0 S,2,230564,231835,1,0.2 P,0,230564,231835,A M,0,230608,230653,482.215,248.6513,474.752,238.3338 M,0,230653,230697,474.752,238.3338,465.588,229.497 M,0,230697,230742,465.588,229.497,454.8668,222.6383 M,0,230742,230787,454.8668,222.6383,442.9565,218.1578 M,0,230787,230831,442.9565,218.1578,430.3669,216.3055 M,0,230831,230876,430.3669,216.3055,417.6645,217.0943 M,0,230876,230921,417.6645,217.0943,405.3697,220.3911 M,0,230921,230965,405.3697,220.3911,393.9256,225.9676 M,0,230965,231010,393.9256,225.9676,383.7108,233.5663 M,0,231010,231055,383.7108,233.5663,375.1019,242.9443 M,0,231055,231099,375.1019,242.9443,368.4688,253.807 M,0,231099,231144,368.4688,253.807,364.2231,265.8027 M,0,231144,231189,364.2231,265.8027,362.6769,278.4314 M,0,231189,231233,362.6769,278.4314,363.9364,291.0942 M,0,231233,231278,363.9364,291.0942,367.7129,303.2526 M,0,231278,231322,367.7129,303.2526,373.432,314.636 M,0,231322,231367,373.432,314.636,380.404,325.3061 M,0,231367,231412,380.404,325.3061,387.9696,335.5683 M,0,231412,231456,387.9696,335.5683,395.4637,345.8821 M,0,231456,231501,395.4637,345.8821,402.1122,356.7521 M,0,231501,231546,402.1122,356.7521,406.9944,368.5088 M,0,231546,231590,406.9944,368.5088,409.3475,381.0137 M,0,231590,231635,409.3475,381.0137,409.1415,393.7431
Sprite,Background,Centre,"sb\highlight.png",488,260 M,0,231993,232037,488,260,500.7055,259.0959 F,2,231993,233264,1,0 S,2,231993,233264,1,0.2 P,0,231993,233264,A M,0,232037,232082,500.7055,259.0959,513.3809,260.301 M,0,232082,232126,513.3809,260.301,525.604,263.8466 M,0,232126,232171,525.604,263.8466,536.8326,269.832 M,0,232171,232216,536.8326,269.832,546.4949,278.1104 M,0,232216,232260,546.4949,278.1104,554.1401,288.282 M,0,232260,232305,554.1401,288.282,559.5094,299.8204 M,0,232305,232350,559.5094,299.8204,562.5013,312.1929 M,0,232350,232394,562.5013,312.1929,563.1157,324.9087 M,0,232394,232439,563.1157,324.9087,561.387,337.5217 M,0,232439,232484,561.387,337.5217,557.3477,349.594 M,0,232484,232528,557.3477,349.594,551.0424,360.65 M,0,232528,232573,551.0424,360.65,542.5914,370.1628 M,0,232573,232618,542.5914,370.1628,532.2681,377.5987 M,0,232618,232662,532.2681,377.5987,520.5669,382.5982 M,0,232662,232707,520.5669,382.5982,508.0975,385.1678 M,0,232707,232751,508.0975,385.1678,495.369,385.697 M,0,232751,232796,495.369,385.697,482.6534,384.8156 M,0,232796,232841,482.6534,384.8156,470.002,383.2363 M,0,232841,232885,470.002,383.2363,457.3412,381.739 M,0,232885,232930,457.3412,381.739,444.6096,381.2053 M,0,232930,232975,444.6096,381.2053,431.9509,382.5649 M,0,232975,233019,431.9509,382.5649,419.817,386.3983 M,0,233019,233064,419.817,386.3983,408.6697,392.5477
Sprite,Background,Centre,"sb\highlight.png",241,296 C,0,233422,,64,0,128 M,0,233422,233466,241,296,236.0781,275.3279 F,2,233422,233666,1,0 S,2,233422,233666,1,0.2 P,0,233422,233666,A
Sprite,Background,Centre,"sb\highlight.png",399,184 C,0,233957,,64,0,128 M,0,233957,234001,399,184,403,204 F,2,233957,234201,1,0 S,2,233957,234201,1,0.2 P,0,233957,234201,A
//Storyboard Layer 1 (Fail)
//Storyboard Layer 2 (Pass)
//Storyboard Layer 3 (Foreground)
Sprite,Foreground,Centre,"SB\setup\beatmap.png",320,170 F,0,178243,178422,0,1 S,2,178243,178422,0.3,0.35 P,0,178243,188243,A F,0,188064,188243,1,0 S,2,188064,188243,0.35,0.3
//Storyboard Sound Samples

[TimingPoints]
565,357.142857142857,4,2,1,30,1,0
565,-200,4,2,1,30,0,0
5922,-100,4,2,2,35,0,0
6279,-133.333333333333,4,2,2,40,0,0
10564,-133.333333333333,4,2,3,50,0,0
11457,-100,4,2,4,60,0,0
11993,-100,4,2,4,70,0,0
18422,-100,4,2,9,70,0,0
23064,-100,4,2,5,70,0,0
23422,-100,4,2,4,50,0,0
34850,-100,4,2,6,60,0,0
41993,-100,4,2,30,60,0,0
42172,-100,4,2,6,60,0,0
44850,-100,4,2,30,60,0,0
44895,-100,4,2,6,5,0,0
45029,-100,4,2,6,60,0,0
45743,-100,4,2,4,60,0,0
45922,-100,4,2,5,60,0,0
46279,-100,4,2,7,60,0,0
46814,-100,4,2,8,60,0,0
46993,-100,4,2,7,60,0,0
48243,-100,4,2,8,60,0,0
48422,-100,4,2,7,70,0,0
49672,-100,4,2,8,70,0,0
49850,-100,4,2,7,70,0,0
50743,-100,4,2,4,90,0,0
51279,-100,4,2,8,70,0,0
51457,-100,4,2,7,70,0,0
52529,-100,4,2,8,70,0,0
52707,-100,4,2,7,70,0,0
53957,-100,4,2,8,70,0,0
54136,-100,4,2,7,70,0,0
54314,-100,4,2,4,90,0,0
54493,-100,4,2,7,70,0,0
55386,-100,4,2,8,70,0,0
55743,-100,4,2,4,90,0,0
55922,-100,4,2,7,70,0,0
56100,-100,4,2,4,90,0,0
56814,-100,4,2,8,70,0,0
56993,-100,4,2,7,70,0,0
57707,-100,4,2,17,80,0,0
57886,-100,4,2,18,40,0,0
57975,-100,4,2,17,40,0,0
58064,-100,4,2,5,80,0,0
58154,-100,4,2,18,40,0,0
58243,-100,4,2,17,80,0,0
58332,-100,4,2,18,40,0,0
58600,-100,4,2,17,80,0,0
58689,-100,4,2,18,40,0,0
58779,-100,4,2,17,80,0,0
58868,-100,4,2,18,40,0,0
58957,-100,4,2,17,80,0,0
59136,-100,4,2,17,80,0,0
59314,-100,4,2,18,40,0,0
59404,-100,4,2,17,80,0,0
59493,-100,4,2,5,80,0,0
59582,-100,4,2,18,40,0,0
59672,-100,4,2,17,80,0,0
59761,-100,4,2,18,40,0,0
60029,-100,4,2,17,80,0,0
60297,-100,4,2,5,80,0,0
60564,-100,4,2,17,80,0,0
60743,-100,4,2,18,40,0,0
60832,-100,4,2,17,80,0,0
60922,-100,4,2,5,80,0,0
61011,-100,4,2,18,40,0,0
61100,-100,4,2,17,80,0,0
61189,-100,4,2,18,40,0,0
61547,-100,4,2,17,80,0,0
61636,-100,4,2,5,80,0,0
61725,-100,4,2,18,40,0,0
61814,-100,4,2,17,80,0,0
61904,-100,4,2,18,40,0,0
61993,-100,4,2,5,80,0,0
62172,-100,4,2,18,40,0,0
62261,-100,4,2,17,80,0,0
62350,-100,4,2,18,40,0,0
62529,-100,4,2,17,80,0,0
62618,-100,4,2,18,40,0,0
62707,-100,4,2,17,80,0,0
62886,-100,4,2,18,40,0,0
63064,-100,4,2,17,80,0,0
63154,-100,4,2,5,80,0,0
63422,-100,4,2,17,80,0,0
63600,-100,4,2,18,40,0,0
63689,-100,4,2,17,80,0,0
63779,-100,4,2,5,80,0,0
63868,-100,4,2,18,40,0,0
63957,-100,4,2,17,80,0,0
64047,-100,4,2,18,40,0,0
64136,-100,4,2,17,80,0,0
64225,-100,4,2,18,40,0,0
64404,-100,4,2,17,80,0,0
64493,-100,4,2,5,80,0,0
64582,-100,4,2,18,40,0,0
64672,-100,4,2,17,80,0,0
64761,-100,4,2,18,40,0,0
64850,-100,4,2,17,80,0,0
65029,-100,4,2,18,40,0,0
65118,-100,4,2,17,80,0,0
65297,-100,4,2,18,40,0,0
65386,-100,4,2,17,80,0,0
66011,-100,4,2,5,80,0,0
66279,-100,4,2,4,70,0,0
69136,-90.9090909090909,4,2,11,70,0,1
69493,-90.9090909090909,4,2,9,70,0,1
74850,-90.9090909090909,4,2,11,70,0,1
75029,-90.9090909090909,4,2,9,70,0,1
79404,-90.9090909090909,4,2,10,70,0,1
79672,-90.9090909090909,4,2,4,70,0,1
80029,-90.9090909090909,4,2,2,70,0,1
80207,-90.9090909090909,4,2,4,70,0,1
80564,-90.9090909090909,4,2,11,70,0,1
80922,-90.9090909090909,4,2,9,70,0,1
86279,-90.9090909090909,4,2,11,70,0,1
86457,-90.9090909090909,4,2,9,70,0,1
89136,-90.9090909090909,4,2,11,70,0,1
89493,-90.9090909090909,4,2,9,70,0,1
91993,-90.9090909090909,4,2,11,70,0,1
92350,-90.9090909090909,4,2,9,70,0,1
93422,-125,4,2,4,70,0,1
94493,-125,4,2,4,90,0,1
94850,-100,4,2,4,60,0,0
98600,-100,4,2,30,60,0,0
98779,-100,4,2,4,60,0,0
100297,-100,4,2,10,60,0,0
100564,-100,4,2,4,60,0,0
106011,-100,4,2,10,60,0,0
106279,-100,4,2,12,60,0,0
107707,-100,4,2,4,60,0,0
107886,-100,4,2,12,60,0,0
108779,-100,4,2,4,60,0,0
108957,-100,4,2,12,60,0,0
109136,-100,4,2,4,60,0,0
111725,-100,4,2,5,60,0,0
112350,-100,4,2,4,60,0,0
112707,-100,4,2,9,60,0,0
117529,-100,4,2,7,60,0,0
117707,-100,4,2,4,60,0,0
118422,-100,4,2,9,60,0,0
128779,-100,4,2,5,60,0,0
129136,-100,4,2,11,60,0,0
129314,-100,4,2,9,60,0,0
130564,-100,4,2,20,60,0,0
130743,-100,4,2,9,60,0,0
131993,-100,4,2,11,60,0,0
132172,-100,4,2,9,60,0,0
134493,-100,4,2,4,60,0,0
134850,-100,4,2,11,60,0,0
135029,-100,4,2,9,60,0,0
136279,-100,4,2,20,60,0,0
136457,-100,4,2,9,60,0,0
137707,-100,4,2,11,60,0,0
138064,-100,4,2,9,60,0,0
139493,-100,4,2,4,60,0,0
140207,-100,4,2,5,60,0,0
140564,-100,4,2,4,60,0,0
140922,-100,4,2,9,60,0,0
143422,-100,4,2,4,60,0,0
146636,-100,4,2,4,30,0,0
146993,-100,4,2,9,40,0,0
147350,-100,4,2,9,50,0,0
147707,-100,4,2,9,60,0,0
149136,-100,4,2,4,60,0,0
151636,-100,4,2,4,20,0,0
151993,-90.9090909090909,4,2,11,70,0,1
152350,-90.9090909090909,4,2,9,70,0,1
157707,-90.9090909090909,4,2,11,70,0,1
158064,-90.9090909090909,4,2,9,70,0,1
162529,-90.9090909090909,4,2,4,70,0,1
163422,-90.9090909090909,4,2,11,70,0,1
163779,-90.9090909090909,4,2,9,70,0,1
169136,-90.9090909090909,4,2,11,70,0,1
169493,-90.9090909090909,4,2,9,70,0,1
171100,-90.9090909090909,4,2,30,70,0,1
171145,-90.9090909090909,4,2,9,70,0,1
171993,-90.9090909090909,4,2,11,70,0,1
172350,-90.9090909090909,4,2,9,70,0,1
174850,-90.9090909090909,4,2,4,70,0,1
175207,-90.9090909090909,4,2,9,70,0,1
176279,-125,4,2,4,70,0,1
176368,-125,4,2,4,90,0,1
177707,-111.111111111111,4,2,14,60,0,0
178422,-111.111111111111,4,2,4,60,0,0
178779,-111.111111111111,4,2,14,60,0,0
179850,-111.111111111111,4,2,5,60,0,0
180386,-111.111111111111,4,2,14,60,0,0
180743,-111.111111111111,4,2,4,60,0,0
181636,-111.111111111111,4,2,14,60,0,0
182172,-111.111111111111,4,2,4,70,0,0
183064,-111.111111111111,4,2,5,70,0,0
183422,-111.111111111111,4,2,4,70,0,0
188422,-111.111111111111,4,2,15,70,0,1
188466,-111.111111111111,4,2,4,20,0,0
188689,-111.111111111111,4,2,15,70,0,1
188734,-111.111111111111,4,2,4,20,0,0
188957,-111.111111111111,4,2,15,70,0,1
189002,-111.111111111111,4,2,4,20,0,0
189136,-100,4,2,16,60,0,0
200029,-100,4,2,5,60,0,0
200564,-100,4,2,16,60,0,0
211725,-100,4,2,5,60,0,0
211993,-83.3333333333333,4,2,16,70,0,0
216993,-83.3333333333333,4,3,0,70,0,0
217231,-83.3333333333333,4,2,5,70,0,0
217707,-125,4,2,16,60,0,0
219850,-100,4,2,4,70,0,0
221993,-125,4,2,4,70,0,0
222707,-125,4,2,4,30,0,0
223422,-125,4,2,1,50,0,0
224850,-166.666666666667,4,2,1,50,0,0
233422,-100,4,2,2,60,0,0
233466,-100,4,2,2,20,0,0
233957,-100,4,2,2,60,0,0
234002,-100,4,2,2,20,0,0
234850,-83.3333333333333,4,2,11,80,0,1
235207,-83.3333333333333,4,2,9,80,0,1
240564,-83.3333333333333,4,2,11,80,0,1
240743,-83.3333333333333,4,2,9,80,0,1
242529,-83.3333333333333,4,2,30,80,0,1
242573,-83.3333333333333,4,2,9,80,0,1
243422,-83.3333333333333,4,2,11,80,0,1
243600,-83.3333333333333,4,2,9,80,0,1
246279,-83.3333333333333,4,2,11,80,0,1
246636,-83.3333333333333,4,2,9,80,0,1
247707,-83.3333333333333,4,2,4,80,0,1
248779,-166.666666666667,4,2,15,80,0,1
249136,-100,4,2,4,70,0,0
254136,-100,4,2,9,70,0,0
254850,-100,4,2,4,70,0,0
260564,-83.3333333333333,4,2,4,70,0,0
265564,-83.3333333333333,4,2,5,70,0,0
265922,-83.3333333333333,4,2,4,70,0,0
268422,-83.3333333333333,4,2,5,70,0,0
268511,-83.3333333333333,4,2,4,70,0,0
269850,-83.3333333333333,4,2,1,60,0,0
270564,-83.3333333333333,4,2,1,50,0,0
271279,-83.3333333333333,4,2,1,40,0,0
271993,-83.3333333333333,4,2,1,30,0,0
272707,-83.3333333333333,4,2,1,20,0,0
273422,-83.3333333333333,4,2,1,10,0,0
273779,-83.3333333333333,4,2,1,5,0,0

[Colours]
Combo1 : 64,0,128
Combo2 : 211,168,255

[HitObjects]
212,277,565,6,0,P|217:297|222:318,1,42.5,2|0,0:0|0:0,0:0:0:0:
299,171,922,2,0,P|293:191|288:212,1,42.5,2|0,0:0|0:0,0:0:0:0:
212,65,1279,2,0,P|217:85|222:106,1,42.5,2|0,0:0|0:0,0:0:0:0:
316,179,1636,2,0,P|310:199|305:220,1,42.5,2|0,0:0|0:0,0:0:0:0:
222,318,1993,6,0,L|180:310,1,42.5,2|0,0:0|0:0,0:0:0:0:
62,253,2350,2,0,L|103:245,1,42.5,2|0,0:0|0:0,0:0:0:0:
316,179,2707,2,0,L|274:171,1,42.5,2|0,0:0|0:0,0:0:0:0:
75,81,3064,2,0,L|116:73,1,42.5,2|0,0:0|0:0,0:0:0:0:
286,26,3422,6,0,P|284:47|281:68,1,42.5,2|0,0:0|0:0,0:0:0:0:
316,179,3779,2,0,P|332:165|349:152,1,42.5,2|0,0:0|0:0,0:0:0:0:
262,281,4136,2,0,P|283:283|304:285,1,42.5,2|0,0:0|0:0,0:0:0:0:
338,139,4493,2,0,P|321:152|304:165,1,42.5,2|0,0:0|0:0,0:0:0:0:
408,364,4850,6,0,L|417:322,1,42.5,2|0,0:0|0:0,0:0:0:0:
313,243,5207,2,0,L|303:284,1,42.5,2|0,0:0|0:0,0:0:0:0:
499,208,5564,1,0,3:0:0:0:
474,84,5743,1,0,3:0:0:0:
474,84,5832,1,0,3:0:0:0:
473,84,5922,6,0,P|451:29|391:35,1,127.5,8|0,0:0|0:0,0:0:0:0:
379,44,6279,6,0,P|315:52|252:48,1,127.500004863739,6|2,0:0|0:0,0:0:0:0:
98,125,6814,1,0,0:0:0:0:
161,11,6993,2,0,P|166:43|170:74,1,63.7500024318696,2|0,0:0|0:0,0:0:0:0:
244,193,7350,2,0,P|247:161|253:130,1,63.7500024318696,2|0,0:0|0:0,0:0:0:0:
379,44,7707,5,2,0:0:0:0:
379,44,7886,1,0,0:0:0:0:
483,144,8064,2,0,L|419:140,1,63.7500024318696,2|2,0:0|0:0,0:0:0:0:
403,139,8332,1,2,0:0:0:0:
387,137,8422,2,0,P|375:167|371:199,1,63.7500024318696,2|0,0:0|0:0,0:0:0:0:
414,352,8779,1,0,0:0:0:0:
460,228,8957,1,2,0:0:0:0:
301,300,9136,6,0,P|241:320|177:323,1,127.500004863739,0|2,0:0|0:0,0:0:0:0:
33,349,9672,1,0,0:0:0:0:
138,246,9850,2,0,P|139:278|134:310,1,63.7500024318696,2|0,0:0|0:0,0:0:0:0:
28,222,10207,2,0,P|27:190|32:158,1,63.7500024318696,2|0,0:0|0:0,0:0:0:0:
86,33,10564,6,0,B|245:4|166:113|324:77,1,255.000009727478,8|0,0:0|0:0,0:0:0:0:
463,38,11457,6,0,L|470:18,2,21.25,2|0|2,0:0|0:0|0:0,0:0:0:0:
425,137,11636,1,8,0:0:0:0:
425,137,11993,6,0,L|434:221,1,85,6|0,0:0|0:0,0:0:0:0:
332,354,12350,2,0,P|344:313|340:271,1,85,8|0,0:0|0:0,0:0:0:0:
327,254,12618,1,8,0:0:0:0:
311,240,12707,2,0,L|226:251,1,85,2|2,0:0|0:0,0:0:0:0:
93,182,13064,2,0,P|80:222|84:264,1,85,8|0,0:0|0:0,0:0:0:0:
240,122,13422,5,2,0:0:0:0:
147,26,13600,1,2,0:0:0:0:
147,26,13689,1,0,0:0:0:0:
147,26,13779,2,0,L|62:35,1,85,8|0,0:0|0:0,0:0:0:0:
84,264,14136,1,2,0:0:0:0:
240,122,14314,1,2,0:0:0:0:
293,241,14493,1,8,0:0:0:0:
110,137,14672,1,0,0:0:0:0:
196,327,14850,6,0,P|209:286|209:244,1,85,2|0,0:0|0:0,0:0:0:0:
123,55,15207,5,8,0:0:0:0:
115,74,15297,1,0,0:0:0:0:
110,95,15386,1,0,0:0:0:0:
109,116,15475,1,8,0:0:0:0:
110,137,15564,2,0,L|151:144,1,42.5,2|0,0:0|0:0,0:0:0:0:
209,245,15743,2,0,L|250:237,1,42.5,2|0,0:0|0:0,0:0:0:0:
350,163,15922,2,0,L|353:120,3,42.5,8|0|0|0,0:0|0:0|0:0|0:0,0:0:0:0:
363,263,16279,5,2,0:0:0:0:
388,286,16368,1,0,0:0:0:0:
423,294,16457,1,2,0:0:0:0:
456,284,16547,1,0,0:0:0:0:
481,259,16636,1,8,0:0:0:0:
490,226,16725,1,0,0:0:0:0:
482,192,16814,2,0,L|485:149,1,42.5,0|8,0:0|0:0,0:0:0:0:
487,49,16993,5,2,0:0:0:0:
454,42,17082,1,8,0:0:0:0:
420,43,17172,1,2,0:0:0:0:
388,55,17261,1,0,0:0:0:0:
362,77,17350,1,8,0:0:0:0:
334,98,17439,1,0,0:0:0:0:
303,109,17529,1,0,0:0:0:0:
269,112,17618,1,0,0:0:0:0:
236,103,17707,6,0,P|224:62|220:19,1,85,6|0,0:0|0:0,0:0:0:0:
364,173,18064,2,0,P|360:215|348:256,1,85,8|0,0:0|0:0,0:0:0:0:
335,273,18332,1,8,0:0:0:0:
317,285,18422,6,0,L|232:275,1,85,6|2,0:0|0:0,0:0:0:0:
213,271,18689,1,4,0:0:0:0:
192,267,18779,1,8,0:0:0:0:
27,126,18957,2,0,L|24:168,1,42.5,4|0,0:0|0:0,0:0:0:0:
21,210,19136,6,0,L|104:195,1,85,6|2,0:0|0:0,0:0:0:0:
124,191,19404,1,4,0:0:0:0:
145,187,19493,1,8,0:0:0:0:
311,51,19672,2,0,L|314:93,1,42.5,4|0,0:0|0:0,0:0:0:0:
317,135,19850,6,0,L|234:120,1,85,6|2,0:0|0:0,0:0:0:0:
214,116,20118,1,0,0:0:0:0:
193,112,20207,1,12,0:0:0:0:
232,275,20386,1,4,0:0:0:0:
21,210,20564,6,0,L|27:125,1,85,2|2,0:0|0:0,0:0:0:0:
146,35,20922,1,8,0:0:0:0:
317,135,21100,1,0,0:0:0:0:
317,135,21189,1,8,0:0:0:0:
317,135,21279,1,2,0:0:0:0:
185,207,21457,1,2,0:0:0:0:
311,51,21636,1,8,0:0:0:0:
383,238,21814,1,0,0:0:0:0:
185,207,21993,6,0,P|145:192|102:188,2,85,2|0|8,0:0|0:0|0:0,0:0:0:0:
289,342,22529,1,0,0:0:0:0:
289,342,22618,1,8,0:0:0:0:
289,342,22707,2,0,L|374:331,1,85,8|8,0:0|0:0,0:0:0:0:
404,313,22975,1,8,0:0:0:0:
426,286,23064,1,8,0:0:0:0:
436,252,23154,1,2,0:0:0:0:
432,217,23243,1,4,0:0:0:0:
416,186,23332,1,0,0:0:0:0:
389,164,23422,5,4,0:0:0:0:
125,93,34850,6,0,P|202:86|216:162,1,170,12|8,0:0|0:0,0:0:0:0:
152,310,35386,1,0,0:0:0:0:
101,220,35564,2,0,P|59:227|16:227,1,85,10|0,0:0|0:0,0:0:0:0:
254,290,35922,2,0,P|295:282|338:282,1,85,8|0,0:0|0:0,0:0:0:0:
326,122,36279,6,0,P|380:184|463:188,1,170,10|10,0:0|0:0,0:0:0:0:
477,27,36814,2,0,P|447:57|424:93,1,85,2|8,0:0|0:0,0:0:0:0:
339,206,37172,2,0,L|326:122,1,85,2|8,0:0|0:0,0:0:0:0:
463,188,37529,1,2,0:0:0:0:
438,344,37707,6,0,B|380:312|380:312|277:331,1,170,8|8,0:0|0:0,0:0:0:0:
97,214,38243,1,2,0:0:0:0:
97,361,38422,2,0,P|130:333|154:298,1,85,10|0,0:0|0:0,0:0:0:0:
80,130,38779,2,0,L|96:213,1,85,8|0,0:0|0:0,0:0:0:0:
278,332,39136,5,8,0:0:0:0:
245,207,39314,1,0,0:0:0:0:
154,298,39493,1,8,0:0:0:0:
278,332,39672,5,0,0:0:0:0:
342,175,39850,1,8,0:0:0:0:
185,111,40029,1,2,0:0:0:0:
121,268,40207,2,0,L|205:256,1,85,10|2,0:0|0:0,0:0:0:0:
428,238,40564,6,0,P|364:234|308:205,1,127.5,8|0,0:0|0:0,0:0:0:0:
294,192,40922,2,0,L|300:107,1,85,10|0,0:0|0:0,0:0:0:0:
205,256,41279,1,10,0:0:0:0:
398,256,41457,2,0,P|413:294|402:334,1,85,2|8,0:0|0:0,0:0:0:0:
458,110,41814,6,0,P|378:136|300:106,1,170,2|0,0:0|0:0,0:0:0:0:
205,256,42350,2,0,L|188:86,1,170,8|8,0:0|0:0,0:0:0:0:
93,183,42886,1,2,0:0:0:0:
300,106,43064,1,10,0:0:0:0:
158,41,43243,1,2,0:0:0:0:
320,113,43422,6,0,P|363:111|405:104,1,85,8|0,0:0|0:0,0:0:0:0:
504,232,43779,2,0,P|461:233|419:240,1,85,10|0,0:0|0:0,0:0:0:0:
323,360,44136,1,10,0:0:0:0:
239,157,44314,2,0,L|230:241,1,85,2|8,0:0|0:0,0:0:0:0:
91,366,44672,6,0,L|77:239,1,127.5,2|0,0:0|0:0,0:0:0:0:
75,220,45029,1,2,0:0:0:0:
16,65,45207,2,0,B|78:80|78:80|117:56|117:56|175:72,1,170,10|8,0:0|0:0,0:0:0:0:
230,240,45743,1,8,0:0:0:0:
392,33,45922,2,0,L|381:74,1,42.5,8|8,0:0|0:0,0:0:0:0:
279,105,46100,2,0,L|289:146,1,42.5,2|4,0:0|0:0,0:0:0:0:
382,218,46279,5,14,0:0:0:0:
229,239,46457,2,0,P|189:225|153:204,1,85,0|2,0:0|0:0,0:0:0:0:
290,354,46814,1,8,0:0:0:0:
290,354,46993,2,0,P|326:332|366:318,1,85,2|0,0:0|0:0,0:0:0:0:
503,341,47350,1,10,0:0:0:0:
382,218,47529,1,8,0:0:0:0:
382,218,47618,1,8,0:0:0:0:
382,218,47707,5,10,0:0:0:0:
477,83,47886,1,0,0:0:0:0:
382,218,48064,2,0,L|370:133,1,85,2|8,0:0|0:0,0:0:0:0:
204,32,48422,2,0,P|245:23|286:33,1,85,2|0,0:0|0:0,0:0:0:0:
155,150,48779,2,0,P|113:158|72:148,1,85,10|8,0:0|0:0,0:0:0:0:
53,140,49047,1,8,0:0:0:0:
40,125,49136,5,6,0:0:0:0:
87,278,49314,1,0,0:0:0:0:
155,150,49493,1,2,0:0:0:0:
79,314,49672,1,8,0:0:0:0:
40,125,49850,1,2,0:0:0:0:
209,243,50029,2,0,P|252:240|290:222,1,85,4|10,0:3|0:0,0:0:0:0:
388,120,50386,2,0,L|352:97,1,42.5,8|8,0:0|0:0,0:0:0:0:
279,50,50564,1,2,0:0:0:0:
459,165,50743,5,8,0:0:0:0:
209,243,50922,1,10,0:0:0:0:
209,242,51279,2,0,P|197:283|194:326,1,85,10|4,0:0|0:3,0:0:0:0:
194,326,51547,1,4,0:3:0:0:
194,326,51636,1,10,0:0:0:0:
211,129,51814,1,8,0:0:0:0:
211,129,51904,1,8,0:0:0:0:
211,129,51993,5,6,0:0:0:0:
47,59,52172,2,0,L|35:143,1,85,0|2,0:0|0:0,0:0:0:0:
143,273,52529,1,8,0:0:0:0:
143,273,52707,2,0,L|131:188,1,85,2|4,0:0|0:3,0:0:0:0:
34,374,53064,1,2,0:0:0:0:
225,291,53243,1,8,0:0:0:0:
225,291,53332,1,8,0:0:0:0:
225,291,53422,5,10,0:0:0:0:
358,358,53600,1,0,0:0:0:0:
225,291,53779,2,0,L|142:272,1,85,2|8,0:0|0:0,0:0:0:0:
281,133,54136,1,2,0:0:0:0:
328,244,54314,1,8,0:0:0:0:
373,54,54493,1,2,0:0:0:0:
448,233,54672,1,8,0:0:0:0:
281,133,54850,6,0,L|153:142,1,127.5,6|0,0:0|0:0,0:0:0:0:
132,143,55207,1,2,0:0:0:0:
243,250,55386,2,0,L|327:243,1,85,8|2,0:0|0:0,0:0:0:0:
474,115,55743,1,8,0:0:0:0:
373,54,55922,1,2,0:0:0:0:
448,233,56100,1,12,0:0:0:0:
281,133,56279,5,2,0:0:0:0:
474,115,56457,1,8,0:0:0:0:
327,242,56636,2,0,P|324:285|329:327,1,85,10|8,0:0|0:0,0:0:0:0:
359,359,56904,1,4,0:3:0:0:
359,359,56993,1,10,0:0:0:0:
488,221,57172,2,0,L|447:232,1,42.5,8|8,0:0|0:0,0:0:0:0:
327,242,57350,2,0,P|266:223|216:183,1,127.5,6|0,0:0|0:0,0:0:0:0:
199,146,57707,6,0,L|207:61,1,85,6|0,0:0|1:0,0:0:0:0:
208,40,57975,1,8,0:0:0:0:
209,18,58064,2,0,L|167:28,1,42.5,2|0,0:0|0:0,0:0:0:0:
0,69,58243,2,0,L|41:79,1,42.5,8|0,0:0|0:0,0:0:0:0:
127,180,58422,5,2,0:0:0:0:
139,209,58511,1,0,0:0:0:0:
142,240,58600,1,8,0:0:0:0:
135,271,58689,1,0,0:0:0:0:
119,299,58779,2,0,L|77:309,3,42.5,10|0|8|8,0:0|0:0|0:0|0:0,0:0:0:0:
222,339,59136,6,0,P|263:346|304:338,1,85,14|0,0:0|0:0,0:0:0:0:
336,309,59404,1,8,0:0:0:0:
336,309,59493,2,0,L|342:266,1,42.5,4|0,0:0|0:0,0:0:0:0:
244,183,59672,2,0,L|250:225,1,42.5,8|0,0:0|0:0,0:0:0:0:
400,198,59850,6,0,L|406:155,1,42.5,2|0,0:0|0:0,0:0:0:0:
378,32,60029,1,8,0:0:0:0:
337,42,60118,1,8,0:0:0:0:
308,72,60207,2,0,L|314:114,3,42.5,10|8|2|4,0:0|0:0|0:0|0:0,0:0:0:0:
204,72,60564,6,0,L|119:82,1,85,6|0,0:0|0:0,0:0:0:0:
98,85,60832,1,8,0:0:0:0:
76,87,60922,2,0,P|82:107|93:125,1,42.5,4|0,0:0|0:0,0:0:0:0:
175,236,61100,2,0,P|185:217|192:197,1,42.5,8|0,0:0|0:0,0:0:0:0:
308,72,61279,6,0,L|392:82,1,85,2|0,0:0|0:0,0:0:0:0:
414,85,61547,1,8,0:0:0:0:
436,87,61636,2,0,P|429:107|418:125,1,42.5,2|0,0:0|0:0,0:0:0:0:
337,236,61814,2,0,P|326:217|319:197,1,42.5,8|0,0:0|0:0,0:0:0:0:
204,72,61993,6,0,L|197:156,1,85,6|0,0:0|0:0,0:0:0:0:
195,177,62261,1,8,0:0:0:0:
193,198,62350,2,0,L|150:203,1,42.5,2|0,0:0|0:0,0:0:0:0:
47,331,62529,2,0,L|89:325,1,42.5,8|0,0:0|0:0,0:0:0:0:
263,274,62707,5,10,0:0:0:0:
283,299,62797,1,8,0:0:0:0:
289,329,62886,2,0,P|293:349|290:370,1,42.5
193,197,63064,1,8,0:0:0:0:
230,178,63154,1,8,0:0:0:0:
272,173,63243,1,2,0:0:0:0:
313,184,63332,1,4,0:0:0:0:
346,209,63422,6,0,P|387:221|429:214,1,85,6|0,0:0|0:0,0:0:0:0:
462,187,63689,1,8,0:0:0:0:
462,187,63779,2,0,L|456:144,1,42.5,4|0,0:0|0:0,0:0:0:0:
374,9,63957,2,0,L|368:51,1,42.5,8|0,0:0|0:0,0:0:0:0:
266,131,64136,6,0,L|271:173,1,42.5,10|0,0:0|0:0,0:0:0:0:
332,305,64314,1,0,0:0:0:0:
307,338,64404,1,8,0:0:0:0:
269,354,64493,2,0,L|229:336,1,42.5,2|0,0:0|0:0,0:0:0:0:
165,250,64672,2,0,L|125:267,1,42.5,8|0,0:0|0:0,0:0:0:0:
39,334,64850,5,10,0:0:0:0:
14,301,64939,1,8,0:0:0:0:
2,260,65029,1,0,0:0:0:0:
7,218,65118,1,8,0:0:0:0:
26,181,65207,2,0,L|68:178,1,42.5,2|0,0:0|0:0,0:0:0:0:
208,249,65386,2,0,L|165:251,1,42.5,8|8,0:0|0:0,0:0:0:0:
174,84,65564,5,12,0:0:0:0:
174,84,65654,1,8,0:0:0:0:
174,84,65743,2,0,L|176:126,1,42.5,8|4,0:3|0:3,0:0:0:0:
292,263,65922,1,8,0:0:0:0:
331,248,66011,1,8,0:0:0:0:
361,218,66100,1,2,0:0:0:0:
375,179,66189,1,8,0:3:0:0:
371,136,66279,5,12,0:0:0:0:
276,348,66457,1,2,0:0:0:0:
140,159,66636,1,2,0:0:0:0:
394,249,66814,6,0,L|478:240,1,85,12|2,0:0|0:0,0:0:0:0:
250,94,67172,1,2,0:0:0:0:
140,275,67350,2,12,L|55:283,1,85,12|2,0:0|0:0,0:0:0:0:
242,10,67707,5,14,0:0:0:0:
443,100,68600,2,0,L|403:114,1,42.5,2|0,0:3|0:0,0:0:0:0:
346,179,68779,2,0,L|307:160,1,42.5,2|0,0:3|0:0,0:0:0:0:
270,73,68957,1,2,0:3:0:0:
440,213,69136,6,0,P|460:279|432:342,1,140.25000428009,14|0,0:0|0:0,0:0:0:0:
413,356,69493,2,0,L|320:344,1,93.5000028533936,12|0,0:0|0:0,0:0:0:0:
134,234,69850,1,6,0:0:0:0:
346,179,70029,1,2,0:0:0:0:
236,354,70207,2,0,P|226:309|234:264,1,93.5000028533936,12|0,0:0|0:0,0:0:0:0:
413,123,70564,6,0,P|347:142|282:119,1,140.25000428009,6|0,0:0|0:0,0:0:0:0:
262,106,70922,2,0,L|268:12,1,93.5000028533936,12|2,0:0|0:0,0:0:0:0:
351,194,71279,1,4,0:0:0:0:
149,165,71457,1,2,0:0:0:0:
295,308,71636,1,12,0:0:0:0:
262,106,71814,2,0,L|241:147,1,46.7500014266968,4|0,0:0|0:0,0:0:0:0:
170,289,71993,6,0,P|102:295|56:244,1,140.25000428009,6|0,0:0|0:0,0:0:0:0:
51,223,72350,1,12,0:0:0:0:
240,147,72529,1,4,0:0:0:0:
119,13,72707,2,0,L|135:104,1,93.5000028533936,6|2,0:0|0:0,0:0:0:0:
170,289,73064,1,8,0:0:0:0:
379,161,73243,6,0,L|286:151,1,93.5000028533936,4|2,0:0|0:0,0:0:0:0:
170,289,73600,1,4,0:0:0:0:
325,355,73779,1,12,0:0:0:0:
179,178,73957,1,6,0:0:0:0:
33,355,74136,2,0,P|21:309|19:263,1,93.5000028533936,0|2,0:0|0:0,0:0:0:0:
165,86,74493,2,0,P|176:131|178:177,1,93.5000028533936,8|0,0:0|0:0,0:0:0:0:
179,178,74761,1,8,0:0:0:0:
179,178,74850,5,14,0:0:0:0:
301,39,75029,1,0,0:0:0:0:
287,225,75207,1,12,0:0:0:0:
165,86,75386,1,0,0:0:0:0:
179,272,75564,2,0,L|186:365,1,93.5000028533936,6|2,0:0|0:0,0:0:0:0:
287,225,75922,1,12,0:0:0:0:
93,145,76100,1,4,0:0:0:0:
237,27,76279,5,2,0:0:0:0:
286,224,76457,2,0,P|333:231|379:224,1,93.5000028533936,4|8,0:0|0:0,0:0:0:0:
186,365,76814,2,0,P|139:358|93:365,1,93.5000028533936,6|0,0:0|0:0,0:0:0:0:
179,178,77172,1,6,0:0:0:0:
303,324,77350,1,12,0:0:0:0:
387,128,77529,1,4,0:0:0:0:
301,339,77707,6,0,B|287:275|287:275|313:225|313:225|301:160,1,187.000005706787,2|8,0:0|0:0,0:0:0:0:
114,82,78243,1,0,0:0:0:0:
114,82,78332,1,8,0:0:0:0:
114,82,78422,2,0,P|67:82|22:69,1,93.5000028533936,2|2,0:0|0:0,0:0:0:0:
177,253,78779,2,0,L|187:160,1,93.5000028533936,8|0,0:0|0:0,0:0:0:0:
273,20,79136,6,0,L|284:65,1,46.7500014266968,4|8,0:3|0:3,0:0:0:0:
318,201,79314,1,8,0:0:0:0:
323,223,79404,1,8,0:0:0:0:
329,246,79493,1,2,0:0:0:0:
414,105,79672,5,6,0:0:0:0:
188,161,79850,1,0,3:0:0:0:
273,20,80029,1,10,0:0:0:0:
318,201,80207,1,8,0:0:0:0:
329,246,80297,1,8,0:0:0:0:
340,291,80386,1,8,0:0:0:0:
351,336,80475,1,8,0:0:0:0:
362,381,80564,6,0,P|417:341|431:274,1,140.25000428009,14|0,0:0|0:0,0:0:0:0:
421,252,80922,2,0,L|328:245,1,93.5000028533936,12|0,0:0|0:0,0:0:0:0:
154,266,81279,2,0,P|194:288|227:321,1,93.5000028533936,6|2,0:0|0:0,0:0:0:0:
34,248,81636,1,12,0:0:0:0:
189,158,81814,1,0,0:0:0:0:
22,254,81993,6,0,P|6:186|17:117,1,140.25000428009,6|0,0:0|0:0,0:0:0:0:
31,98,82350,2,0,P|76:106|123:102,1,93.5000028533936,12|2,0:0|0:0,0:0:0:0:
207,244,82707,2,0,L|231:145,1,93.5000028533936,4|2,0:0|0:0,0:0:0:0:
427,186,83064,2,0,P|382:170|345:143,1,93.5000028533936,12|0,0:0|0:0,0:0:0:0:
262,16,83422,6,0,L|228:152,1,140.25000428009,6|0,0:0|0:0,0:0:0:0:
207,244,83779,2,0,P|200:197|187:152,1,93.5000028533936,12|4,0:0|0:0,0:0:0:0:
39,79,84136,1,6,0:0:0:0:
187,152,84314,1,2,0:0:0:0:
30,190,84493,1,8,0:0:0:0:
196,41,84672,6,0,L|286:62,1,93.5000028533936,4|2,0:0|0:0,0:0:0:0:
442,60,85029,1,4,0:0:0:0:
315,142,85207,1,12,0:0:0:0:
450,211,85386,1,6,0:0:0:0:
376,343,85564,2,0,P|356:300|358:254,1,93.5000028533936,0|2,0:0|0:0,0:0:0:0:
441,60,85922,2,0,P|386:99|319:87,1,140.25000428009,8|0,0:0|0:0,0:0:0:0:
286,62,86279,5,14,0:0:0:0:
104,136,86457,1,0,0:0:0:0:
261,256,86636,2,0,B|276:212|276:212|261:167,1,93.5000028533936,12|0,0:0|0:0,0:0:0:0:
104,47,86993,2,0,B|89:91|89:91|103:135,1,93.5000028533936,6|2,0:0|0:0,0:0:0:0:
113,339,87350,1,12,0:0:0:0:
195,211,87529,1,4,0:0:0:0:
356,369,87707,6,0,P|436:338|420:253,1,187.000005706787,6|8,0:0|0:0,0:0:0:0:
298,102,88243,1,2,0:0:0:0:
195,211,88422,2,0,L|296:227,1,93.5000028533936,0|2,0:0|0:0,0:0:0:0:
483,147,88779,2,0,L|390:132,1,93.5000028533936,8|2,0:0|0:3,0:0:0:0:
391,133,89047,1,8,0:0:0:0:
391,133,89136,5,14,0:0:0:0:
287,225,89314,1,0,0:0:0:0:
194,11,89493,1,12,0:0:0:0:
298,102,89672,1,0,0:0:0:0:
71,126,89850,2,0,P|48:86|35:41,1,93.5000028533936,6|2,0:0|0:0,0:0:0:0:
87,285,90207,1,12,0:0:0:0:
237,238,90386,1,4,0:0:0:0:
44,216,90564,6,0,P|7:296|64:364,1,187.000005706787,6|8,0:0|0:0,0:0:0:0:
176,176,91100,1,2,0:0:0:0:
71,126,91279,1,4,0:0:0:0:
185,291,91457,1,6,0:0:0:0:
271,110,91636,1,8,0:0:0:0:
176,176,91814,1,12,0:0:0:0:
176,176,91904,1,8,0:0:0:0:
176,176,91993,6,0,L|268:190,1,93.5000028533936,6|0,0:0|0:0,0:0:0:0:
185,291,92350,1,14,0:0:0:0:
271,110,92529,1,10,0:0:0:0:
360,300,92707,1,14,0:0:0:0:
256,82,92886,1,10,0:0:0:0:
151,308,93064,1,14,0:0:0:0:
271,54,93243,1,14,0:0:0:0:
376,334,93422,5,14,0:0:0:0:
480,84,94493,1,10,0:0:0:0:
480,84,94850,6,0,P|437:88|395:88,1,85,6|2,0:0|0:0,0:0:0:0:
215,28,95207,2,0,P|257:23|299:23,1,85,8|0,0:0|0:0,0:0:0:0:
419,220,95564,1,8,0:0:0:0:
312,111,95743,1,2,0:0:0:0:
266,278,95922,1,8,0:0:0:0:
227,130,96100,1,2,0:0:0:0:
103,250,96279,6,0,P|88:290|89:332,1,85,10|0,0:0|0:0,0:0:0:0:
266,278,96636,2,0,P|280:238|279:196,1,85,8|2,0:0|0:0,0:0:0:0:
87,76,96993,1,8,0:0:0:0:
227,130,97172,1,2,0:0:0:0:
33,213,97350,1,8,0:0:0:0:
183,215,97529,1,2,0:0:0:0:
29,359,97707,5,10,0:0:0:0:
109,151,97886,1,2,0:0:0:0:
176,318,98064,1,8,0:0:0:0:
96,110,98243,1,2,0:0:0:0:
29,277,98422,2,0,B|93:271|93:271|131:295|131:295|191:286,1,170,8|8,0:0|0:0,0:0:0:0:
342,170,98957,1,2,0:0:0:0:
227,130,99136,5,8,0:0:0:0:
364,289,99314,1,2,0:0:0:0:
434,89,99493,2,0,P|404:120|381:156,1,85,8|2,0:0|0:0,0:0:0:0:
435,329,99850,1,8,0:0:0:0:
405,299,99939,1,8,0:0:0:0:
364,289,100029,1,4,0:3:0:0:
324,300,100118,1,8,0:3:0:0:
294,331,100207,2,0,L|280:291,1,42.5,8|8,0:0|0:0,0:0:0:0:
199,188,100386,2,0,L|184:227,1,42.5,2|4,0:0|0:0,0:0:0:0:
72,311,100564,6,0,L|156:320,1,85,14|0,0:0|0:0,0:0:0:0:
283,197,100922,2,0,L|198:187,1,85,8|2,0:0|0:0,0:0:0:0:
61,332,101279,2,0,L|145:341,1,85,8|2,0:0|0:0,0:0:0:0:
294,176,101636,2,0,L|209:166,1,85,8|2,0:0|0:0,0:0:0:0:
248,358,101993,6,0,P|265:320|266:278,1,85,12|2,0:0|0:0,0:0:0:0:
106,149,102350,2,0,P|88:187|87:229,1,85,8|2,0:0|0:0,0:0:0:0:
263,365,102707,2,0,P|280:326|281:284,1,85,8|2,0:0|0:0,0:0:0:0:
91,142,103064,2,0,P|73:180|72:222,1,85,8|2,0:0|0:0,0:0:0:0:
307,64,103422,5,6,0:0:0:0:
209,166,103600,1,0,0:0:0:0:
347,200,103779,1,8,0:0:0:0:
169,30,103957,1,2,0:0:0:0:
209,166,104136,1,8,0:0:0:0:
445,98,104314,1,2,0:0:0:0:
249,302,104493,1,8,0:0:0:0:
307,64,104672,1,2,0:0:0:0:
71,132,104850,6,0,P|57:91|50:49,1,85,6|2,0:0|0:0,0:0:0:0:
269,219,105207,2,0,P|262:260|248:301,1,85,8|0,0:0|0:0,0:0:0:0:
26,243,105564,1,8,0:0:0:0:
66,210,105654,1,8,0:0:0:0:
118,209,105743,1,4,0:3:0:0:
159,242,105832,1,8,0:3:0:0:
171,293,105922,1,8,0:0:0:0:
183,344,106011,1,8,0:0:0:0:
224,377,106100,1,2,0:0:0:0:
276,376,106189,1,4,0:0:0:0:
316,343,106279,5,14,3:2:0:0:
248,300,106814,1,10,3:2:0:0:
250,219,107350,2,0,P|254:176|264:135,1,85,10|0,3:2|3:2,0:0:0:0:
371,11,107707,5,8,3:2:0:0:
490,89,107886,2,0,B|396:49|418:118|325:81,1,170,10|0,3:2|3:2,0:0:0:0:
186,27,108422,1,10,3:2:0:0:
179,20,108779,2,0,L|170:61,1,42.5,8|8,3:2|3:2,0:0:0:0:
153,144,108957,1,0,3:2:0:0:
33,49,109136,6,0,P|57:129|59:214,1,170,6|8,0:0|0:0,0:0:0:0:
184,265,109672,1,2,0:0:0:0:
15,352,109850,2,0,P|51:331|93:332,1,85,0|2,0:0|0:0,0:0:0:0:
121,357,110118,1,2,0:0:0:0:
121,357,110207,2,0,L|205:355,1,85,8|0,0:0|0:0,0:0:0:0:
437,300,110564,5,6,3:2:0:0:
436,268,110654,1,0,3:2:0:0:
422,240,110743,1,8,3:2:0:0:
396,222,110832,1,0,3:2:0:0:
364,218,110922,1,0,3:2:0:0:
335,230,111011,1,0,3:2:0:0:
314,253,111100,1,2,3:2:0:0:
306,284,111189,1,0,3:2:0:0:
314,315,111279,2,0,L|356:310,1,42.5,8|0,3:2|3:2,0:0:0:0:
228,195,111457,5,0,3:2:0:0:
199,198,111547,1,8,3:2:0:0:
171,201,111636,1,8,3:2:0:0:
143,204,111725,1,8,3:2:0:0:
115,208,111814,1,8,3:2:0:0:
87,211,111904,1,4,3:2:0:0:
59,214,111993,1,4,3:2:0:0:
59,214,112350,6,0,P|24:144|85:94,1,170,14|4,0:0|0:0,0:0:0:0:
177,18,112886,2,0,L|194:101,1,85,6|8,0:0|0:0,0:0:0:0:
285,191,113243,2,0,L|302:108,1,85,4|2,0:0|0:0,0:0:0:0:
161,224,113600,5,0,0:0:0:0:
333,288,113779,1,8,0:0:0:0:
235,369,113957,2,0,L|218:286,1,85,0|2,0:0|0:0,0:0:0:0:
302,107,114314,1,6,0:0:0:0:
333,288,114493,1,12,0:0:0:0:
161,224,114672,2,0,L|244:207,1,85,4|2,0:0|0:0,0:0:0:0:
275,198,115207,6,0,L|106:177,1,170,12|4,0:0|0:0,0:0:0:0:
24,344,115743,2,0,P|51:311|89:292,1,85,6|8,0:0|0:0,0:0:0:0:
106,177,116100,2,0,P|147:183|182:207,1,85,4|2,0:0|0:0,0:0:0:0:
306,322,116457,6,0,L|291:238,1,85,4|8,0:0|0:0,0:0:0:0:
327,115,116814,1,4,0:0:0:0:
161,69,116993,1,2,0:0:0:0:
292,17,117172,1,12,0:0:0:0:
292,17,117261,1,0,0:0:0:0:
292,17,117350,1,8,0:0:0:0:
421,72,117529,1,8,0:0:0:0:
290,237,117707,6,0,P|286:195|288:153,1,85,6|0,0:0|0:0,0:0:0:0:
288,153,117975,1,0,0:0:0:0:
288,153,118064,1,8,0:0:0:0:
180,191,118243,1,0,0:0:0:0:
375,252,118422,2,0,P|326:318|245:311,1,170,6|8,0:0|0:0,0:0:0:0:
92,348,118957,1,0,0:0:0:0:
180,191,119136,6,0,P|183:233|180:275,1,85,6|0,0:0|0:0,0:0:0:0:
228,102,119493,1,12,0:0:0:0:
84,169,119672,2,0,P|81:126|84:84,1,85,4|2,0:0|0:0,0:0:0:0:
227,17,120029,2,0,P|230:59|227:101,1,85,4|8,0:0|0:0,0:0:0:0:
314,187,120386,1,4,0:0:0:0:
180,275,120564,6,0,B|234:267|234:267|290:295|290:295|342:287,1,170,2|8,0:0|0:0,0:0:0:0:
485,296,121100,1,4,0:0:0:0:
417,133,121279,2,0,P|407:174|406:216,1,85,6|0,0:0|0:0,0:0:0:0:
500,29,121636,2,0,P|458:39|416:42,1,85,8|0,0:0|0:0,0:0:0:0:
218,80,121993,6,0,P|259:93|296:113,1,85,2|0,0:0|0:0,0:0:0:0:
296,113,122261,1,0,0:0:0:0:
296,113,122350,1,8,0:0:0:0:
144,242,122529,2,0,P|181:222|222:209,1,85,0|2,0:0|0:0,0:0:0:0:
406,216,122886,1,4,0:0:0:0:
327,346,123064,1,12,0:0:0:0:
284,339,123154,1,8,0:0:0:0:
242,333,123243,2,0,L|199:326,1,42.5,2|0,0:3|0:0,0:0:0:0:
44,353,123422,6,0,P|12:300|32:241,1,127.5,2|0,0:0|0:0,0:0:0:0:
62,217,123779,2,0,L|146:204,1,85,12|0,0:0|0:0,0:0:0:0:
253,222,124136,1,6,0:0:0:0:
80,110,124314,2,0,L|164:97,1,85,4|8,0:0|0:0,0:0:0:0:
381,75,124672,1,4,0:0:0:0:
264,29,124850,6,0,P|256:71|262:113,1,85,2|0,0:0|0:0,0:0:0:0:
261,112,125118,1,0,0:0:0:0:
261,112,125207,1,8,0:0:0:0:
352,244,125386,2,0,P|360:202|354:160,1,85,0|2,0:0|0:0,0:0:0:0:
422,344,125743,1,4,0:0:0:0:
486,198,125922,1,12,0:0:0:0:
486,198,126100,1,4,0:0:0:0:
422,344,126279,6,0,L|337:333,1,85,2|0,0:0|0:0,0:0:0:0:
199,221,126636,2,0,L|283:210,1,85,12|0,0:0|0:0,0:0:0:0:
166,362,126993,1,6,0:0:0:0:
19,268,127172,2,0,P|12:223|30:186,1,85,4|8,0:0|0:0,0:0:0:0:
143,35,127529,6,0,L|153:119,1,85,4|2,0:0|0:0,0:0:0:0:
171,258,127886,1,4,0:0:0:0:
171,258,127975,1,0,0:0:0:0:
171,258,128064,1,12,0:0:0:0:
243,153,128243,1,0,0:0:0:0:
66,186,128422,1,2,0:0:0:0:
99,363,128600,6,0,L|140:355,1,42.5,8|8,0:0|0:0,0:0:0:0:
276,330,128779,1,8,0:0:0:0:
311,306,128868,1,8,0:0:0:0:
333,270,128957,1,4,0:0:0:0:
338,228,129047,1,4,0:0:0:0:
325,188,129136,5,14,3:2:0:0:
458,245,129314,1,4,0:0:0:0:
382,56,129493,1,10,3:2:0:0:
325,188,129672,1,4,0:0:0:0:
193,132,129850,1,6,3:2:0:0:
269,321,130029,1,0,0:0:0:0:
325,188,130207,1,12,3:2:0:0:
136,264,130386,6,0,P|73:211|86:131,1,170,6|6,0:0|0:0,0:0:0:0:
227,12,130922,2,0,P|224:54|209:93,1,85,12|0,3:2|0:0,0:0:0:0:
193,132,131189,1,8,0:0:0:0:
193,132,131279,2,0,L|277:121,1,85,6|2,3:2|0:0,0:0:0:0:
444,207,131636,2,0,L|359:217,1,85,12|0,3:2|0:0,0:0:0:0:
216,244,131993,5,14,3:2:0:0:
277,121,132172,1,0,0:0:0:0:
420,340,132350,1,14,3:2:0:0:
359,217,132529,1,0,0:0:0:0:
155,367,132707,1,6,3:2:0:0:
48,213,132886,2,0,L|132:206,1,85,4|8,0:0|3:2,0:0:0:0:
257,292,133243,1,6,0:0:0:0:
277,121,133422,5,0,3:2:0:0:
122,122,133600,2,0,P|120:165|132:205,1,85,2|8,0:0|3:2,0:0:0:0:
252,335,133957,1,0,0:0:0:0:
254,313,134047,1,8,0:0:0:0:
257,292,134136,1,6,3:2:0:0:
353,174,134314,2,0,L|358:216,1,42.5,2|0,0:0|0:0,0:0:0:0:
236,150,134493,2,0,P|228:110|245:71,1,85,12|0,0:0|0:0,0:0:0:0:
460,57,134850,5,14,3:2:0:0:
333,84,135029,1,4,0:0:0:0:
477,215,135207,1,10,3:2:0:0:
353,174,135386,1,4,0:0:0:0:
412,359,135564,1,6,3:2:0:0:
325,261,135743,1,0,0:0:0:0:
477,215,135922,1,14,3:2:0:0:
285,265,136100,6,0,P|220:215|229:134,1,170,6|6,0:0|0:0,0:0:0:0:
153,302,136636,2,0,P|125:334|91:360,1,85,12|0,3:2|0:0,0:0:0:0:
91,360,136904,1,8,0:0:0:0:
91,360,136993,1,6,3:2:0:0:
114,185,137172,1,6,0:0:0:0:
285,265,137350,2,0,P|325:278|367:283,1,85,12|4,3:2|0:0,0:0:0:0:
512,149,137707,6,0,L|342:160,1,170,6|10,3:2|3:2,0:0:0:0:
149,112,138243,1,4,0:0:0:0:
149,112,138332,1,8,0:0:0:0:
149,111,138422,2,0,P|122:143|113:184,1,85,2|2,3:2|0:0,0:0:0:0:
178,331,138779,1,12,3:2:0:0:
28,189,138957,1,2,0:0:0:0:
224,190,139136,5,0,3:2:0:0:
224,190,139314,1,2,0:0:0:0:
94,299,139493,2,0,P|86:254|102:214,1,85,12|2,0:0|0:0,0:0:0:0:
288,243,139850,1,8,0:0:0:0:
255,268,139939,1,0,0:0:0:0:
214,273,140029,2,0,L|170:262,1,42.5,8|8,0:0|0:0,0:0:0:0:
311,153,140207,1,8,0:0:0:0:
348,172,140297,1,8,0:0:0:0:
373,206,140386,1,4,0:0:0:0:
381,247,140475,1,4,0:0:0:0:
370,288,140564,5,14,0:0:0:0:
224,190,140743,1,2,0:0:0:0:
415,109,140922,1,8,0:0:0:0:
288,243,141100,1,0,0:0:0:0:
235,66,141279,1,12,0:0:0:0:
399,210,141457,1,2,0:0:0:0:
399,210,141547,1,0,0:0:0:0:
399,210,141636,2,0,L|483:197,1,85,8|2,0:0|0:0,0:0:0:0:
337,355,141993,6,0,P|320:315|312:274,1,85,14|0,0:0|0:0,0:0:0:0:
194,128,142350,2,0,P|185:169|169:208,1,85,12|2,0:0|0:0,0:0:0:0:
26,322,142707,2,0,L|110:334,1,85,12|2,0:0|0:0,0:0:0:0:
312,274,143064,1,12,0:0:0:0:
169,208,143243,1,2,0:0:0:0:
169,208,143332,1,2,0:0:0:0:
169,208,143422,5,14,0:0:0:0:
110,334,143600,1,2,0:0:0:0:
262,209,143779,1,8,0:0:0:0:
273,347,143957,1,2,0:0:0:0:
342,162,144136,1,8,0:0:0:0:
420,276,144314,1,2,0:0:0:0:
387,81,144493,2,0,P|346:68|305:76,1,85,8|2,0:0|0:0,0:0:0:0:
106,147,144850,5,12,0:0:0:0:
240,222,145029,2,0,L|229:180,1,42.5,2|2,0:0|0:0,0:0:0:0:
196,56,145207,1,8,0:0:0:0:
84,169,145386,1,2,0:0:0:0:
191,286,145564,2,0,P|229:301|271:295,1,85,8|2,0:0|0:0,0:0:0:0:
305,269,145832,1,2,0:0:0:0:
305,269,145922,1,8,0:0:0:0:
121,355,146100,1,2,0:0:0:0:
231,182,146279,5,6,0:0:0:0:
241,218,146457,1,0,0:0:0:0:
209,173,146636,5,10,0:0:0:0:
263,227,146814,1,10,0:0:0:0:
181,185,146993,5,14,0:0:0:0:
292,215,147172,1,10,0:0:0:0:
154,222,147350,5,10,0:0:0:0:
317,177,147529,1,10,0:0:0:0:
207,308,147707,6,0,P|169:326|127:331,1,85,14|10,0:0|0:0,0:0:0:0:
264,91,148064,2,0,P|302:73|344:68,1,85,14|10,0:0|0:0,0:0:0:0:
318,321,148422,6,0,P|293:355|259:380,1,85,14|10,0:0|0:0,0:0:0:0:
153,78,148779,2,0,P|177:43|211:18,1,85,14|10,0:0|0:0,0:0:0:0:
485,283,149136,6,0,L|442:288,1,42.5,6|0,0:0|0:0,0:0:0:0:
318,321,149314,1,8,0:0:0:0:
274,292,149404,1,8,0:0:0:0:
265,241,149493,1,8,0:0:0:0:
296,200,149582,1,8,0:0:0:0:
347,193,149672,2,0,P|352:213|356:234,1,42.5,6|0,0:0|0:0,0:0:0:0:
207,341,149850,5,8,0:0:0:0:
156,354,149939,1,8,0:0:0:0:
105,340,150029,1,8,0:0:0:0:
69,302,150118,1,8,0:0:0:0:
56,251,150207,2,0,P|59:230|65:209,1,42.5,4|0,0:0|0:0,0:0:0:0:
104,52,150386,5,10,0:0:0:0:
104,52,150743,1,10,0:0:0:0:
104,52,151100,1,10,0:0:0:0:
104,52,151457,6,0,L|114:93,1,42.5,0|0,3:0|0:0,0:0:0:0:
179,192,151636,2,2,L|173:212,6,21.25,2|2|2|2|2|2|2,0:1|0:1|0:1|0:1|0:1|0:1|0:1,0:1:0:0:
183,171,151993,6,0,L|320:196,1,140.25000428009,14|0,0:0|0:0,0:0:0:0:
344,200,152350,2,0,P|382:173|409:135,1,93.5000028533936,12|0,0:0|0:0,0:0:0:0:
454,273,152707,2,0,L|463:366,1,93.5000028533936,6|2,0:0|0:0,0:0:0:0:
304,335,153064,1,12,0:0:0:0:
454,273,153243,1,0,0:0:0:0:
285,339,153422,6,0,P|217:321|147:321,1,140.25000428009,6|0,0:0|0:0,0:0:0:0:
125,326,153779,2,0,L|108:233,1,93.5000028533936,12|0,0:0|0:0,0:0:0:0:
229,112,154136,2,0,P|235:159|219:202,1,93.5000028533936,6|2,0:0|0:0,0:0:0:0:
33,269,154493,2,0,P|27:222|43:179,1,93.5000028533936,12|0,0:0|0:0,0:0:0:0:
176,39,154850,6,0,P|240:65|310:66,1,140.25000428009,6|0,0:0|0:0,0:0:0:0:
331,54,155207,1,12,0:0:0:0:
219,202,155386,1,4,0:0:0:0:
334,215,155564,1,6,0:0:0:0:
172,94,155743,1,2,0:0:0:0:
149,294,155922,1,8,0:0:0:0:
334,215,156100,6,0,P|332:169|324:123,1,93.5000028533936,4|2,0:0|0:0,0:0:0:0:
450,180,156457,1,4,0:0:0:0:
235,241,156636,1,12,0:0:0:0:
376,339,156814,1,6,0:0:0:0:
208,248,156993,2,0,L|116:266,1,93.5000028533936,0|2,0:0|0:0,0:0:0:0:
52,49,157350,2,0,P|117:71|145:133,1,140.25000428009,8|0,0:0|0:0,0:0:0:0:
144,157,157707,5,14,0:0:0:0:
242,50,157886,1,8,0:0:0:0:
306,229,158064,1,12,0:0:0:0:
240,69,158243,1,0,0:0:0:0:
140,260,158422,2,0,L|47:246,1,93.5000028533936,6|2,0:0|0:0,0:0:0:0:
233,165,158779,1,12,0:0:0:0:
310,320,158957,1,4,0:0:0:0:
371,139,159136,5,2,0:0:0:0:
171,230,159314,2,0,P|146:192|145:146,1,93.5000028533936,4|8,0:0|0:0,0:0:0:0:
37,349,159672,2,0,P|82:340|129:334,1,93.5000028533936,4|2,0:0|0:0,0:0:0:0:
335,360,160029,1,6,0:0:0:0:
389,190,160207,1,12,0:0:0:0:
215,229,160386,1,4,0:0:0:0:
441,263,160564,6,0,P|477:181|426:108,2,187.000005706787,2|8|2,0:0|0:0|0:0,0:0:0:0:
239,121,161457,1,2,0:0:0:0:
255,285,161636,1,8,0:0:0:0:
389,190,161814,1,4,0:0:0:0:
105,216,161993,5,6,0:0:0:0:
373,26,162172,1,12,0:0:0:0:
384,32,162529,5,6,0:0:0:0:
400,196,162707,1,0,0:0:0:0:
266,291,162886,1,2,0:0:0:0:
116,222,163064,2,0,P|111:199|111:175,1,46.7500014266968,8|8,0:0|0:0,0:0:0:0:
247,77,163243,2,0,P|251:99|251:123,1,46.7500014266968,8|8,0:0|0:0,0:0:0:0:
39,128,163422,6,0,P|96:92|163:108,1,140.25000428009,14|0,0:0|0:0,0:0:0:0:
176,129,163779,2,0,P|163:84|162:37,1,93.5000028533936,12|0,0:0|0:0,0:0:0:0:
300,178,164136,1,6,0:0:0:0:
116,222,164314,1,2,0:0:0:0:
253,362,164493,2,0,P|252:315|240:271,1,93.5000028533936,12|0,0:0|0:0,0:0:0:0:
404,138,164850,6,0,P|384:204|389:274,1,140.25000428009,6|0,0:0|0:0,0:0:0:0:
399,296,165207,2,0,L|492:288,1,93.5000028533936,12|0,0:0|0:0,0:0:0:0:
265,213,165564,1,6,0:0:0:0:
404,138,165743,1,2,0:0:0:0:
270,55,165922,2,0,L|176:62,1,93.5000028533936,12|0,0:0|0:0,0:0:0:0:
16,236,166279,6,0,P|59:184|125:194,1,140.25000428009,6|0,0:0|0:0,0:0:0:0:
137,215,166636,1,12,0:0:0:0:
66,63,166814,1,4,0:0:0:0:
262,136,166993,1,6,0:0:0:0:
137,215,167172,1,2,0:0:0:0:
302,299,167350,1,8,0:0:0:0:
255,125,167529,6,0,P|246:79|254:33,1,93.5000028533936,4|2,0:0|0:0,0:0:0:0:
359,77,167886,1,4,0:0:0:0:
234,220,168064,1,12,0:0:0:0:
172,40,168243,1,6,0:0:0:0:
335,184,168422,2,0,P|381:182|425:166,1,93.5000028533936,0|2,0:0|0:0,0:0:0:0:
431,379,168779,2,0,P|382:331|315:339,1,140.25000428009,8|0,0:0|0:0,0:0:0:0:
283,358,169136,5,14,0:0:0:0:
103,294,169314,1,0,0:0:0:0:
350,243,169493,2,0,L|363:150,1,93.5000028533936,12|2,0:0|0:0,0:0:0:0:
172,69,169850,2,0,L|159:162,1,93.5000028533936,6|2,0:0|0:0,0:0:0:0:
132,316,170207,1,12,0:0:0:0:
304,370,170386,1,4,0:0:0:0:
103,294,170564,6,0,P|85:207|160:162,2,187.000005706787,6|8|0,0:0|0:0|0:0,0:0:0:0:
288,235,171457,1,2,0:0:0:0:
167,332,171636,2,0,P|162:285|159:238,1,93.5000028533936,8|0,0:0|0:0,0:0:0:0:
278,63,171993,5,14,0:0:0:0:
160,162,172172,1,0,0:0:0:0:
305,215,172350,1,12,0:0:0:0:
133,10,172529,1,0,0:0:0:0:
42,261,172707,2,0,L|134:249,1,93.5000028533936,6|2,0:0|0:0,0:0:0:0:
278,63,173064,2,0,L|185:74,1,93.5000028533936,12|4,0:0|0:0,0:0:0:0:
301,295,173422,6,0,P|378:252|367:165,1,187.000005706787,6|8,0:0|0:0,0:0:0:0:
185,74,173957,1,2,0:0:0:0:
72,142,174136,2,0,L|81:187,1,46.7500014266968,4|0,0:0|0:0,0:0:0:0:
91,323,174314,1,2,0:0:0:0:
91,323,174404,1,4,0:0:0:0:
91,323,174493,2,0,L|125:291,1,46.7500014266968,8|0,0:0|0:0,0:0:0:0:
238,216,174672,2,0,L|193:201,1,46.7500014266968,12|8,0:0|0:0,0:0:0:0:
225,355,174850,6,0,P|268:337|313:327,1,93.5000028533936,6|0,0:0|0:0,0:0:0:0:
458,146,175207,1,14,0:0:0:0:
441,318,175386,1,10,0:0:0:0:
332,108,175564,1,14,0:0:0:0:
313,327,175743,1,14,0:0:0:0:
207,70,175922,1,10,0:0:0:0:
185,336,176100,1,14,0:0:0:0:
81,32,176279,5,14,0:0:0:0:
420,75,177350,1,10,0:0:0:0:
420,75,177707,5,14,0:0:0:0:
420,173,177886,2,8,P|348:187|302:131,1,152.999995330811,0|10,0:0|0:0,0:0:0:0:
186,132,178422,2,0,P|188:94|207:61,1,76.4999976654053,8|0,0:0|0:0,0:0:0:0:
302,131,178779,1,10,0:0:0:0:
137,200,178957,2,0,P|112:171|101:134,1,76.4999976654053
38,335,179314,6,0,P|100:294|169:321,1,152.999995330811,10|0,0:0|0:0,0:0:0:0:
219,105,179850,1,8,0:0:0:0:
261,223,180029,1,4,0:0:0:0:
137,200,180207,1,2,0:0:0:0:
261,223,180386,6,0,P|335:241|411:247,1,152.999995330811,10|8,0:0|0:0,0:0:0:0:
313,324,180922,1,8,0:0:0:0:
447,244,181100,1,6,0:0:0:0:
359,122,181279,2,0,P|344:157|344:195,1,76.4999976654053
466,121,181636,1,14,0:0:0:0:
379,26,181814,6,0,L|227:47,1,152.999995330811,0|8,0:0|0:0,0:0:0:0:
85,42,182350,2,0,P|104:74|117:110,1,76.4999976654053,10|0,0:0|0:0,0:0:0:0:
154,227,182707,2,0,L|190:217,3,38.2499988327027,10|0|8|8,0:0|0:0|0:0|0:0,0:0:0:0:
60,297,183064,2,0,L|23:287,3,38.2499988327027,8|8|2|4,0:0|0:0|0:0|0:0,0:0:0:0:
154,367,183422,5,6,0:0:0:0:
291,361,183600,2,0,P|287:322|281:285,1,76.4999976654053
162,141,183957,1,2,0:0:0:0:
109,240,184136,2,0,P|145:249|183:250,1,76.4999976654053,8|0,0:0|0:0,0:0:0:0:
183,250,184404,1,0,0:0:0:0:
183,250,184493,1,2,0:0:0:0:
335,186,184672,6,0,P|298:176|260:175,1,76.4999976654053,2|0,0:0|0:0,0:0:0:0:
319,10,185029,2,0,L|327:86,1,76.4999976654053,2|0,0:0|0:0,0:0:0:0:
260,175,185386,1,2,0:0:0:0:
98,93,185564,2,0,P|154:48|223:73,1,152.999995330811,8|2,0:0|0:0,0:0:0:0:
187,256,186100,1,2,0:0:0:0:
260,175,186279,6,0,B|310:161|310:161|354:178|354:178|405:162,1,152.999995330811,6|0,0:0|0:0,0:0:0:0:
389,313,186814,1,2,0:0:0:0:
302,252,186993,2,0,P|284:286|286:324,1,76.4999976654053,8|0,0:0|0:0,0:0:0:0:
389,313,187350,1,10,0:0:0:0:
206,343,187529,6,0,P|205:267|237:198,1,152.999995330811,6|10,0:0|0:0,0:0:0:0:
407,161,188064,2,0,P|369:157|334:144,1,76.4999976654053,10|0,0:0|0:0,0:0:0:0:
127,28,188422,6,0,L|137:44,1,19.1249994163513,14|0,0:0|0:0,0:0:0:0:
237,198,188689,6,0,L|245:180,1,19.1249994163513,14|0,0:0|0:0,0:0:0:0:
330,18,188957,6,0,L|310:19,1,19.1249994163513,14|0,0:0|0:0,0:0:0:0:
170,120,189136,6,0,P|160:162|155:204,1,85,6|0,0:0|0:0,0:0:0:0:
297,340,189493,2,0,P|306:298|311:256,1,85,10|0,0:0|3:2,0:0:0:0:
372,129,189850,1,2,0:0:0:0:
237,198,190029,1,0,3:2:0:0:
188,35,190207,6,0,L|272:27,1,85,10|0,0:0|3:2,0:0:0:0:
456,121,190564,2,0,L|371:128,1,85,2|0,0:0|3:2,0:0:0:0:
237,198,190922,1,10,0:0:0:0:
409,276,191100,1,0,3:2:0:0:
222,356,191279,6,0,P|215:335|210:315,1,42.5,2|0,0:0|0:0,0:0:0:0:
115,283,191457,2,0,P|125:265|136:246,1,42.5,0|0,3:2|0:0,0:0:0:0:
92,158,191636,2,0,P|112:151|132:146,1,42.5,10|0,0:0|0:0,0:0:0:0:
164,51,191814,2,0,P|182:61|201:72,1,42.5,8|8,3:2|0:0,0:0:0:0:
311,189,191993,5,6,0:0:0:0:
374,42,192172,1,0,3:2:0:0:
420,226,192350,1,10,0:0:0:0:
353,62,192529,1,0,3:2:0:0:
259,253,192707,2,0,P|217:261|175:260,1,85,2|0,0:0|3:2,0:0:0:0:
46,174,193064,5,10,0:0:0:0:
217,129,193243,1,0,3:2:0:0:
87,47,193422,1,2,0:0:0:0:
239,136,193600,1,0,3:2:0:0:
140,301,193779,2,0,P|134:260|137:217,1,85,10|0,0:0|3:2,0:0:0:0:
303,90,194136,6,0,L|344:82,1,42.5,2|8,0:0|0:0,0:0:0:0:
469,178,194314,2,0,L|427:185,1,42.5,0|0,3:2|0:0,0:0:0:0:
271,224,194493,1,10,0:0:0:0:
244,268,194582,1,0,0:0:0:0:
251,319,194672,1,8,3:2:0:0:
289,355,194761,1,8,0:0:0:0:
341,358,194850,6,0,P|361:321|363:279,1,85,6|0,3:2|0:0,0:0:0:0:
239,136,195207,1,10,0:0:0:0:
416,212,195386,1,0,3:2:0:0:
394,80,195564,1,2,0:0:0:0:
217,156,195743,1,0,3:2:0:0:
294,2,195922,6,0,P|304:43|309:85,1,85,10|0,3:2|0:0,0:0:0:0:
243,319,196279,1,2,0:0:0:0:
180,173,196457,1,0,3:2:0:0:
120,318,196636,1,10,0:0:0:0:
303,174,196814,1,0,3:2:0:0:
87,88,196993,6,0,L|93:129,1,42.5,10|0,0:0|0:0,0:0:0:0:
206,241,197172,2,0,L|199:199,1,42.5,0|8,3:2|0:0,0:0:0:0:
65,91,197350,2,0,L|71:132,1,42.5,2|0,0:0|0:0,0:0:0:0:
228,238,197529,2,0,L|221:196,1,42.5,8|8,3:2|0:0,0:0:0:0:
280,50,197707,5,6,0:0:0:0:
301,46,197797,1,8,0:0:0:0:
322,43,197886,1,8,0:0:0:0:
343,40,197975,1,8,0:0:0:0:
364,37,198064,2,0,L|381:75,1,42.5,8|8,0:0|0:0,0:0:0:0:
423,185,198243,5,6,0:0:0:0:
401,188,198332,1,8,0:0:0:0:
380,191,198422,1,8,0:0:0:0:
359,194,198511,1,8,0:0:0:0:
339,198,198600,2,0,L|321:159,1,42.5,8|8,0:0|0:0,0:0:0:0:
322,43,198779,5,6,0:0:0:0:
353,37,198868,1,8,0:0:0:0:
385,32,198957,1,8,0:0:0:0:
416,28,199047,1,8,0:0:0:0:
448,23,199136,2,0,L|465:61,1,42.5,8|8,0:0|0:0,0:0:0:0:
380,191,199314,5,6,0:0:0:0:
349,197,199404,1,8,0:0:0:0:
317,202,199493,1,8,0:0:0:0:
286,206,199582,1,8,0:0:0:0:
254,211,199672,2,0,L|236:172,1,42.5,8|8,0:0|0:0,0:0:0:0:
119,39,199850,5,14,0:0:0:0:
73,65,199939,1,8,0:0:0:0:
54,113,200029,1,8,0:0:0:0:
69,163,200118,1,8,0:0:0:0:
111,193,200207,1,2,0:0:0:0:
153,223,200297,1,2,0:0:0:0:
168,273,200386,1,4,0:0:0:0:
149,321,200475,1,4,0:0:0:0:
102,347,200564,6,0,P|76:268|110:193,1,170,6|10,0:0|0:0,0:0:0:0:
248,80,201100,1,0,3:2:0:0:
152,37,201279,2,0,P|142:78|148:119,1,85,2|0,0:0|3:2,0:0:0:0:
344,123,201636,2,0,P|353:81|347:40,1,85,10|0,0:0|3:2,0:0:0:0:
244,219,201993,5,2,0:0:0:0:
244,219,202172,1,0,3:2:0:0:
344,123,202350,2,0,L|428:134,1,85,10|0,0:0|3:2,0:0:0:0:
454,330,202707,1,2,0:0:0:0:
454,330,202797,1,8,0:0:0:0:
454,330,202886,2,0,L|431:294,1,42.5,0|0,3:2|0:0,0:0:0:0:
331,247,203064,2,0,P|307:283|297:324,1,85,10|0,0:0|3:2,0:0:0:0:
54,329,203422,5,2,0:0:0:0:
210,262,203600,1,0,3:2:0:0:
68,176,203779,1,10,0:0:0:0:
210,262,203957,5,0,3:2:0:0:
54,195,204136,1,2,0:0:0:0:
196,109,204314,1,0,3:2:0:0:
54,195,204493,5,10,0:0:0:0:
210,128,204672,1,0,3:2:0:0:
68,42,204850,1,2,0:0:0:0:
210,128,205029,5,0,3:2:0:0:
233,144,205118,1,0,0:0:0:0:
260,152,205207,1,10,0:0:0:0:
288,153,205297,1,0,0:0:0:0:
315,145,205386,1,8,3:2:0:0:
338,129,205475,1,8,0:0:0:0:
356,107,205564,6,0,L|347:65,1,42.5,2|8,0:0|0:0,0:0:0:0:
475,7,205743,2,0,L|483:48,1,42.5,0|0,3:2|0:0,0:0:0:0:
455,180,205922,1,10,0:0:0:0:
426,211,206011,1,0,0:0:0:0:
416,252,206100,1,8,3:3:0:0:
427,292,206189,1,4,0:3:0:0:
455,323,206279,6,0,B|393:304|393:304|289:322,1,170,6|10,0:0|0:0,0:0:0:0:
110,353,206814,1,0,3:2:0:0:
165,211,206993,2,0,P|180:251|192:292,1,85,2|0,0:0|3:2,0:0:0:0:
36,142,207350,2,0,P|21:182|9:222,1,85,10|0,0:0|3:2,0:0:0:0:
165,72,207707,5,2,0:0:0:0:
165,72,207886,1,0,3:2:0:0:
276,163,208064,2,0,P|317:154|344:123,1,85,10|0,0:0|3:2,0:0:0:0:
357,90,208332,1,8,0:0:0:0:
357,90,208422,2,0,L|346:5,1,85,2|0,0:0|3:2,0:0:0:0:
165,72,208779,2,0,L|175:156,1,85,10|0,0:0|3:2,0:0:0:0:
301,335,209136,5,6,0:0:0:0:
272,172,209314,1,0,3:2:0:0:
146,278,209493,1,10,0:0:0:0:
276,163,209672,5,0,3:2:0:0:
137,279,209850,1,2,0:0:0:0:
307,341,210029,1,0,3:2:0:0:
146,278,210207,5,10,0:0:0:0:
301,335,210386,1,0,3:2:0:0:
272,172,210564,1,2,0:0:0:0:
294,328,210743,5,0,3:2:0:0:
269,181,210922,1,10,0:0:0:0:
156,278,211100,1,0,3:2:0:0:
372,240,211279,6,0,P|405:265|435:295,1,85,2|8,0:0|0:0,0:0:0:0:
457,319,211547,1,8,0:0:0:0:
457,319,211636,2,0,L|464:277,1,42.5,10|8,0:0|0:0,0:0:0:0:
506,182,211814,2,0,L|498:140,1,42.5,2|4,0:0|0:0,0:0:0:0:
311,49,211993,5,14,0:0:0:0:
450,37,212172,1,0,0:0:0:0:
261,109,212350,5,8,0:0:0:0:
387,168,212529,1,2,0:0:0:0:
187,135,212707,5,8,0:0:0:0:
266,249,212886,1,2,0:0:0:0:
109,121,213064,5,8,0:0:0:0:
121,259,213243,1,2,0:0:0:0:
49,70,213422,5,8,0:0:0:0:
100,270,213600,1,2,0:0:0:0:
177,61,213779,5,8,0:0:0:0:
121,259,213957,1,2,0:0:0:0:
292,116,214136,5,8,0:0:0:0:
144,259,214314,1,2,0:0:0:0:
363,221,214493,5,8,0:0:0:0:
164,271,214672,1,2,0:0:0:0:
372,348,214850,6,0,P|423:345|472:331,1,101.999996887207,12|2,0:0|0:0,0:0:0:0:
292,116,215207,2,0,P|241:118|192:132,1,101.999996887207,8|2,0:0|0:0,0:0:0:0:
448,191,215564,2,0,P|446:140|431:91,1,101.999996887207,8|2,0:0|0:0,0:0:0:0:
216,272,215922,1,8,0:0:0:0:
216,297,216011,1,0,0:0:0:0:
218,323,216100,1,2,0:0:0:0:
224,348,216189,1,0,0:0:0:0:
233,371,216279,6,0,P|265:362|299:357,2,67.9999979248048,6|8|8,0:0|0:0|0:0,0:0:0:0:
107,342,216636,2,0,P|74:332|40:327,2,67.9999979248048,10|8|8,0:0|0:0|0:0,0:0:0:0:
215,272,216993,1,8,3:3:0:0:
235,207,217112,1,4,3:3:0:0:
233,139,217231,1,8,0:0:0:0:
210,76,217350,2,0,P|197:107|194:140,2,67.9999979248048,2|4|4,0:0|0:0|0:0,0:0:0:0:
282,36,217707,1,6,0:0:0:0:
267,94,219850,5,0,0:0:0:0:
133,194,220029,1,2,0:0:0:0:
317,269,220207,2,0,L|337:263,6,21.25,12|0|0|0|2|0|2,0:0|0:0|0:0|0:0|0:0|0:0|0:0,0:0:0:0:
295,273,220564,6,0,P|269:241|268:199,1,85,12|0,0:0|0:0,0:0:0:0:
320,34,220922,1,10,0:0:0:0:
159,77,221100,1,10,0:0:0:0:
340,136,221279,1,10,0:0:0:0:
139,179,221457,1,10,0:0:0:0:
360,238,221636,1,10,0:0:0:0:
119,281,221814,1,10,0:0:0:0:
381,340,221993,6,0,B|420:344|447:327|447:327|442:233|344:228|303:288,1,272,4|0,0:0|0:0,0:0:0:0:
0,144,223422,6,0,B|63:106|52:31|52:31|70:67|93:88|93:88|117:75|147:47|147:47|118:116|162:179,1,408,2|0,0:0|0:0,0:0:0:0:
295,78,224850,6,0,B|261:38|209:43|174:99|198:160|251:168|276:141|291:105|291:105|285:137|302:165,1,305.999990661621,2|0,0:0|0:0,0:0:0:0:
451,87,226279,6,0,B|417:47|365:52|330:108|354:169|407:177|432:150|447:114|447:114|441:146|458:174,1,305.999990661621,2|0,0:0|0:0,0:0:0:0:
9,158,227707,6,0,B|25:204|70:217|117:184|117:184|70:217|51:281|78:347,1,305.999990661621,2|2,0:0|0:0,0:0:0:0:
229,262,229136,6,0,B|195:222|143:227|108:283|132:344|185:352|210:325|225:289|225:289|219:321|236:349,1,305.999990661621,2|0,0:0|0:0,0:0:0:0:
424,212,230564,6,0,B|394:141|314:145|264:209|271:280|354:273|345:347,1,305.999990661621,2|0,0:0|0:0,0:0:0:0:
424,212,231993,2,0,B|499:201|535:273|506:348|440:378|405:303|344:345,1,305.999990661621,2|0,0:0|0:0,0:0:0:0:
177,248,233422,6,0,L|172:227,1,21.25,2|0,0:0|0:0,0:0:0:0:
335,136,233957,2,0,L|339:156,1,21.25,2|0,0:0|0:0,0:0:0:0:
461,340,234850,6,0,P|385:327|309:319,1,152.999995330811,14|0,0:0|0:0,0:0:0:0:
261,338,235207,2,0,P|277:289|277:238,1,101.999996887207,12|0,0:0|0:0,0:0:0:0:
168,60,235564,2,0,P|152:108|152:159,1,101.999996887207,6|2,0:0|0:0,0:0:0:0:
267,124,235922,1,12,0:0:0:0:
88,234,236100,1,0,0:0:0:0:
309,318,236279,6,0,P|352:257|355:182,1,152.999995330811,6|0,0:0|0:0,0:0:0:0:
347,131,236636,2,0,L|448:119,1,101.999996887207,12|0,0:0|0:0,0:0:0:0:
178,17,236993,2,0,L|279:28,1,101.999996887207,6|2,0:0|0:0,0:0:0:0:
175,212,237350,1,12,0:0:0:0:
268,120,237529,1,0,0:0:0:0:
308,318,237707,6,0,L|207:333,1,101.999996887207,6|0,0:0|0:0,0:0:0:0:
51,355,238064,2,0,L|62:305,1,50.9999984436036,12|0,0:0|0:0,0:0:0:0:
175,212,238243,2,0,L|163:261,1,50.9999984436036,2|0,0:3|0:0,0:0:0:0:
53,175,238422,1,6,0:0:0:0:
208,333,238600,1,2,0:0:0:0:
268,120,238779,1,8,0:0:0:0:
174,211,238957,6,0,P|162:162|165:111,1,101.999996887207,4|2,0:0|0:0,0:0:0:0:
208,333,239314,1,4,0:0:0:0:
301,236,239493,1,8,0:0:0:0:
53,175,239672,1,6,0:0:0:0:
108,338,239850,2,0,P|158:344|207:332,1,101.999996887207,0|2,0:0|0:0,0:0:0:0:
454,228,240207,2,0,L|301:236,1,152.999995330811,8|0,0:0|0:0,0:0:0:0:
250,239,240564,5,14,0:0:0:0:
386,332,240743,1,4,0:0:0:0:
198,241,240922,1,12,0:0:0:0:
368,125,241100,1,0,0:0:0:0:
146,243,241279,2,0,P|104:214|67:178,1,101.999996887207,6|2,0:0|0:0,0:0:0:0:
255,163,241636,1,12,0:0:0:0:
143,349,241814,1,4,0:0:0:0:
190,110,241993,6,0,P|282:86|337:165,2,203.999993774414,6|8|0,0:0|0:0|0:0,0:0:0:0:
146,243,242886,1,2,0:0:0:0:
70,77,243064,2,0,P|61:128|67:178,1,101.999996887207,8|2,0:0|0:3,0:0:0:0:
67,178,243332,1,8,0:0:0:0:
67,178,243422,5,14,0:0:0:0:
254,219,243600,1,4,0:0:0:0:
86,297,243779,1,12,0:0:0:0:
272,337,243957,1,4,0:0:0:0:
67,178,244136,2,0,P|61:128|70:77,1,101.999996887207,6|2,0:0|0:0,0:0:0:0:
274,209,244493,1,12,0:0:0:0:
65,306,244672,1,4,0:0:0:0:
313,360,244850,6,0,B|361:334|361:334|462:351|462:351|438:310,1,203.999993774414,6|8,0:0|0:0,0:0:0:0:
372,97,245386,1,2,0:0:0:0:
274,209,245564,1,4,0:0:0:0:
463,197,245743,1,2,0:0:0:0:
463,197,245832,1,6,0:0:0:0:
462,197,245922,2,0,P|470:146|475:95,1,101.999996887207,8|6,0:0|0:0,0:0:0:0:
274,209,246279,6,0,P|266:259|261:310,1,101.999996887207,6|0,0:0|0:0,0:0:0:0:
126,295,246636,5,14,0:0:0:0:
358,227,246814,1,10,0:0:0:0:
170,145,246993,1,14,0:0:0:0:
367,331,247172,1,14,0:0:0:0:
341,92,247350,1,10,0:0:0:0:
94,323,247529,1,14,0:0:0:0:
170,38,247707,5,14,0:0:0:0:
406,217,248600,2,0,L|356:227,1,50.9999984436036,2|2,0:0|0:0,0:0:0:0:
189,247,248779,6,0,P|176:211|190:176,1,76.4999976654053,14|0,0:0|0:0,0:0:0:0:
208,159,249136,6,0,L|124:142,1,85,6|0,0:0|0:0,0:0:0:0:
0,309,249493,2,0,L|84:292,1,85,8|0,0:0|0:0,0:0:0:0:
310,281,249850,1,2,0:0:0:0:
205,360,250029,1,2,0:0:0:0:
287,199,250207,6,0,P|329:198|365:219,1,85,8|0,0:0|0:0,0:0:0:0:
506,328,250564,2,0,P|463:327|427:348,1,85,2|0,0:0|0:0,0:0:0:0:
310,281,250922,1,8,0:0:0:0:
452,187,251100,1,2,0:0:0:0:
357,40,251279,6,0,L|343:123,1,85,0|2,0:0|0:0,0:0:0:0:
201,217,251636,2,0,L|214:133,1,85,8|0,0:0|0:0,0:0:0:0:
82,26,251993,6,0,P|32:87|75:154,1,170,2|8,0:0|0:0,0:0:0:0:
112,305,252529,1,0,0:0:0:0:
283,228,252707,2,0,P|242:215|200:216,1,85,2|2,0:0|0:0,0:0:0:0:
26,328,253064,1,8,0:0:0:0:
75,154,253243,1,0,0:0:0:0:
257,299,253422,6,0,P|337:284|357:206,1,170,2|8,0:0|0:0,0:0:0:0:
243,35,253957,1,2,0:0:0:0:
181,116,254136,5,4,0:0:0:0:
219,135,254225,1,0,0:0:0:0:
261,136,254314,1,2,0:0:0:0:
300,120,254404,1,0,0:0:0:0:
339,104,254493,1,8,0:0:0:0:
381,106,254582,1,0,0:0:0:0:
420,123,254672,2,0,P|441:154|455:186,1,42.5,12|8,0:0|0:0,0:0:0:0:
373,288,254850,6,0,P|357:248|356:206,1,85,6|0,0:0|0:0,0:0:0:0:
192,323,255207,2,0,L|275:308,1,85,8|0,0:0|0:0,0:0:0:0:
145,208,255564,1,2,0:0:0:0:
75,362,255743,1,2,0:0:0:0:
145,208,255922,6,0,P|147:165|148:123,1,85,8|0,0:0|0:0,0:0:0:0:
0,38,256279,2,0,P|41:45|84:43,1,85,2|0,0:0|0:0,0:0:0:0:
254,25,256636,1,8,0:0:0:0:
148,123,256814,1,2,0:0:0:0:
356,206,256993,6,0,B|369:165|369:165|360:123,1,85,0|2,0:0|0:0,0:0:0:0:
196,240,257350,2,0,B|183:281|183:281|191:322,1,85,8|0,0:0|0:0,0:0:0:0:
423,341,257707,6,0,L|338:337,1,85,6|0,0:0|0:0,0:0:0:0:
338,337,257975,1,2,0:0:0:0:
338,337,258064,1,8,0:0:0:0:
407,212,258243,1,2,0:0:0:0:
213,269,258422,1,2,0:0:0:0:
338,337,258600,1,2,0:0:0:0:
282,144,258779,6,0,P|283:101|295:60,1,85,8|0,0:0|0:0,0:0:0:0:
407,212,259136,5,2,0:0:0:0:
254,277,259314,1,2,0:0:0:0:
233,272,259404,1,2,0:0:0:0:
212,268,259493,1,8,0:0:0:0:
282,144,259672,1,2,0:0:0:0:
107,66,259850,5,6,0:0:0:0:
71,89,259939,1,4,0:3:0:0:
55,128,260029,1,4,0:3:0:0:
62,169,260118,1,8,0:3:0:0:
91,200,260207,5,8,0:0:0:0:
111,195,260297,1,8,0:0:0:0:
132,191,260386,1,8,0:0:0:0:
151,185,260475,1,8,0:0:0:0:
172,181,260564,5,6,0:0:0:0:
362,319,260743,1,0,0:0:0:0:
282,144,260922,5,8,0:0:0:0:
143,334,261100,1,2,0:0:0:0:
319,254,261279,5,8,0:0:0:0:
129,115,261457,1,2,0:0:0:0:
209,291,261636,5,8,0:0:0:0:
347,101,261814,1,2,0:0:0:0:
172,181,261993,5,8,0:0:0:0:
399,206,262172,1,2,0:0:0:0:
209,291,262350,5,8,0:0:0:0:
234,63,262529,1,2,0:0:0:0:
319,254,262707,5,8,0:0:0:0:
90,227,262886,1,2,0:0:0:0:
282,144,263064,5,8,0:0:0:0:
255,372,263243,1,2,0:0:0:0:
129,115,263422,6,0,P|126:64|139:15,1,101.999996887207,12|2,0:0|0:0,0:0:0:0:
399,206,263779,2,0,P|401:256|388:305,1,101.999996887207,8|2,0:0|0:0,0:0:0:0:
90,227,264136,6,0,P|52:192|27:148,1,101.999996887207,8|2,0:0|0:0,0:0:0:0:
438,94,264493,2,0,P|475:128|500:172,1,101.999996887207,8|2,0:0|0:0,0:0:0:0:
234,63,264850,5,8,0:0:0:0:
319,254,265029,1,2,0:0:0:0:
319,254,265118,1,2,0:0:0:0:
319,254,265207,2,0,L|268:260,1,50.9999984436036,12|0,0:0|0:0,0:0:0:0:
186,354,265386,2,0,L|135:347,1,50.9999984436036,8|4,0:3|0:3,0:0:0:0:
9,219,265564,5,4,0:0:0:0:
28,172,265654,1,2,0:0:0:0:
71,146,265743,1,8,0:0:0:0:
121,150,265832,1,8,0:0:0:0:
159,182,265922,2,0,L|152:232,1,50.9999984436036,8|8,0:0|0:0,0:0:0:0:
282,144,266100,2,0,L|275:93,1,50.9999984436036,8|8,0:0|0:0,0:0:0:0:
411,284,266279,5,14,0:0:0:0:
283,359,266457,2,0,P|266:310|267:260,1,101.999996887207,2|2,0:0|0:0,0:0:0:0:
411,284,266814,5,12,0:0:0:0:
178,280,266993,2,0,P|187:230|213:186,1,101.999996887207,2|2,0:0|0:0,0:0:0:0:
411,284,267350,5,12,0:0:0:0:
126,159,267529,2,0,P|159:120|203:96,1,101.999996887207,2|2,0:0|0:0,0:0:0:0:
411,284,267886,5,12,0:0:0:0:
98,307,268064,1,14,0:0:0:0:
234,25,268243,1,2,0:0:0:0:
302,258,268422,5,6,0:0:0:0:
299,270,268511,1,2,0:0:0:0:
297,283,268600,1,8,0:0:0:0:
294,295,268689,1,8,0:0:0:0:
292,308,268779,1,8,0:0:0:0:
289,320,268868,1,8,0:0:0:0:
287,333,268957,1,8,0:0:0:0:
284,345,269047,1,8,0:0:0:0:
282,358,269136,5,12,0:0:0:0:
256,192,269225,12,0,273779,0:0:0:0:
