osu file format v14

[General]
AudioFilename: audio.mp3
AudioLeadIn: 0
PreviewTime: 152024
Countdown: 0
SampleSet: Soft
StackLeniency: 0.7
Mode: 0
LetterboxInBreaks: 0
WidescreenStoryboard: 1

[Editor]
Bookmarks: 69167,71667,74524,74881,77381,78810,79703,80595,81310,83095,85953,87024,88810,144881,145149,145417,145595,145863,146131,146310,154524,154881,155238,155595,155953,156310,156667,157024,157381,158453,158810,166310,166667,167024,167381,167738,168095,168453,168810,241310,242292,242560
DistanceSpacing: 1.3
BeatDivisor: 4
GridSize: 4
TimelineZoom: 2.7

[Metadata]
Title:youthful beautiful
TitleUnicode:youthful beautiful
Artist:Uchida Maaya
ArtistUnicode:内田真礼
Creator:Hanazawa Kana
Version:youthful connected
Source:SSSS.GRIDMAN
Tags:Firika Oiso _lai Crystar ending ed anime ririko s.s.s.s. 白戸佑輔 グリッドマン 電光超人グリッドマン trigger japanese
BeatmapID:1883771
BeatmapSetID:902268

[Difficulty]
HPDrainRate:6
CircleSize:4
OverallDifficulty:8.5
ApproachRate:9.3
SliderMultiplier:1.6
SliderTickRate:1

[Events]
//Background and Video events
0,0,"bg.jpg",0,0
//Break Periods
//Storyboard Layer 0 (Background)
//Storyboard Layer 1 (Fail)
//Storyboard Layer 2 (Pass)
//Storyboard Layer 3 (Foreground)
//Storyboard Layer 4 (Overlay)
//Storyboard Sound Samples

[TimingPoints]
596,357.142857142857,4,2,1,30,1,0
596,-125,4,2,1,30,0,0
5953,-111.111111111111,4,2,1,30,0,0
6220,-111.111111111111,4,2,1,5,0,0
6310,-111.111111111111,4,2,1,60,0,0
6488,-111.111111111111,4,2,1,30,0,0
10595,-200,4,2,1,30,0,0
11131,-111.111111111111,4,2,1,30,0,0
11488,-111.111111111111,4,2,1,60,0,0
12024,-100,4,2,1,60,0,0
16310,-100,4,2,1,50,0,0
17024,-100,4,2,1,60,0,0
22828,-100,4,2,0,60,0,0
23095,-100,4,2,1,60,0,0
23185,-100,4,2,0,60,0,0
23453,-200,4,2,1,40,0,0
25149,-200,4,2,1,5,0,0
25238,-200,4,2,1,40,0,0
34881,-125,4,2,1,60,0,0
35149,-125,4,2,1,5,0,0
35238,-125,4,2,1,60,0,0
41220,-125,4,2,1,5,0,0
41310,-125,4,2,1,60,0,0
44078,-125,4,2,1,5,0,0
44167,-125,4,2,1,60,0,0
45953,-125,4,2,1,40,0,0
46310,-125,4,2,1,60,0,0
48720,-125,4,2,1,5,0,0
48810,-125,4,2,1,60,0,0
50328,-125,4,2,1,5,0,0
50417,-125,4,2,1,60,0,0
50685,-125,4,2,1,5,0,0
50774,-125,4,2,1,60,0,0
50863,-125,4,2,1,5,0,0
50953,-125,4,2,1,60,0,0
51042,-125,4,2,1,5,0,0
51131,-125,4,2,1,60,0,0
55685,-125,4,2,1,5,0,0
55774,-125,4,2,1,60,0,0
57292,-125,4,2,1,5,0,0
57381,-100,4,2,1,60,0,0
57649,-100,4,2,1,5,0,0
57738,-100,4,2,1,60,0,0
58185,-100,4,2,1,5,0,0
58274,-100,4,2,1,60,0,0
58363,-100,4,2,1,5,0,0
58453,-100,4,2,1,60,0,0
59613,-100,4,2,1,5,0,0
59703,-100,4,2,1,60,0,0
59792,-100,4,2,1,5,0,0
59881,-100,4,2,1,60,0,0
59970,-100,4,2,0,60,0,0
60238,-100,4,2,1,50,0,0
60328,-100,4,2,0,60,0,0
60595,-100,4,2,1,60,0,0
60953,-90.9090909090909,4,2,1,60,0,0
61310,-83.3333333333333,4,2,1,60,0,0
61667,-76.9230769230769,4,2,1,60,0,0
62024,-71.4285714285714,4,2,1,60,0,0
62381,-66.6666666666667,4,2,1,60,0,0
62738,-62.5,4,2,1,60,0,0
63185,-100,4,2,0,60,0,0
63453,-100,4,2,1,60,0,0
65953,-100,4,2,1,40,0,0
66310,-100,4,2,1,60,0,0
67470,-100,4,2,1,5,0,0
67560,-100,4,2,1,60,0,0
67649,-100,4,2,1,5,0,0
67738,-142.857142857143,4,2,1,60,0,0
68720,-142.857142857143,4,2,1,5,0,0
68810,-111.111111111111,4,2,1,60,0,0
68899,-111.111111111111,4,2,1,5,0,0
68988,-83.3333333333333,4,2,1,60,0,0
69078,-83.3333333333333,4,2,1,5,0,0
69167,-100,4,2,1,70,0,1
69792,-100,4,2,1,5,0,1
69881,-100,4,2,1,70,0,1
70506,-100,4,2,1,5,0,1
70595,-100,4,2,1,70,0,1
70863,-100,4,2,1,5,0,1
70953,-100,4,2,1,70,0,1
71935,-100,4,2,1,5,0,1
72024,-83.3333333333333,4,2,1,70,0,1
72292,-83.3333333333333,4,2,1,5,0,1
72381,-83.3333333333333,4,2,1,70,0,1
73274,-100,4,2,1,70,0,1
73542,-100,4,2,1,5,0,1
73631,-100,4,2,1,70,0,1
74256,-100,4,2,1,5,0,1
74345,-100,4,2,1,70,0,1
74435,-100,4,2,1,5,0,1
74524,-100,4,2,1,70,0,1
76399,-100,4,2,1,5,0,1
76488,-100,4,2,1,70,0,1
76756,-100,4,2,1,5,0,1
76845,-83.3333333333333,4,2,1,70,0,1
77113,-83.3333333333333,4,2,1,5,0,1
77203,-83.3333333333333,4,2,1,70,0,1
77738,-100,4,2,1,70,0,1
78006,-100,4,2,1,5,0,1
78095,-100,4,2,1,70,0,1
80238,-100,4,2,1,40,0,1
80595,-100,4,2,1,70,0,1
81220,-100,4,2,1,5,0,1
81310,-100,4,2,1,70,0,1
81935,-100,4,2,1,5,0,1
82024,-100,4,2,1,70,0,1
82292,-100,4,2,1,5,0,1
82381,-100,4,2,1,70,0,1
83363,-100,4,2,1,5,0,1
83453,-83.3333333333333,4,2,1,70,0,1
83720,-83.3333333333333,4,2,1,5,0,1
83810,-100,4,2,1,70,0,1
84078,-100,4,2,1,5,0,1
84167,-100,4,2,1,70,0,1
84970,-100,4,2,1,5,0,1
85060,-100,4,2,1,70,0,1
85685,-100,4,2,1,5,0,1
85774,-100,4,2,1,70,0,1
85863,-100,4,2,1,5,0,1
85953,-100,4,2,1,70,0,1
88006,-100,4,2,1,5,0,1
88095,-100,4,2,1,70,0,1
88185,-100,4,2,1,5,0,1
88274,-100,4,2,1,70,0,1
90863,-100,4,2,1,5,0,1
90953,-100,4,2,1,70,0,1
91042,-100,4,2,1,5,0,1
91131,-100,4,2,1,70,0,1
93453,-200,4,2,1,70,0,1
94435,-166.666666666667,4,2,1,5,0,1
94524,-166.666666666667,4,2,1,70,0,0
94881,-100,4,2,1,70,0,1
99970,-100,4,2,1,40,0,1
100238,-100,4,2,1,70,0,1
100328,-100,4,2,1,40,0,1
100595,-100,4,2,1,70,0,1
106310,-111.111111111111,4,2,1,60,0,0
107649,-111.111111111111,4,2,1,5,0,0
107738,-111.111111111111,4,2,1,60,0,0
108006,-111.111111111111,4,2,1,5,0,0
108095,-111.111111111111,4,2,1,60,0,0
108542,-111.111111111111,4,2,1,5,0,0
108631,-111.111111111111,4,2,1,60,0,0
109078,-111.111111111111,4,2,1,5,0,0
109167,-111.111111111111,4,2,1,60,0,0
109435,-111.111111111111,4,2,1,5,0,0
109524,-111.111111111111,4,2,1,60,0,0
110506,-111.111111111111,4,2,1,5,0,0
110595,-111.111111111111,4,2,1,60,0,0
111399,-111.111111111111,4,2,0,60,0,0
111578,-111.111111111111,4,2,1,40,0,0
112024,-111.111111111111,4,2,1,60,0,0
113720,-111.111111111111,4,2,1,5,0,0
113810,-111.111111111111,4,2,1,60,0,0
113899,-111.111111111111,4,2,1,5,0,0
113988,-111.111111111111,4,2,1,60,0,0
114078,-111.111111111111,4,2,1,5,0,0
114167,-111.111111111111,4,2,1,60,0,0
118006,-111.111111111111,4,2,1,5,0,0
118095,-111.111111111111,4,2,1,60,0,0
118363,-111.111111111111,4,2,1,5,0,0
118453,-111.111111111111,4,2,1,60,0,0
118720,-111.111111111111,4,2,1,5,0,0
118810,-111.111111111111,4,2,1,60,0,0
119078,-111.111111111111,4,2,1,5,0,0
119167,-111.111111111111,4,2,1,60,0,0
119613,-111.111111111111,4,2,1,5,0,0
119703,-111.111111111111,4,2,1,60,0,0
121935,-111.111111111111,4,2,1,5,0,0
122024,-111.111111111111,4,2,1,60,0,0
123720,-111.111111111111,4,2,1,5,0,0
123810,-111.111111111111,4,2,1,60,0,0
125060,-111.111111111111,4,2,1,5,0,0
125149,-111.111111111111,4,2,1,60,0,0
125328,-111.111111111111,4,2,1,5,0,0
125417,-111.111111111111,4,2,1,60,0,0
125506,-111.111111111111,4,2,1,5,0,0
125595,-111.111111111111,4,2,1,60,0,0
126578,-111.111111111111,4,2,1,5,0,0
126667,-111.111111111111,4,2,1,60,0,0
127917,-111.111111111111,4,2,1,5,0,0
128006,-111.111111111111,4,2,1,60,0,0
128185,-111.111111111111,4,2,1,5,0,0
128274,-111.111111111111,4,2,1,60,0,0
128363,-111.111111111111,4,2,1,5,0,0
128453,-111.111111111111,4,2,1,60,0,0
128899,-111.111111111111,4,2,1,40,0,0
129167,-111.111111111111,4,2,1,60,0,0
131935,-111.111111111111,4,2,1,5,0,0
132024,-111.111111111111,4,2,1,60,0,0
133185,-111.111111111111,4,2,1,5,0,0
133274,-111.111111111111,4,2,1,60,0,0
133542,-111.111111111111,4,2,1,5,0,0
133631,-111.111111111111,4,2,1,60,0,0
133720,-111.111111111111,4,2,1,5,0,0
133810,-111.111111111111,4,2,1,60,0,0
134435,-111.111111111111,4,2,1,5,0,0
134524,-111.111111111111,4,2,1,60,0,0
138006,-111.111111111111,4,2,1,5,0,0
138095,-111.111111111111,4,2,1,60,0,0
138274,-111.111111111111,4,2,1,5,0,0
138363,-111.111111111111,4,2,1,60,0,0
138542,-111.111111111111,4,2,1,5,0,0
138631,-111.111111111111,4,2,1,60,0,0
138720,-111.111111111111,4,2,1,5,0,0
138810,-111.111111111111,4,2,1,60,0,0
139256,-111.111111111111,4,2,1,5,0,0
139345,-111.111111111111,4,2,1,60,0,0
140149,-111.111111111111,4,2,1,40,0,0
140595,-100,4,2,1,60,0,0
141220,-100,4,2,1,5,0,0
141310,-100,4,2,1,60,0,0
142292,-100,4,2,1,5,0,0
142381,-100,4,2,1,60,0,0
145328,-100,4,2,1,5,0,0
145417,-100,4,2,1,60,0,0
146042,-100,4,2,1,5,0,0
146131,-100,4,2,1,60,0,0
146220,-100,4,2,1,5,0,0
146310,-100,4,2,1,60,0,0
146578,-100,4,2,1,5,0,0
146667,-100,4,2,1,60,0,0
149256,-100,4,2,1,5,0,0
149345,-100,4,2,1,40,0,0
149703,-100,4,2,1,60,0,0
149792,-100,4,2,1,5,0,0
149881,-100,4,2,1,40,0,0
150238,-100,4,2,1,60,0,0
150328,-100,4,2,1,5,0,0
150417,-100,4,2,1,60,0,0
150685,-100,4,2,1,5,0,0
150774,-125,4,2,1,60,0,0
151042,-125,4,2,1,5,0,0
151131,-125,4,2,1,60,0,0
151488,-125,4,2,1,20,0,0
151578,-125,4,2,1,30,0,0
151667,-125,4,2,1,40,0,0
151756,-125,4,2,1,50,0,0
151845,-125,4,2,1,60,0,0
152024,-100,4,2,1,70,0,1
152649,-100,4,2,1,5,0,1
152738,-100,4,2,1,70,0,1
153363,-100,4,2,1,5,0,1
153453,-100,4,2,1,70,0,1
154792,-100,4,2,1,5,0,1
154881,-100,4,2,1,70,0,1
155149,-100,4,2,1,5,0,1
155238,-100,4,2,1,70,0,1
156399,-100,4,2,1,5,0,1
156488,-100,4,2,1,70,0,1
156578,-100,4,2,1,5,0,1
156667,-100,4,2,1,70,0,1
156756,-100,4,2,1,5,0,1
156845,-100,4,2,1,70,0,1
157292,-100,4,2,1,5,0,1
157381,-100,4,2,1,70,0,1
159613,-100,4,2,1,5,0,1
159703,-100,4,2,1,70,0,1
159792,-100,4,2,1,5,0,1
159881,-100,4,2,1,70,0,1
160506,-100,4,2,1,5,0,1
160595,-100,4,2,1,70,0,1
160863,-100,4,2,1,5,0,1
160953,-100,4,2,1,70,0,1
161220,-100,4,2,1,5,0,1
161310,-100,4,2,1,70,0,1
162381,-100,4,2,1,5,0,1
162560,-100,4,2,1,70,0,1
163095,-100,4,2,1,40,0,1
163453,-100,4,2,1,70,0,1
164078,-100,4,2,1,5,0,1
164167,-100,4,2,1,70,0,1
164792,-100,4,2,1,5,0,1
164881,-100,4,2,1,70,0,1
165149,-100,4,2,1,5,0,1
165238,-100,4,2,1,70,0,1
166220,-100,4,2,1,5,0,1
166310,-100,4,2,1,70,0,1
166578,-100,4,2,1,5,0,1
166667,-100,4,2,1,70,0,1
167828,-100,4,2,1,5,0,1
167917,-100,4,2,1,70,0,1
168006,-100,4,2,1,5,0,1
168095,-100,4,2,1,70,0,1
168185,-100,4,2,1,5,0,1
168274,-100,4,2,1,70,0,1
168720,-100,4,2,1,5,0,1
168810,-100,4,2,1,70,0,1
169078,-100,4,2,1,5,0,1
169167,-100,4,2,1,70,0,1
170506,-100,4,2,1,5,0,1
170595,-100,4,2,1,70,0,1
170863,-100,4,2,1,5,0,1
170953,-100,4,2,1,70,0,1
171042,-100,4,2,1,5,0,1
171131,-100,4,2,1,70,0,1
171578,-100,4,2,1,5,0,1
171667,-100,4,2,1,70,0,1
173363,-100,4,2,1,5,0,1
173453,-100,4,2,1,70,0,1
173720,-100,4,2,1,5,0,1
173810,-100,4,2,1,70,0,1
173899,-100,4,2,1,5,0,1
173988,-100,4,2,1,70,0,1
174167,-100,4,2,0,70,0,1
174345,-100,4,2,1,70,0,1
174435,-100,4,2,0,70,0,1
174524,-100,4,2,1,70,0,1
174613,-100,4,2,1,5,0,1
174703,-100,4,2,1,70,0,1
174792,-100,4,2,1,5,0,1
174881,-100,4,2,1,70,0,1
176310,-250.000000000001,4,2,1,70,0,1
177292,-166.666666666667,4,2,1,5,0,1
177381,-166.666666666667,4,2,1,70,0,0
177738,-100,4,2,1,50,0,0
182292,-100,4,2,1,5,0,0
182381,-100,4,2,1,50,0,0
182470,-100,4,2,1,5,0,0
182560,-100,4,2,1,50,0,0
182649,-100,4,2,1,5,0,0
182738,-100,4,2,1,50,0,0
182828,-100,4,2,1,5,0,0
182917,-100,4,2,1,35,0,0
183453,-100,4,2,1,50,0,0
187292,-100,4,2,1,5,0,0
187381,-100,4,2,1,50,0,0
187470,-100,4,2,1,5,0,0
187560,-100,4,2,1,50,0,0
187828,-100,4,2,1,5,0,0
187917,-100,4,2,1,50,0,0
188363,-100,4,2,1,5,0,0
188453,-83.3333333333333,4,2,1,50,0,0
188631,-100,4,2,1,5,0,0
188720,-83.3333333333333,4,2,1,50,0,0
188899,-100,4,2,1,5,0,0
188988,-83.3333333333333,4,2,1,50,0,0
189078,-100,4,2,1,5,0,0
189167,-100,4,2,1,60,0,0
196935,-100,4,2,1,5,0,0
197024,-100,4,2,1,60,0,0
197203,-100,4,2,1,5,0,0
197292,-100,4,2,1,60,0,0
197470,-100,4,2,1,5,0,0
197560,-100,4,2,1,60,0,0
197649,-100,4,2,1,5,0,0
197738,-100,4,2,1,60,0,0
197828,-100,4,2,1,40,0,0
199524,-100,4,2,1,60,0,0
211756,-100,4,2,1,5,0,0
211845,-100,4,2,1,60,0,0
211935,-100,4,2,1,5,0,0
212024,-100,4,2,1,60,0,0
213720,-100,4,2,1,5,0,0
213810,-100,4,2,1,60,0,0
214078,-100,4,2,1,5,0,0
214167,-100,4,2,1,60,0,0
214435,-100,4,2,1,5,0,0
214524,-100,4,2,1,60,0,0
214613,-100,4,2,1,5,0,0
214703,-100,4,2,1,60,0,0
215149,-100,4,2,1,5,0,0
215238,-100,4,2,1,60,0,0
220863,-100,4,2,1,5,0,0
220953,-100,4,2,1,60,0,0
223453,-166.666666666667,4,2,1,40,0,0
232024,-125,4,2,1,60,0,0
234881,-100,4,2,1,70,0,1
235506,-100,4,2,1,5,0,1
235595,-100,4,2,1,70,0,1
236220,-100,4,2,1,5,0,1
236310,-83.3333333333333,4,2,1,70,0,1
236578,-83.3333333333333,4,2,1,5,0,1
236667,-71.4285714285714,4,2,1,70,0,1
236935,-71.4285714285714,4,2,1,5,0,1
237024,-100,4,2,1,70,0,1
237649,-100,4,2,1,5,0,1
237738,-100,4,2,1,70,0,1
238006,-100,4,2,1,5,0,1
238095,-100,4,2,1,70,0,1
239256,-100,4,2,1,5,0,1
239345,-100,4,2,1,70,0,1
239435,-100,4,2,1,5,0,1
239524,-100,4,2,1,70,0,1
239613,-100,4,2,1,5,0,1
239703,-100,4,2,1,70,0,1
240149,-100,4,2,1,5,0,1
240238,-100,4,2,1,70,0,1
242381,-100,4,2,1,70,0,1
242470,-100,4,2,1,5,0,1
242560,-100,4,2,1,70,0,1
242649,-100,4,2,1,5,0,1
242738,-100,4,2,1,70,0,1
242828,-100,4,2,1,5,0,1
242917,-100,4,2,1,70,0,1
245149,-100,4,2,1,5,0,1
245238,-100,4,2,1,70,0,1
245328,-100,4,2,1,5,0,1
245417,-100,4,2,1,70,0,1
245506,-100,4,2,1,5,0,1
245595,-100,4,2,1,70,0,1
247738,-166.666666666667,4,2,1,70,0,1
248631,-100,4,2,1,70,0,1
248810,-100,4,2,1,70,0,0
249167,-100,4,2,1,60,0,0
251935,-100,4,2,1,5,0,0
252024,-100,4,2,1,60,0,0
252292,-100,4,2,1,5,0,0
252381,-100,4,2,1,60,0,0
252649,-100,4,2,1,5,0,0
252738,-100,4,2,1,60,0,0
253720,-100,4,2,1,5,0,0
253810,-100,4,2,1,60,0,0
253899,-100,4,2,1,5,0,0
253988,-100,4,2,1,60,0,0
254435,-100,4,2,1,5,0,0
254524,-100,4,2,1,60,0,0
257649,-100,4,2,1,5,0,0
257738,-100,4,2,1,60,0,0
258006,-100,4,2,1,5,0,0
258095,-100,4,2,1,60,0,0
269256,-100,4,2,1,30,0,0
270595,-100,4,2,1,20,0,0
272024,-100,4,2,1,10,0,0
273988,-100,4,2,1,5,0,0

[Colours]
Combo1 : 51,208,169
Combo2 : 245,80,104
Combo3 : 202,157,225
Combo4 : 73,117,231

[HitObjects]
132,90,596,5,2,0:1:0:0:
132,90,774,1,0,0:0:0:0:
205,131,953,2,0,P|183:176|170:211,1,64,2|0,0:1|0:0,0:0:0:0:
32,278,1310,1,2,0:1:0:0:
32,278,1488,1,0,0:0:0:0:
59,192,1667,1,2,0:1:0:0:
59,192,1845,1,0,0:0:0:0:
170,200,2024,6,0,L|187:281,1,64,2|0,0:1|0:0,0:0:0:0:
269,284,2381,2,0,P|251:317|234:355,1,64,2|0,0:1|0:0,0:0:0:0:
342,147,2738,1,2,0:1:0:0:
342,147,2917,1,2,0:1:0:0:
263,204,3095,1,2,0:1:0:0:
263,204,3274,1,2,0:1:0:0:
357,234,3453,6,0,P|404:227|449:221,1,64,2|0,0:1|0:0,0:0:0:0:
497,143,3810,2,0,P|437:132|418:128,1,64,2|0,0:1|0:0,0:0:0:0:
367,65,4167,1,2,0:1:0:0:
367,65,4345,1,0,0:0:0:0:
454,35,4524,1,2,0:1:0:0:
454,35,4703,1,0,0:0:0:0:
275,45,4881,6,0,L|297:119,1,64,2|0,0:1|0:0,0:0:0:0:
198,204,5238,2,0,P|205:163|213:114,1,64,2|0,0:1|0:0,0:0:0:0:
156,61,5595,1,2,0:1:0:0:
156,61,5774,1,2,0:1:0:0:
7,139,5953,2,0,B|40:154|40:154|125:132,1,107.999996704102,2|0,0:1|0:0,0:0:0:0:
137,136,6310,5,6,0:0:0:0:
137,136,6488,1,0,0:0:0:0:
49,68,6667,1,2,0:1:0:0:
49,68,6845,1,0,0:0:0:0:
87,231,7024,2,0,P|74:267|60:309,1,71.9999978027344,2|0,0:1|0:0,0:0:0:0:
191,192,7381,2,0,P|188:155|179:104,1,71.9999978027344,2|0,0:1|0:0,0:0:0:0:
253,275,7738,5,2,0:1:0:0:
253,275,7917,1,0,0:0:0:0:
69,318,8095,1,2,0:1:0:0:
69,318,8274,1,0,0:0:0:0:
274,196,8453,2,0,P|316:203|355:211,1,71.9999978027344,2|2,0:1|0:1,0:0:0:0:
158,314,8810,2,0,P|118:322|73:330,1,71.9999978027344,2|2,0:1|0:1,0:0:0:0:
323,335,9167,5,2,0:1:0:0:
323,335,9345,1,0,0:0:0:0:
189,205,9524,1,2,0:1:0:0:
189,205,9703,1,0,0:0:0:0:
355,123,9881,2,0,P|341:166|331:203,1,71.9999978027344,2|0,0:1|0:0,0:0:0:0:
223,276,10238,2,0,P|239:321|248:360,1,71.9999978027344,2|0,0:1|0:0,0:0:0:0:
462,261,10595,6,0,P|480:251|514:241,2,40,6|0|0,0:1|0:0|0:0,0:0:0:0:
464,298,11131,6,0,P|414:260|326:279,1,143.999995605469,2|2,0:1|0:0,0:0:0:0:
269,321,11578,1,2,0:0:0:0:
269,321,11667,1,8,0:0:0:0:
259,235,12024,5,6,0:0:0:0:
305,83,12203,1,0,0:0:0:0:
77,103,12381,2,0,L|208:128,1,120,8|8,0:0|0:0,0:0:0:0:
225,121,12738,1,2,0:0:0:0:
225,121,12917,1,2,0:0:0:0:
111,268,13095,1,8,0:0:0:0:
111,268,13274,1,0,0:0:0:0:
1,160,13453,5,2,0:0:0:0:
193,42,13631,1,2,0:0:0:0:
40,29,13810,2,0,P|57:74|70:118,1,80,8|0,0:0|0:0,0:0:0:0:
282,73,14167,5,2,0:0:0:0:
282,73,14345,1,2,0:0:0:0:
121,10,14524,1,8,0:0:0:0:
121,10,14703,1,0,0:0:0:0:
213,160,14881,5,2,0:0:0:0:
403,80,15060,1,0,0:0:0:0:
224,168,15238,6,0,L|242:222,1,40,10|0,0:1|0:0,0:0:0:0:
270,278,15417,2,0,L|278:220,1,40,2|8,0:1|0:0,0:0:0:0:
321,134,15595,2,0,L|319:190,1,40,2|0,3:1|0:0,0:0:0:0:
360,281,15774,2,0,L|355:214,1,40,2|0,3:1|0:0,0:0:0:0:
416,125,15953,2,0,L|391:185,1,40,10|0,0:1|0:0,0:0:0:0:
447,279,16131,2,0,L|433:224,1,40,2|0,0:1|0:0,0:0:0:0:
402,40,16310,5,2,3:1:0:0:
350,59,16399,1,2,0:1:0:0:
298,38,16488,1,2,3:1:0:0:
245,34,16578,1,2,0:1:0:0:
211,82,16667,5,10,0:1:0:0:
176,94,16756,1,2,0:1:0:0:
138,90,16845,1,2,0:1:0:0:
104,70,16935,1,2,0:1:0:0:
85,38,17024,6,0,L|97:-1,1,40,2|0,3:1|0:0,0:0:0:0:
149,243,17203,2,0,L|140:203,1,40,2|0,3:1|0:0,0:0:0:0:
44,108,17381,6,0,L|70:61,1,40,10|0,0:1|0:0,0:0:0:0:
158,319,17560,2,0,L|149:251,1,40,2|0,0:1|0:0,0:0:0:0:
56,199,17738,5,6,0:0:0:0:
236,249,17917,1,0,0:0:0:0:
66,359,18095,2,0,L|204:331,1,120,8|8,0:0|0:0,0:0:0:0:
208,338,18453,1,2,0:0:0:0:
208,338,18631,1,2,0:0:0:0:
265,168,18810,1,8,0:0:0:0:
265,168,18988,1,0,0:0:0:0:
414,247,19167,5,2,0:0:0:0:
243,259,19345,1,2,0:0:0:0:
466,182,19524,2,0,P|454:233|442:293,1,80,8|0,0:0|0:0,0:0:0:0:
301,325,19881,5,2,0:0:0:0:
301,325,20060,1,2,0:0:0:0:
185,196,20238,1,8,0:0:0:0:
185,196,20417,1,0,0:0:0:0:
348,131,20595,5,2,0:0:0:0:
299,305,20774,1,2,0:0:0:0:
116,166,20953,2,0,L|253:184,1,120,8|0,0:0|0:0,0:0:0:0:
264,186,21310,1,2,0:0:0:0:
264,186,21488,1,2,0:0:0:0:
85,304,21667,1,8,0:0:0:0:
85,304,21845,1,0,0:0:0:0:
50,91,22024,5,2,0:0:0:0:
184,204,22203,1,2,0:0:0:0:
0,252,22381,1,8,0:0:0:0:
183,253,22560,2,0,L|199:198,1,40
85,304,22738,5,2,0:0:0:0:
111,301,22828,1,2,0:0:0:0:
136,315,22917,1,2,0:0:0:0:
172,329,23006,1,2,0:0:0:0:
202,328,23095,5,2,0:0:0:0:
226,321,23185,1,2,0:0:0:0:
250,319,23274,1,2,0:0:0:0:
271,323,23363,1,2,0:0:0:0:
289,329,23453,6,0,P|338:308|378:306,1,80,6|0,0:0|0:0,0:0:0:0:
421,227,23988,1,2,0:1:0:0:
430,232,24167,2,0,L|304:209,1,120,2|0,0:1|0:0,0:0:0:0:
228,181,24881,2,0,P|244:141|252:115,1,60,2|0,0:1|0:0,0:0:0:0:
223,84,25238,1,2,0:1:0:0:
231,95,25417,2,0,L|309:108,1,80,2|0,0:1|0:0,0:0:0:0:
439,47,26131,5,2,0:1:0:0:
474,116,26310,2,0,L|380:129,1,80,2|0,0:1|0:0,0:0:0:0:
328,194,26845,1,2,0:1:0:0:
312,199,27024,2,0,P|359:198|423:253,1,120,2|0,0:1|0:0,0:0:0:0:
479,291,27738,6,0,P|471:322|466:343,1,40,2|0,0:1|0:0,0:0:0:0:
390,359,28095,2,0,L|383:304,2,40,2|0|0,0:1|0:0|0:0,0:0:0:0:
294,274,28631,2,0,L|278:322,1,40,2|0,0:1|0:0,0:0:0:0:
197,321,28988,1,2,0:1:0:0:
205,183,29167,6,0,L|263:193,1,40,2|0,0:1|0:0,0:0:0:0:
53,244,29524,2,0,L|7:250,1,40,2|0,0:1|0:0,0:0:0:0:
154,243,29881,1,2,0:1:0:0:
138,233,30060,2,0,P|121:201|129:152,1,80,2|0,0:1|0:0,0:0:0:0:
150,77,30595,6,0,P|143:50|137:28,1,40,2|0,0:1|0:0,0:0:0:0:
252,13,30953,2,0,L|243:57,2,40,2|0|0,0:1|0:0|0:0,0:0:0:0:
346,100,31488,2,0,L|335:61,1,40,2|0,0:1|0:0,0:0:0:0:
456,78,31845,1,2,0:1:0:0:
288,171,32024,6,0,L|240:159,1,40,2|0,0:1|0:0,0:0:0:0:
466,213,32381,2,0,L|512:202,1,40,2|0,0:1|0:0,0:0:0:0:
395,155,32738,1,2,0:1:0:0:
384,165,32917,2,0,P|373:191|375:256,1,80,2|0,0:1|0:0,0:0:0:0:
430,311,33453,6,0,L|419:358,2,40,2|0|0,0:1|0:0|0:0,0:0:0:0:
495,229,33988,2,0,L|505:286,2,40,2|0|0,0:1|0:0|0:0,0:0:0:0:
497,349,34524,2,0,P|449:327|429:323,1,60,6|0,0:1|0:0,0:0:0:0:
408,323,34881,6,0,P|365:301|343:238,1,96,6|0,0:0|0:0,0:0:0:0:
344,237,35238,1,8,0:0:0:0:
353,226,35595,6,0,P|319:251|231:203,1,128,2|8,0:0|0:0,0:0:0:0:
139,177,36131,1,2,0:1:0:0:
150,172,36310,2,0,L|125:302,1,128,2|8,0:0|0:0,0:0:0:0:
202,350,36845,2,0,P|241:335|286:323,1,64,2|2,0:1|0:0,0:0:0:0:
101,236,37203,2,0,P|48:227|20:221,1,64,2|8,0:1|0:0,0:0:0:0:
252,141,37560,1,2,0:1:0:0:
262,134,37738,6,0,P|257:98|177:58,1,128,2|8,0:0|0:0,0:0:0:0:
67,23,38274,1,0,0:0:0:0:
55,38,38453,2,0,P|47:79|41:117,1,64,2|0,0:0|0:0,0:0:0:0:
112,157,38810,2,0,P|148:147|189:139,1,64,8|0,0:0|0:0,0:0:0:0:
299,201,39167,5,2,0:0:0:0:
299,201,39345,1,0,0:0:0:0:
359,139,39524,2,0,P|347:186|338:218,1,64,8|0,0:0|0:0,0:0:0:0:
306,287,39881,1,2,0:0:0:0:
286,117,40060,1,2,0:1:0:0:
391,271,40238,1,8,0:0:0:0:
409,86,40417,6,0,P|356:97|269:123,1,128,2|0,0:1|0:0,0:0:0:0:
131,131,40953,2,0,P|163:94|149:40,1,96,8|0,0:0|0:0,0:0:0:0:
118,39,41310,1,2,0:0:0:0:
215,223,41488,1,2,0:1:0:0:
25,164,41667,1,8,0:0:0:0:
272,275,41845,6,0,P|207:258|144:246,1,128,2|0,0:1|0:0,0:0:0:0:
21,246,42381,2,0,P|8:280|1:310,1,64,8|0,0:0|0:0,0:0:0:0:
67,367,42738,1,2,0:0:0:0:
128,174,42917,1,2,0:1:0:0:
74,345,43095,1,8,0:0:0:0:
0,152,43274,6,0,P|33:96|103:116,1,128,2|0,0:1|0:0,0:0:0:0:
239,161,43810,2,0,P|222:206|206:273,1,96,8|0,0:0|0:0,0:0:0:0:
209,273,44167,1,2,0:0:0:0:
48,45,44345,1,2,0:1:0:0:
248,52,44524,1,8,0:0:0:0:
18,149,44703,2,0,P|67:131|106:119,1,64,2|0,0:1|0:0,0:0:0:0:
188,199,45060,5,2,0:1:0:0:
327,65,45238,2,0,L|317:126,1,32,12|0,0:0|0:0,0:0:0:0:
315,178,45417,5,2,0:1:0:0:
203,121,45595,1,2,0:0:0:0:
330,297,45774,1,8,0:0:0:0:
493,151,45953,1,2,0:0:0:0:
448,126,46042,1,2,0:0:0:0:
397,125,46131,1,2,0:0:0:0:
350,144,46220,1,2,0:0:0:0:
315,178,46310,5,12,0:0:0:0:
279,153,46488,6,0,L|305:226,1,64,2|2,0:1|0:0,0:0:0:0:
390,41,46845,5,8,0:0:0:0:
482,49,47024,2,0,L|388:36,1,64,2|0,0:0|0:0,0:0:0:0:
402,244,47381,5,8,0:0:0:0:
416,210,47560,5,2,0:0:0:0:
423,235,47649,1,2,0:0:0:0:
431,254,47738,1,8,0:0:0:0:
236,322,47917,5,2,0:1:0:0:
332,312,48095,2,0,L|252:300,1,64,2|8,0:0|0:0,0:0:0:0:
54,225,48453,6,0,P|109:198|166:186,1,96,2|0,0:0|0:0,0:0:0:0:
175,190,48810,2,0,P|131:161|92:155,1,64,2|2,0:0|0:0,0:0:0:0:
39,143,49078,1,2,0:0:0:0:
39,143,49167,5,12,0:0:0:0:
170,83,49345,1,2,0:1:0:0:
160,269,49524,5,2,0:0:0:0:
181,94,49703,1,8,0:0:0:0:
0,77,49881,5,2,0:0:0:0:
192,105,50060,2,0,P|245:93|302:88,1,96,8|0,0:0|0:0,0:0:0:0:
363,39,50417,1,2,0:0:0:0:
375,58,50506,1,2,0:0:0:0:
380,78,50595,6,0,L|371:128,1,32,2|0,0:0|0:0,0:0:0:0:
324,296,50774,2,0,L|277:275,1,32,8|0,0:0|0:0,0:0:0:0:
103,186,50953,2,0,L|148:168,1,32,8|0,0:0|0:0,0:0:0:0:
256,192,51131,1,2,0:1:0:0:
167,324,51310,5,2,0:0:0:0:
17,271,51488,1,2,0:0:0:0:
22,243,51578,1,2,0:0:0:0:
29,215,51667,2,0,P|84:227|115:235,1,64,2|2,0:0|0:0,0:0:0:0:
223,165,51935,1,2,0:0:0:0:
212,134,52024,5,12,0:0:0:0:
146,98,52203,6,0,L|220:114,1,64,2|2,0:1|0:0,0:0:0:0:
53,15,52560,5,8,0:0:0:0:
7,95,52738,2,0,L|22:21,1,64,2|8,0:0|0:0,0:0:0:0:
176,238,53095,5,2,0:0:0:0:
93,243,53274,5,2,0:0:0:0:
119,232,53363,1,2,0:0:0:0:
144,221,53453,1,8,0:0:0:0:
51,364,53631,5,2,0:1:0:0:
10,274,53810,2,0,P|15:316|17:353,1,64,2|8,0:0|0:0,0:0:0:0:
199,159,54167,5,2,0:0:0:0:
137,313,54345,1,8,0:0:0:0:
118,130,54524,1,2,0:0:0:0:
219,303,54703,1,2,0:0:0:0:
239,287,54792,1,2,0:0:0:0:
261,279,54881,6,0,B|323:270|297:324|387:333,1,128,12|2,0:0|0:0,0:0:0:0:
501,204,55417,2,0,P|451:210|402:236,1,96,8|0,0:0|0:0,0:0:0:0:
397,244,55774,1,8,0:0:0:0:
469,89,55953,1,2,0:0:0:0:
481,303,56131,1,12,0:0:0:0:
343,57,56310,5,2,0:0:0:0:
375,329,56488,1,8,0:0:0:0:
469,89,56667,1,8,0:0:0:0:
285,205,56845,2,0,P|258:194|229:177,1,32,2|2,0:0|0:0,0:0:0:0:
180,161,57024,2,0,L|283:141,1,96,8|0,0:0|0:0,0:0:0:0:
347,151,57381,6,0,P|286:136|247:64,1,120,12|0,0:0|0:0,0:0:0:0:
249,16,57738,5,6,0:0:0:0:
18,83,58006,1,8,0:0:0:0:
29,74,58095,2,0,L|20:129,1,40,2|0,0:0|0:0,0:0:0:0:
115,297,58274,2,0,L|102:245,1,40,8|0,0:0|0:0,0:0:0:0:
0,222,58453,2,0,P|52:191|93:191,1,80,2|0,0:0|0:0,0:0:0:0:
216,226,58810,1,8,0:0:0:0:
24,303,58988,1,2,0:0:0:0:
124,103,59167,5,8,0:0:0:0:
187,336,59435,1,8,0:0:0:0:
199,346,59524,2,0,L|213:295,1,40,2|0,0:0|0:0,0:0:0:0:
332,122,59703,2,0,L|341:168,1,40,8|0,0:0|0:0,0:0:0:0:
179,222,59881,5,2,0:0:0:0:
202,216,59970,1,2,0:0:0:0:
225,212,60060,1,2,0:0:0:0:
248,210,60149,1,2,0:0:0:0:
280,226,60238,5,8,0:0:0:0:
313,240,60328,1,2,0:0:0:0:
348,243,60417,1,2,0:0:0:0:
383,235,60506,1,2,0:0:0:0:
414,218,60595,6,0,P|420:195|422:173,1,40,6|0,0:0|0:0,0:0:0:0:
373,47,60774,5,2,0:0:0:0:
373,47,60863,1,2,0:0:0:0:
373,47,60953,2,0,L|434:38,1,44.0000013427735,8|0,0:0|0:0,0:0:0:0:
297,142,61131,1,2,0:0:0:0:
297,142,61220,1,2,0:0:0:0:
297,142,61310,2,0,L|350:163,1,47.9999985351563,8|0,0:0|0:0,0:0:0:0:
179,57,61488,5,2,0:0:0:0:
179,57,61578,1,2,0:0:0:0:
179,57,61667,2,0,P|210:50|251:39,1,51.999997619629,8|0,0:0|0:0,0:0:0:0:
215,258,61845,1,2,0:0:0:0:
215,258,61935,1,2,0:0:0:0:
215,258,62024,2,0,P|243:263|270:272,1,55.9999982910157,8|0,0:0|0:0,0:0:0:0:
6,72,62203,5,2,0:0:0:0:
6,72,62292,1,2,0:0:0:0:
6,72,62381,2,0,P|41:68|73:61,1,60.0000022888184,8|0,0:0|0:0,0:0:0:0:
69,335,62560,1,2,0:0:0:0:
69,335,62649,1,2,0:0:0:0:
69,335,62738,2,0,P|102:342|132:349,1,64,8|0,0:0|0:0,0:0:0:0:
224,168,62917,2,0,P|190:175|150:181,1,64,2|0,0:0|0:0,0:0:0:0:
289,320,63095,5,2,0:0:0:0:
332,301,63185,1,2,0:0:0:0:
355,264,63274,1,2,0:0:0:0:
365,221,63363,1,2,0:0:0:0:
346,176,63453,6,0,P|371:249|397:307,1,120,12|0,0:0|0:0,0:0:0:0:
406,315,63810,1,2,0:0:0:0:
282,231,63988,1,8,0:0:0:0:
465,163,64167,1,8,0:0:0:0:
397,336,64345,1,2,0:0:0:0:
397,336,64435,1,2,0:0:0:0:
397,336,64524,1,2,0:0:0:0:
366,98,64703,1,8,0:0:0:0:
512,257,64881,6,0,L|408:238,1,80,12|8,0:0|0:0,0:0:0:0:
282,233,65149,1,8,0:0:0:0:
286,243,65238,2,0,L|272:341,1,80,2|8,0:0|0:0,0:0:0:0:
104,339,65506,1,8,0:0:0:0:
108,326,65595,2,0,L|180:342,2,40,2|0|0,0:0|0:0|0:0,0:0:0:0:
18,222,65953,5,8,0:0:0:0:
23,206,66042,1,8,0:0:0:0:
27,190,66131,1,2,0:0:0:0:
32,174,66220,1,2,0:0:0:0:
36,159,66310,5,12,0:0:0:0:
208,269,66488,1,2,0:0:0:0:
5,326,66667,1,2,0:0:0:0:
137,104,66845,5,12,0:0:0:0:
185,347,67024,1,2,0:0:0:0:
240,61,67203,1,2,0:0:0:0:
38,159,67381,6,0,L|92:172,1,40,12|0,0:0|0:0,0:0:0:0:
318,257,67560,2,0,L|268:265,1,40,2|0,0:0|0:0,0:0:0:0:
0,181,67738,6,0,B|82:117|127:241|216:217,1,223.999993164063,12|0,0:0|0:0,0:0:0:0:
216,217,68631,6,0,P|211:231|206:267,1,27.9999991455078,2|0,0:1|0:0,0:0:0:0:
169,238,68810,6,0,P|176:257|194:287,1,35.9999989013672,2|0,0:1|0:0,0:0:0:0:
141,278,68988,6,0,P|165:298|188:307,1,47.9999985351563,2|0,0:1|0:0,0:0:0:0:
128,327,69167,6,0,P|191:336|236:319,1,80,6|0,3:1|0:0,0:0:0:0:
434,281,69524,2,0,P|370:267|279:253,1,120,8|0,0:0|0:0,0:0:0:0:
294,256,69881,1,2,0:0:0:0:
495,161,70060,1,2,0:0:0:0:
256,320,70238,2,0,P|264:259|261:178,1,120,8|0,0:0|0:0,0:0:0:0:
214,145,70595,6,0,P|270:164|356:184,1,120,2|0,0:0|0:0,0:0:0:0:
355,176,70953,1,8,0:0:0:0:
144,239,71131,1,2,0:0:0:0:
344,70,71310,1,2,0:1:0:0:
311,260,71488,1,2,0:0:0:0:
137,120,71667,2,0,P|199:105|267:100,1,120,10|0,0:1|0:0,0:0:0:0:
280,32,72024,6,0,L|252:179,1,143.999995605469,2|0,0:0|0:0,0:0:0:0:
252,194,72381,1,8,0:0:0:0:
167,25,72560,1,2,0:1:0:0:
208,283,72738,1,2,0:0:0:0:
208,283,72917,1,2,0:0:0:0:
337,149,73095,1,8,0:0:0:0:
322,316,73274,6,0,P|278:297|176:282,1,120,2|0,0:1|0:0,0:0:0:0:
185,289,73631,1,2,0:1:0:0:
408,287,73810,1,8,0:0:0:0:
91,354,73988,2,0,P|107:249|110:215,1,120,2|0,0:0|0:0,0:0:0:0:
76,169,74345,2,0,L|137:154,1,40,2|0,0:0|0:0,0:0:0:0:
404,100,74524,1,10,0:1:0:0:
404,100,74881,5,6,0:0:0:0:
215,192,75060,1,2,0:1:0:0:
255,23,75238,1,8,0:0:0:0:
452,215,75417,1,2,0:1:0:0:
443,32,75595,2,0,P|433:77|420:130,1,80,2|2,0:0|0:0,0:0:0:0:
361,298,75953,1,8,0:0:0:0:
325,59,76131,1,2,0:1:0:0:
354,320,76310,6,0,P|326:313|306:309,1,40,2|0,0:0|0:0,0:0:0:0:
143,268,76488,2,0,L|281:247,1,120,2|0,0:1|0:0,0:0:0:0:
270,178,76845,6,0,P|299:235|354:176,1,143.999995605469,2|0,0:0|0:0,0:0:0:0:
355,176,77203,1,2,0:0:0:0:
168,360,77381,1,10,0:1:0:0:
176,96,77560,1,2,0:1:0:0:
300,355,77738,6,0,L|167:336,1,120,6|0,0:0|0:0,0:0:0:0:
141,273,78095,2,0,P|78:274|30:321,1,120,8|0,0:0|0:0,0:0:0:0:
27,331,78453,1,2,0:0:0:0:
35,196,78631,1,2,0:0:0:0:
113,351,78810,1,10,0:1:0:0:
189,109,78988,5,2,0:1:0:0:
303,315,79167,2,0,L|296:385,1,40,2|0,0:0|0:0,0:0:0:0:
437,108,79345,2,0,L|492:92,1,40,8|0,0:0|0:0,0:0:0:0:
176,125,79524,2,0,L|119:111,1,40,2|0,0:0|0:0,0:0:0:0:
479,298,79703,6,0,P|442:284|404:274,1,80,14|0,0:1|0:0,0:0:0:0:
188,281,80060,1,2,0:0:0:0:
326,177,80238,1,8,0:0:0:0:
336,138,80328,1,8,0:0:0:0:
306,105,80417,1,8,0:0:0:0:
300,65,80506,1,8,0:0:0:0:
319,27,80595,6,0,P|261:36|211:43,1,80,6|0,3:1|0:0,0:0:0:0:
1,101,80953,2,0,P|66:106|137:140,1,120,8|0,0:0|0:0,0:0:0:0:
134,144,81310,1,2,3:1:0:0:
14,291,81488,1,2,0:0:0:0:
176,74,81667,2,0,P|164:154|155:218,1,120,8|0,0:0|0:0,0:0:0:0:
144,263,82024,6,0,P|196:245|262:267,1,120,6|0,0:0|0:0,0:0:0:0:
273,279,82381,1,8,0:0:0:0:
74,223,82560,1,2,0:0:0:0:
327,200,82738,1,2,0:1:0:0:
199,346,82917,1,2,0:0:0:0:
319,210,83095,2,0,L|450:189,1,120,10|0,0:1|0:0,0:0:0:0:
474,254,83453,6,0,P|456:191|440:85,1,143.999995605469,6|0,0:0|0:0,0:0:0:0:
388,62,83810,2,0,P|407:19|481:11,1,120,8|0,0:0|0:0,0:0:0:0:
495,21,84167,1,2,0:0:0:0:
361,141,84345,1,2,0:0:0:0:
318,1,84524,1,8,0:0:0:0:
503,165,84703,6,0,L|378:141,1,120,2|0,0:1|0:0,0:0:0:0:
361,141,85060,1,2,0:1:0:0:
311,329,85238,1,8,0:0:0:0:
153,240,85417,2,0,P|227:241|263:300,1,120,2|0,0:0|0:0,0:0:0:0:
311,329,85774,2,0,P|299:351|286:365,1,40,2|0,0:0|0:0,0:0:0:0:
13,192,85953,1,10,0:1:0:0:
17,203,86310,5,6,0:0:0:0:
179,334,86488,1,2,0:1:0:0:
130,165,86667,1,8,0:0:0:0:
69,367,86845,1,2,0:1:0:0:
0,122,87024,1,2,3:1:0:0:
0,122,87203,1,2,0:0:0:0:
203,90,87381,5,8,0:0:0:0:
179,334,87560,1,2,0:1:0:0:
87,63,87738,2,0,L|232:97,1,120,2|0,0:0|0:0,0:0:0:0:
280,68,88095,2,0,P|288:92|294:119,1,40,8|0,0:0|0:0,0:0:0:0:
232,273,88274,1,2,0:0:0:0:
123,250,88453,1,2,0:1:0:0:
344,215,88631,1,2,0:0:0:0:
10,354,88810,2,0,L|19:269,1,80,10|0,0:1|0:0,0:0:0:0:
31,158,89167,5,6,0:0:0:0:
229,269,89345,1,2,0:1:0:0:
168,103,89524,1,8,0:0:0:0:
95,322,89703,1,2,0:1:0:0:
80,78,89881,1,2,3:1:0:0:
80,78,90060,1,2,0:0:0:0:
280,324,90238,5,8,0:0:0:0:
384,24,90417,1,2,0:1:0:0:
397,354,90595,2,0,L|273:323,1,120,2|0,0:0|0:0,0:0:0:0:
207,303,90953,2,0,P|203:275|202:256,1,40,8|0,0:0|0:0,0:0:0:0:
235,78,91131,1,2,0:0:0:0:
364,218,91310,2,0,P|308:228|250:233,1,80,2|2,0:1|0:0,0:0:0:0:
210,181,91578,1,2,0:1:0:0:
196,168,91667,2,0,P|141:163|93:190,1,80,8|8,0:0|0:0,0:0:0:0:
58,229,91935,1,8,0:0:0:0:
58,229,92024,5,6,0:0:0:0:
288,145,92203,1,2,0:1:0:0:
218,332,92381,5,8,0:0:0:0:
148,85,92560,1,8,0:0:0:0:
77,382,92738,1,8,0:0:0:0:
337,224,92917,1,8,0:0:0:0:
0,138,93095,1,8,0:0:0:0:
389,71,93274,1,8,0:0:0:0:
211,357,93453,6,0,B|257:230|257:230|271:286|314:299,1,220,12|0,0:0|0:0,0:0:0:0:
320,299,94524,1,8,0:0:0:0:
493,222,94881,5,6,0:0:0:0:
493,222,95060,1,2,0:0:0:0:
443,353,95238,1,8,0:0:0:0:
443,353,95417,1,2,0:1:0:0:
405,136,95595,5,8,0:0:0:0:
420,269,95774,1,2,0:0:0:0:
405,136,95953,1,8,0:0:0:0:
420,269,96131,1,2,0:0:0:0:
144,174,96310,5,6,0:0:0:0:
144,174,96488,1,2,0:1:0:0:
276,191,96667,1,8,0:0:0:0:
276,191,96845,1,2,0:0:0:0:
190,283,97024,1,8,0:0:0:0:
352,237,97203,1,2,0:0:0:0:
190,283,97381,1,8,0:0:0:0:
352,237,97560,2,0,L|411:225,1,40,2|0,0:0|0:0,0:0:0:0:
252,357,97738,5,12,0:0:0:0:
91,232,97917,1,2,0:0:0:0:
143,369,98095,1,8,0:0:0:0:
249,171,98274,1,2,0:0:0:0:
357,354,98453,1,8,0:0:0:0:
191,281,98631,2,0,L|146:291,1,40,2|0,0:0|0:0,0:0:0:0:
303,267,98810,5,8,0:0:0:0:
58,326,98988,1,2,0:0:0:0:
79,139,99167,1,8,0:0:0:0:
249,171,99345,1,2,0:0:0:0:
14,210,99524,2,0,P|55:221|116:240,1,80,8|2,0:0|0:0,0:0:0:0:
303,267,99881,5,8,0:0:0:0:
267,277,99970,1,2,0:0:0:0:
229,288,100060,1,2,0:0:0:0:
192,301,100149,1,2,0:0:0:0:
151,314,100238,5,8,0:0:0:0:
186,285,100328,1,2,0:0:0:0:
239,292,100417,1,2,0:0:0:0:
286,316,100506,1,2,0:0:0:0:
339,311,100595,6,0,P|356:266|350:201,1,80,12|0,0:0|0:0,0:0:0:0:
327,140,100953,1,8,0:0:0:0:
327,140,101131,1,2,0:0:0:0:
446,241,101310,5,8,0:0:0:0:
253,198,101488,1,2,0:0:0:0:
446,241,101667,1,8,0:0:0:0:
253,198,101845,1,2,0:0:0:0:
435,84,102024,6,0,P|421:122|409:177,1,80,12|0,0:0|0:0,0:0:0:0:
403,325,102381,1,8,0:0:0:0:
403,325,102560,1,2,0:0:0:0:
478,241,102738,5,12,0:0:0:0:
315,343,102917,1,2,0:0:0:0:
478,241,103095,1,8,0:0:0:0:
315,343,103274,1,8,0:0:0:0:
210,242,103453,5,12,0:0:0:0:
421,304,103631,1,2,0:1:0:0:
378,213,103810,1,8,0:0:0:0:
202,339,103988,1,2,0:0:0:0:
280,160,104167,1,8,0:0:0:0:
308,304,104345,2,0,L|317:353,1,40,2|0,0:0|0:0,0:0:0:0:
210,242,104524,5,8,0:0:0:0:
280,160,104703,2,0,P|289:132|293:114,1,40,2|0,0:0|0:0,0:0:0:0:
204,79,104881,6,0,P|182:39|174:-9,1,80,6|2,0:0|0:0,0:0:0:0:
93,117,105238,1,8,0:0:0:0:
308,33,105417,1,2,0:0:0:0:
319,34,105506,1,2,0:0:0:0:
332,38,105595,1,8,0:0:0:0:
399,93,105774,6,0,P|391:118|384:136,1,40,8|0,0:0|0:0,0:0:0:0:
60,199,105953,2,0,L|18:186,3,40,8|0|0|0,0:0|0:0|0:0|0:0,0:0:0:0:
72,224,106310,6,0,P|118:205|162:189,2,71.9999978027344,6|0|0,0:0|0:0|0:0,0:0:0:0:
218,312,106845,2,0,P|172:295|138:283,2,71.9999978027344,2|0|0,0:0|0:0|0:0,0:0:0:0:
216,99,107381,2,0,L|240:224,1,107.999996704102,6|0,0:0|0:0,0:0:0:0:
241,228,107738,1,8,0:0:0:0:
368,255,107917,6,0,L|408:241,1,35.9999989013672,6|0,0:0|0:0,0:0:0:0:
291,361,108095,1,2,0:1:0:0:
218,312,108274,1,2,0:1:0:0:
415,326,108453,6,0,L|460:316,1,35.9999989013672,6|0,0:0|0:0,0:0:0:0:
241,228,108631,1,2,0:1:0:0:
308,75,108810,1,8,0:0:0:0:
308,75,108899,1,8,0:0:0:0:
308,75,108988,2,0,L|299:121,1,35.9999989013672,2|0,0:1|0:0,0:0:0:0:
338,179,109167,6,0,P|356:121|423:112,1,107.999996704102,6|0,0:0|0:0,0:0:0:0:
420,112,109524,1,8,0:0:0:0:
225,54,109703,1,2,0:0:0:0:
363,22,109881,1,2,0:1:0:0:
227,135,110060,2,0,L|173:125,1,35.9999989013672,2|0,0:0|0:0,0:0:0:0:
131,27,110238,2,0,L|158:142,1,107.999996704102,8|0,0:0|0:0,0:0:0:0:
171,212,110595,6,0,P|156:233|142:248,3,35.9999989013672,2|0|0|0,3:1|0:0|0:0|0:0,0:0:0:0:
110,309,110953,2,0,P|87:304|70:297,3,35.9999989013672,2|0|0|0,0:1|0:0|0:0|0:0,0:0:0:0:
8,258,111310,5,8,0:0:0:0:
43,231,111399,1,2,0:0:0:0:
93,229,111488,1,2,0:0:0:0:
140,244,111578,1,10,0:0:0:0:
188,271,111667,5,8,0:0:0:0:
239,283,111756,1,8,0:0:0:0:
294,271,111846,1,8,0:0:0:0:
334,237,111935,1,8,0:0:0:0:
347,185,112024,5,2,0:0:0:0:
337,166,112381,6,0,L|352:311,1,143.999995605469,12|0,0:0|0:0,0:0:0:0:
239,198,112917,1,2,0:0:0:0:
438,285,113095,1,8,0:0:0:0:
282,358,113274,1,2,0:1:0:0:
334,237,113453,5,2,0:0:0:0:
317,365,113631,6,0,L|267:355,1,35.9999989013672,2|0,0:1|0:0,0:0:0:0:
415,203,113810,2,0,L|459:196,1,35.9999989013672,8|0,0:0|0:0,0:0:0:0:
238,117,113988,2,0,L|195:110,1,35.9999989013672,2|0,0:0|0:0,0:0:0:0:
334,237,114167,5,2,0:0:0:0:
434,72,114345,1,2,0:0:0:0:
512,248,114524,1,8,0:0:0:0:
338,119,114703,1,2,0:1:0:0:
415,290,114881,5,2,0:0:0:0:
427,302,115238,6,0,L|273:273,1,143.999995605469,12|0,0:0|0:0,0:0:0:0:
415,203,115774,1,2,0:0:0:0:
280,360,115953,1,8,0:0:0:0:
282,183,116131,5,2,0:1:0:0:
282,183,116310,1,2,0:0:0:0:
374,373,116488,1,2,0:1:0:0:
374,373,116667,1,8,0:0:0:0:
360,137,116845,1,2,0:1:0:0:
360,137,117024,1,2,0:0:0:0:
355,288,117203,5,8,0:0:0:0:
455,126,117381,1,8,0:0:0:0:
278,92,117560,1,2,0:0:0:0:
343,293,117738,6,0,P|410:279|466:269,1,107.999996704102,6|0,0:0|0:0,0:0:0:0:
465,274,118095,1,8,0:0:0:0:
265,304,118274,2,0,L|221:282,1,35.9999989013672,2|0,0:1|0:0,0:0:0:0:
203,214,118453,2,0,L|179:338,1,107.999996704102,2|0,0:0|0:0,0:0:0:0:
115,341,118810,2,0,P|177:314|230:348,1,107.999996704102,8|0,0:0|0:0,0:0:0:0:
229,340,119167,5,2,0:0:0:0:
108,241,119345,1,2,0:1:0:0:
290,189,119524,2,0,L|273:231,1,35.9999989013672,8|0,0:0|0:0,0:0:0:0:
194,264,119703,1,2,0:1:0:0:
119,157,119881,1,2,0:0:0:0:
297,105,120060,2,0,P|257:111|216:139,1,71.9999978027344,2|8,0:1|0:0,0:0:0:0:
27,147,120417,1,2,0:1:0:0:
162,78,120595,6,0,L|10:47,1,143.999995605469,6|8,0:0|0:0,0:0:0:0:
325,29,121131,1,2,0:1:0:0:
325,29,121310,2,0,L|301:123,1,71.9999978027344,2|0,0:0|0:0,0:0:0:0:
212,245,121667,1,8,0:0:0:0:
390,160,121845,2,0,L|374:111,1,35.9999989013672,2|0,0:1|0:0,0:0:0:0:
272,340,122024,6,0,P|284:294|302:240,1,71.9999978027344,2|0,0:0|0:0,0:0:0:0:
262,174,122292,1,2,0:1:0:0:
250,164,122381,2,0,L|193:182,1,35.9999989013672,8|0,0:0|0:0,0:0:0:0:
121,223,122560,2,0,P|161:245|198:289,1,71.9999978027344,2|0,0:1|0:0,0:0:0:0:
280,353,122917,6,0,P|299:347|321:338,1,35.9999989013672,2|0,0:0|0:0,0:0:0:0:
494,257,123095,2,0,P|469:249|439:237,1,35.9999989013672,8|0,0:0|0:0,0:0:0:0:
257,347,123274,2,0,P|283:339|307:328,1,35.9999989013672,2|0,0:1|0:0,0:0:0:0:
512,249,123453,6,0,P|464:264|413:325,1,107.999996704102,2|0,0:0|0:0,0:0:0:0:
411,327,123810,1,8,0:0:0:0:
328,202,123988,1,2,0:1:0:0:
509,271,124167,1,2,0:0:0:0:
271,351,124345,1,2,0:1:0:0:
350,125,124524,1,8,0:0:0:0:
296,279,124703,6,0,B|259:252|259:252|132:270,1,143.999995605469,2|0,0:1|0:0,0:0:0:0:
49,300,125149,1,2,0:1:0:0:
39,314,125238,2,0,P|45:335|57:360,1,35.9999989013672,8|0,0:0|0:0,0:0:0:0:
146,264,125417,2,0,P|156:242|164:222,1,35.9999989013672,2|0,0:1|0:0,0:0:0:0:
8,198,125595,1,2,0:0:0:0:
143,350,125774,5,2,0:1:0:0:
71,142,125953,1,8,0:0:0:0:
247,250,126131,1,2,0:1:0:0:
0,277,126310,6,0,P|70:260|121:249,1,107.999996704102,2|0,0:0|0:0,0:0:0:0:
133,251,126667,1,8,0:0:0:0:
187,143,126845,1,2,0:1:0:0:
82,357,127024,1,2,0:0:0:0:
13,158,127203,1,2,0:1:0:0:
239,265,127381,1,8,0:0:0:0:
0,141,127560,6,0,B|33:114|33:114|146:132,1,143.999995605469,2|0,0:1|0:0,0:0:0:0:
266,80,128006,1,2,0:1:0:0:
275,73,128095,2,0,P|274:46|271:22,1,35.9999989013672,2|0,0:0|0:0,0:0:0:0:
147,144,128274,2,0,P|152:169|161:200,1,35.9999989013672,2|0,0:1|0:0,0:0:0:0:
335,171,128453,1,2,0:0:0:0:
57,207,128631,2,0,L|80:257,1,35.9999989013672,2|0,0:1|0:0,0:0:0:0:
324,248,128810,1,8,0:0:0:0:
283,239,128899,1,8,0:0:0:0:
238,247,128988,1,2,0:0:0:0:
201,271,129078,1,2,0:0:0:0:
180,313,129167,5,6,0:0:0:0:
57,207,129345,2,0,L|138:220,1,71.9999978027344,2|2,0:1|0:0,0:0:0:0:
43,204,129703,5,2,0:1:0:0:
71,361,129881,2,0,L|-8:349,1,71.9999978027344,2|0,0:0|0:0,0:0:0:0:
272,324,130238,5,8,0:0:0:0:
106,183,130417,2,0,L|181:195,1,71.9999978027344,2|0,0:0|0:0,0:0:0:0:
95,180,130774,5,2,0:0:0:0:
109,345,130953,2,0,L|29:334,1,71.9999978027344,8|0,0:0|0:0,0:0:0:0:
196,366,131310,5,2,0:0:0:0:
87,260,131488,1,2,0:0:0:0:
210,228,131667,2,0,L|326:247,1,107.999996704102,8|0,0:0|0:0,0:0:0:0:
338,243,132024,5,6,0:0:0:0:
161,317,132203,1,2,0:1:0:0:
116,146,132381,5,8,0:0:0:0:
177,323,132560,1,2,0:1:0:0:
268,157,132738,5,2,0:0:0:0:
191,329,132917,2,0,P|127:317|58:305,1,107.999996704102,2|0,0:1|0:0,0:0:0:0:
34,365,133274,2,0,P|50:308|40:235,1,107.999996704102,2|0,0:0|0:0,0:0:0:0:
0,192,133631,6,0,L|56:178,1,35.9999989013672,2|0,3:1|0:0,0:0:0:0:
255,357,133810,1,8,0:0:0:0:
145,154,133988,2,0,L|103:145,1,35.9999989013672,2|0,0:1|0:0,0:0:0:0:
308,278,134167,1,2,0:0:0:0:
36,67,134345,2,0,L|44:124,1,35.9999989013672,2|0,3:1|0:0,0:0:0:0:
339,82,134524,1,12,0:0:0:0:
339,82,134881,5,2,0:0:0:0:
339,82,135060,2,0,L|328:169,1,71.9999978027344,2|8,0:1|0:0,0:0:0:0:
305,275,135417,5,2,0:1:0:0:
187,227,135595,2,0,L|278:209,1,71.9999978027344,2|0,0:0|0:0,0:0:0:0:
406,173,135953,5,8,0:0:0:0:
418,243,136131,2,0,L|405:172,1,71.9999978027344,2|0,0:0|0:0,0:0:0:0:
336,208,136488,5,2,0:0:0:0:
273,355,136667,2,0,L|352:341,1,71.9999978027344,8|0,0:0|0:0,0:0:0:0:
429,360,136935,1,8,0:0:0:0:
429,360,137024,5,2,0:0:0:0:
273,256,137203,1,2,0:0:0:0:
413,170,137381,1,8,0:0:0:0:
262,264,137560,1,2,0:1:0:0:
464,226,137738,6,0,P|445:164|432:92,1,107.999996704102,6|0,0:0|0:0,0:0:0:0:
467,57,138095,2,0,L|377:74,1,71.9999978027344,8|0,0:0|0:0,0:0:0:0:
319,121,138363,1,8,0:0:0:0:
310,135,138453,2,0,P|284:131|261:126,1,35.9999989013672,2|0,0:0|0:0,0:0:0:0:
180,48,138631,2,0,P|206:39|243:32,1,35.9999989013672,2|0,0:0|0:0,0:0:0:0:
379,167,138810,1,8,0:0:0:0:
217,332,138988,6,0,L|252:207,1,107.999996704102,2|0,0:0|0:0,0:0:0:0:
253,201,139345,1,2,0:0:0:0:
390,247,139524,1,12,0:0:0:0:
159,250,139703,1,2,0:0:0:0:
310,135,139881,1,8,0:0:0:0:
318,334,140060,1,2,0:0:0:0:
299,330,140149,1,8,0:0:0:0:
281,329,140238,1,8,0:0:0:0:
263,332,140328,1,8,0:0:0:0:
247,337,140417,1,2,0:0:0:0:
228,342,140506,1,2,0:0:0:0:
209,344,140595,6,0,P|163:340|125:333,1,80,6|0,0:0|0:0,0:0:0:0:
2,317,140953,1,8,0:0:0:0:
31,204,141131,2,0,P|51:201|71:199,1,40,2|0,0:1|0:0,0:0:0:0:
214,260,141310,1,6,0:0:0:0:
61,376,141488,1,2,0:0:0:0:
69,111,141667,1,8,0:0:0:0:
216,240,141845,1,2,0:0:0:0:
356,104,142024,6,0,P|268:119|223:128,1,120,6|0,0:0|0:0,0:0:0:0:
212,123,142381,1,8,0:0:0:0:
355,188,142560,1,2,0:0:0:0:
304,33,142738,1,8,0:0:0:0:
228,223,142917,1,2,0:0:0:0:
439,157,143095,1,8,0:0:0:0:
286,30,143274,2,0,L|232:40,1,40,2|0,0:0|0:0,0:0:0:0:
149,32,143453,6,0,P|224:52|260:62,1,80,8|2,0:0|0:0,0:0:0:0:
304,251,143810,1,8,0:0:0:0:
351,100,143988,1,2,0:0:0:0:
397,300,144167,2,0,P|355:276|310:271,1,80,8|2,0:0|0:0,0:0:0:0:
169,222,144524,2,0,P|209:204|244:168,1,80,8|0,0:0|0:0,0:0:0:0:
332,79,144881,6,0,L|356:173,1,80,10|2,0:1|0:0,0:0:0:0:
432,214,145149,1,2,0:1:0:0:
447,226,145238,2,0,L|494:216,1,40,8|0,0:0|0:0,0:0:0:0:
219,292,145417,1,2,3:1:0:0:
227,311,145506,1,2,0:0:0:0:
241,326,145595,2,0,P|285:317|320:306,1,80,10|0,0:1|0:0,0:0:0:0:
409,327,145863,1,2,0:1:0:0:
428,341,145953,2,0,L|472:327,1,40,8|0,0:0|0:0,0:0:0:0:
295,216,146131,2,0,L|242:203,1,40,2|0,3:1|0:0,0:0:0:0:
447,128,146310,6,0,P|407:169|339:141,1,120,14|0,0:1|0:0,0:0:0:0:
333,139,146667,1,2,0:0:0:0:
477,326,146845,1,8,0:0:0:0:
215,330,147024,1,8,0:0:0:0:
482,219,147203,5,8,0:0:0:0:
353,375,147381,1,8,0:0:0:0:
200,212,147560,1,8,0:0:0:0:
403,62,147738,5,8,0:0:0:0:
342,279,147917,1,8,0:0:0:0:
153,185,148095,1,8,0:0:0:0:
414,161,148274,5,8,0:0:0:0:
208,335,148453,1,8,0:0:0:0:
102,113,148631,1,8,0:0:0:0:
344,319,148810,5,8,0:0:0:0:
28,252,148988,1,8,0:0:0:0:
205,28,149167,6,0,P|225:32|250:41,1,40,6|0,0:0|0:0,0:0:0:0:
261,243,149345,5,8,0:0:0:0:
211,241,149435,1,8,0:0:0:0:
165,223,149524,1,8,0:0:0:0:
138,182,149613,1,8,0:0:0:0:
132,130,149703,2,0,P|155:118|178:113,1,40,6|0,0:0|0:0,0:0:0:0:
410,255,149881,5,8,0:0:0:0:
389,298,149970,1,8,0:0:0:0:
351,330,150060,1,8,0:0:0:0:
306,348,150149,1,8,0:0:0:0:
255,351,150238,2,0,P|231:343|201:329,1,40,6|0,0:0|0:0,0:0:0:0:
84,348,150417,6,0,L|208:317,1,120,8|0,0:0|0:0,0:0:0:0:
264,272,150774,6,0,P|213:273|178:317,1,96,8|0,0:0|0:0,0:0:0:0:
183,344,151131,5,8,0:0:0:0:
197,348,151488,6,2,L|218:355,10,16,2|2|2|2|2|2|2|2|2|2|2,0:1|0:1|0:1|0:1|0:1|0:1|0:1|0:1|0:1|0:1|0:1,0:1:0:0:
240,356,152024,6,0,P|223:299|218:271,1,80,6|0,0:0|0:0,0:0:0:0:
322,54,152381,2,0,P|305:102|277:174,1,120,8|0,0:0|0:0,0:0:0:0:
270,185,152738,1,2,0:0:0:0:
232,26,152917,1,2,0:0:0:0:
360,234,153095,2,0,P|301:205|221:207,1,120,8|0,0:0|0:0,0:0:0:0:
181,159,153453,6,0,P|133:172|91:180,1,80,2|0,0:0|0:0,0:0:0:0:
232,26,153810,2,0,P|278:36|328:47,1,80,8|0,0:0|0:0,0:0:0:0:
0,88,154167,1,2,3:1:0:0:
56,249,154345,1,2,0:0:0:0:
249,126,154524,2,0,L|220:256,1,120,10|0,0:1|0:0,0:0:0:0:
183,300,154881,6,0,P|224:282|294:314,1,120,2|0,3:1|0:0,0:0:0:0:
309,325,155238,1,8,0:0:0:0:
141,227,155417,1,2,0:1:0:0:
362,253,155595,1,2,3:1:0:0:
232,360,155774,1,2,0:0:0:0:
258,215,155953,1,10,0:1:0:0:
506,309,156131,6,0,L|358:337,1,120,2|0,0:1|0:0,0:0:0:0:
309,325,156488,2,0,L|324:266,1,40,2|0,0:1|0:0,0:0:0:0:
347,79,156667,2,0,L|362:132,1,40,8|0,0:0|0:0,0:0:0:0:
394,245,156845,1,2,0:0:0:0:
381,224,157203,6,0,L|323:217,1,40,2|0,0:0|0:0,0:0:0:0:
100,174,157381,2,0,L|128:271,1,80,10|0,0:1|0:0,0:0:0:0:
7,103,157738,5,6,0:0:0:0:
220,206,157917,1,2,0:1:0:0:
27,297,158095,1,8,0:0:0:0:
223,186,158274,1,2,0:1:0:0:
96,61,158453,2,0,P|41:78|0:93,1,80,2|2,3:1|0:0,0:0:0:0:
122,250,158810,1,10,0:1:0:0:
221,63,158988,1,2,0:1:0:0:
232,332,159167,1,2,0:0:0:0:
212,76,159345,6,0,B|257:65|257:65|348:84,1,120,2|0,0:1|0:0,0:0:0:0:
406,104,159703,2,0,L|392:152,1,40,2|0,0:1|0:0,0:0:0:0:
328,312,159881,1,2,3:1:0:0:
259,150,160060,1,2,0:0:0:0:
468,237,160238,1,10,0:1:0:0:
167,348,160417,2,0,P|157:320|152:294,1,40,2|0,0:1|0:0,0:0:0:0:
59,264,160595,6,0,L|210:301,1,120,6|0,0:0|0:0,0:0:0:0:
221,229,160953,2,0,P|274:253|343:243,1,120,8|0,0:0|0:0,0:0:0:0:
353,233,161310,1,2,0:0:0:0:
144,201,161488,1,2,0:0:0:0:
252,335,161667,1,8,0:0:0:0:
319,133,161845,1,2,0:1:0:0:
359,359,162024,5,2,0:0:0:0:
254,49,162203,1,8,0:0:0:0:
252,64,162292,2,0,L|297:55,1,40,8|0,0:0|0:0,0:0:0:0:
319,62,162560,6,0,L|136:47,1,160,6|8,0:0|0:0,0:0:0:0:
3,268,163095,1,2,0:0:0:0:
10,222,163185,1,2,0:0:0:0:
30,176,163274,1,2,0:0:0:0:
74,150,163363,1,2,0:0:0:0:
128,141,163453,6,0,P|172:156|211:182,1,80,6|0,0:0|0:0,0:0:0:0:
372,187,163810,2,0,P|306:212|246:257,1,120,8|0,0:0|0:0,0:0:0:0:
247,259,164167,1,2,0:0:0:0:
263,109,164345,1,2,0:0:0:0:
413,343,164524,2,0,P|360:322|260:325,1,120,8|0,0:0|0:0,0:0:0:0:
247,259,164881,6,0,P|201:282|117:286,1,120,6|0,0:0|0:0,0:0:0:0:
78,244,165238,2,0,P|91:298|103:340,1,80,8|0,0:0|0:0,0:0:0:0:
229,180,165595,1,2,0:0:0:0:
163,372,165774,1,2,0:0:0:0:
7,139,165953,2,0,P|82:151|132:160,1,120,8|0,0:0|0:0,0:0:0:0:
184,110,166310,6,0,P|225:135|304:119,1,120,6|0,3:1|0:0,0:0:0:0:
308,108,166667,1,10,0:1:0:0:
363,290,166845,1,2,0:1:0:0:
505,203,167024,1,2,3:1:0:0:
348,298,167203,1,2,0:0:0:0:
425,126,167381,1,10,0:1:0:0:
457,337,167560,6,0,P|398:303|316:304,1,120,2|0,0:1|0:0,0:0:0:0:
269,309,167917,2,0,L|278:257,1,40,2|0,0:1|0:1,0:1:0:0:
505,203,168095,2,0,L|494:150,1,40,10|0,0:1|0:0,0:0:0:0:
298,114,168274,1,2,0:0:0:0:
312,110,168631,6,0,L|302:158,1,40,2|0,0:0|0:0,0:0:0:0:
78,230,168810,2,0,L|217:209,1,120,10|0,0:1|0:0,0:0:0:0:
218,209,169167,5,6,0:0:0:0:
79,348,169345,1,2,0:1:0:0:
0,184,169524,1,8,0:0:0:0:
59,358,169703,1,2,0:1:0:0:
96,152,169881,2,0,L|76:235,1,80,2|2,0:0|0:0,0:0:0:0:
20,96,170238,1,8,0:0:0:0:
192,327,170417,2,0,P|219:317|249:303,1,40,2|0,0:1|0:0,0:0:0:0:
299,276,170595,6,0,L|153:248,1,120,2|0,0:0|0:0,0:0:0:0:
101,232,170953,2,0,P|103:253|113:280,1,40,8|0,0:0|0:0,0:0:0:0:
395,337,171131,1,2,0:0:0:0:
409,349,171488,6,0,L|397:294,1,40,2|0,0:0|0:0,0:0:0:0:
323,90,171667,1,8,0:0:0:0:
319,97,172024,5,6,0:0:0:0:
125,27,172203,1,2,0:1:0:0:
170,160,172381,1,8,0:0:0:0:
39,23,172560,1,2,0:1:0:0:
292,18,172738,2,0,P|244:28|186:42,1,80,2|2,0:0|0:0,0:0:0:0:
13,101,173095,1,8,0:0:0:0:
232,281,173274,2,0,P|252:274|278:264,1,40,2|0,0:1|0:0,0:0:0:0:
342,236,173453,6,0,L|213:202,1,120,2|0,0:0|0:0,0:0:0:0:
146,193,173810,2,0,P|149:215|153:236,1,40,8|0,0:0|0:0,0:0:0:0:
374,317,173988,1,2,0:0:0:0:
509,263,174167,1,2,0:0:0:0:
474,249,174256,1,2,0:0:0:0:
434,250,174345,1,2,0:0:0:0:
397,276,174435,1,2,0:0:0:0:
374,317,174524,2,0,P|379:338|390:368,1,40,8|0,0:0|0:0,0:0:0:0:
424,167,174703,2,0,P|431:142|439:120,1,40,2|0,0:0|0:0,0:0:0:0:
461,330,174881,5,6,0:0:0:0:
281,351,175060,1,2,0:1:0:0:
185,188,175238,5,8,0:0:0:0:
424,167,175417,1,8,0:0:0:0:
184,364,175595,1,8,0:0:0:0:
219,39,175774,1,8,0:0:0:0:
352,254,175953,1,8,0:0:0:0:
51,138,176131,1,8,0:0:0:0:
442,164,176310,6,0,B|406:137|406:137|338:156|338:156|319:126|272:140,1,176,6|0,0:0|0:0,0:0:0:0:
264,144,177381,1,8,0:0:0:0:
164,212,177738,5,6,0:0:0:0:
164,212,177917,2,0,P|99:196|65:190,1,80,2|0,0:1|0:0,0:0:0:0:
0,297,178274,1,6,0:0:0:0:
0,297,178453,2,0,P|48:278|79:272,1,80,8|0,0:0|0:0,0:0:0:0:
259,295,178810,5,6,0:0:0:0:
247,315,178988,2,0,P|201:302|164:298,1,80,2|0,0:1|0:0,0:0:0:0:
0,221,179345,1,6,0:0:0:0:
22,236,179524,2,0,P|64:218|95:172,1,80,2|0,0:1|0:0,0:0:0:0:
175,8,179881,5,6,0:0:0:0:
165,164,180060,2,0,P|151:123|134:76,1,80,8|0,0:0|0:0,0:0:0:0:
65,64,180417,2,0,B|118:70|118:70|146:92|146:92|178:90|178:90|222:118,1,160,6|8,0:0|0:0,0:0:0:0:
295,86,180953,1,8,0:0:0:0:
317,234,181131,5,6,0:0:0:0:
385,93,181310,2,0,P|374:141|368:182,1,80,2|0,0:1|0:0,0:0:0:0:
382,337,181667,1,6,0:0:0:0:
486,233,181845,2,0,P|433:245|395:256,1,80,2|0,0:1|0:0,0:0:0:0:
239,174,182203,6,0,P|247:198|255:220,1,40,8|0,0:0|0:0,0:0:0:0:
265,300,182381,2,0,P|281:311|307:326,1,40,2|0,0:0|0:0,0:0:0:0:
209,107,182560,6,0,P|207:129|207:158,1,40,2|0,0:0|0:0,0:0:0:0:
184,319,182738,2,0,P|194:340|208:361,1,40,8|0,0:0|0:0,0:0:0:0:
273,42,182917,5,8,0:0:0:0:
231,23,183006,1,8,0:0:0:0:
189,26,183095,1,8,0:0:0:0:
158,37,183185,1,8,0:0:0:0:
129,59,183274,1,8,0:0:0:0:
113,52,183363,1,8,0:0:0:0:
107,38,183453,5,6,0:0:0:0:
100,145,183631,2,0,P|46:135|7:130,1,80,2|0,0:1|0:0,0:0:0:0:
195,170,183988,1,2,0:0:0:0:
57,259,184167,2,0,P|109:245|149:239,1,80,8|0,0:0|0:0,0:0:0:0:
118,350,184524,1,2,0:0:0:0:
225,243,184703,2,0,L|210:313,1,40,2|0,0:1|0:0,0:0:0:0:
29,359,184881,5,2,0:1:0:0:
288,369,185060,1,2,0:0:0:0:
312,237,185238,2,0,L|299:190,1,40,2|0,0:1|0:0,0:0:0:0:
118,350,185417,1,2,0:1:0:0:
396,304,185595,2,8,P|408:257|407:209,1,80
378,159,185863,1,0,0:0:0:0:
378,159,185953,1,2,0:0:0:0:
238,151,186131,2,0,P|231:174|227:202,1,40,2|0,0:0|0:0,0:0:0:0:
206,340,186310,5,6,0:0:0:0:
372,376,186488,1,2,0:1:0:0:
408,225,186667,1,2,0:1:0:0:
229,190,186845,1,2,0:0:0:0:
408,242,187024,2,0,B|440:215|440:215|403:143,1,120,8|0,0:0|0:0,0:0:0:0:
372,77,187381,2,0,L|333:100,1,40,12|0,0:0|0:0,0:0:0:0:
119,155,187560,6,0,P|178:160|246:211,1,120,6|0,0:0|0:0,0:0:0:0:
241,212,187917,1,8,0:0:0:0:
305,23,188095,1,8,0:0:0:0:
313,274,188274,2,0,L|268:294,1,40,2|0,0:1|0:0,0:0:0:0:
336,181,188453,6,0,L|310:290,1,95.9999970703126,8|0,0:0|0:0,0:0:0:0:
187,325,188720,2,0,L|292:283,1,95.9999970703126,8|0,0:0|0:0,0:0:0:0:
419,352,188988,2,0,L|367:319,1,47.9999985351563,8|0,0:0|0:0,0:0:0:0:
411,243,189167,5,6,0:0:0:0:
302,361,189345,1,2,0:1:0:0:
418,119,189524,1,8,0:0:0:0:
512,279,189703,1,2,0:1:0:0:
333,159,189881,2,0,P|278:172|236:180,1,80,2|0,0:0|0:0,0:0:0:0:
100,344,190238,5,8,0:0:0:0:
151,206,190417,1,2,0:1:0:0:
16,371,190595,1,2,0:0:0:0:
236,273,190774,1,2,0:1:0:0:
24,188,190953,2,0,L|74:178,2,40,8|0|0,0:0|0:0|0:0,0:0:0:0:
120,118,191310,6,0,L|169:135,1,40,2|0,0:0|0:0,0:0:0:0:
281,163,191488,2,0,L|336:185,1,40,2|0,0:1|0:0,0:0:0:0:
315,39,191667,2,0,L|266:55,1,40,8|0,0:0|0:0,0:0:0:0:
111,105,191845,2,0,L|44:126,1,40,2|0,0:1|0:0,0:0:0:0:
386,113,192024,6,0,P|361:152|348:188,1,80,2|0,0:0|0:0,0:0:0:0:
88,27,192381,1,8,0:0:0:0:
151,206,192560,1,2,0:1:0:0:
194,52,192738,2,0,P|241:39|296:24,1,80,2|0,0:0|0:0,0:0:0:0:
15,108,193095,6,0,P|52:120|96:127,1,80,8|0,0:0|0:0,0:0:0:0:
0,289,193453,1,2,0:0:0:0:
212,357,193631,1,2,0:1:0:0:
191,198,193810,2,0,P|177:244|165:284,1,80,8|0,0:0|0:0,0:0:0:0:
100,347,194167,6,0,L|46:335,1,40,2|0,0:0|0:0,0:0:0:0:
0,195,194345,2,0,L|49:185,1,40,2|0,0:1|0:0,0:0:0:0:
275,202,194524,2,0,L|316:218,1,40,8|0,0:0|0:0,0:0:0:0:
246,345,194703,2,0,L|200:357,1,40,8|0,0:0|0:0,0:0:0:0:
157,195,194881,6,0,P|167:269|171:311,1,80,6|0,0:0|0:0,0:0:0:0:
228,133,195238,1,8,0:0:0:0:
79,262,195417,1,2,0:1:0:0:
277,279,195595,2,0,L|368:259,1,80,2|0,0:0|0:0,0:0:0:0:
439,170,195953,6,0,P|385:157|344:147,1,80,8|0,0:0|0:0,0:0:0:0:
510,90,196310,1,2,0:0:0:0:
442,258,196488,1,2,0:1:0:0:
364,66,196667,1,8,0:0:0:0:
448,279,196845,6,0,L|434:327,1,40,2|0,0:1|0:0,0:0:0:0:
239,363,197024,2,0,L|217:280,1,80,6|0,0:0|0:0,0:0:0:0:
286,225,197292,1,2,0:1:0:0:
293,212,197381,2,0,L|336:216,1,40,8|0,0:0|0:0,0:0:0:0:
137,305,197560,2,0,L|85:312,1,40,2|0,0:1|0:0,0:0:0:0:
320,304,197738,5,6,0:0:0:0:
304,296,197828,1,8,0:0:0:0:
287,293,197917,1,8,0:0:0:0:
267,298,198006,1,8,0:0:0:0:
252,300,198095,1,8,0:0:0:0:
239,309,198185,1,8,0:0:0:0:
210,336,198274,5,6,0:0:0:0:
212,307,198363,1,8,0:0:0:0:
205,280,198453,1,8,0:0:0:0:
194,255,198542,1,8,0:0:0:0:
179,233,198631,1,8,0:0:0:0:
160,217,198720,1,8,0:0:0:0:
212,222,198810,5,6,0:0:0:0:
235,182,198899,1,8,0:0:0:0:
221,136,198988,1,8,0:0:0:0:
189,112,199078,1,8,0:0:0:0:
141,108,199167,1,8,0:0:0:0:
103,139,199256,1,8,0:0:0:0:
72,173,199345,5,6,0:0:0:0:
86,181,199435,1,8,0:0:0:0:
99,195,199524,2,0,P|104:176|106:155,1,40,8|0,0:0|0:0,0:0:0:0:
245,180,199703,1,8,0:0:0:0:
245,180,199792,1,0,0:0:0:0:
245,180,199881,6,0,L|294:166,1,40,8|0,0:0|0:0,0:0:0:0:
104,322,200060,2,0,L|43:335,1,40,8|0,0:0|0:0,0:0:0:0:
265,310,200238,2,0,L|326:328,1,40,8|0,0:0|0:0,0:0:0:0:
99,195,200417,2,0,L|46:179,1,40,8|0,0:0|0:0,0:0:0:0:
185,257,200595,5,6,0:0:0:0:
171,258,200953,6,0,P|222:249|282:236,1,80,8|0,0:0|0:0,0:0:0:0:
363,206,201310,2,0,P|358:255|349:305,1,80,2|0,0:0|0:0,0:0:0:0:
489,370,201667,2,0,P|477:326|473:286,1,80,8|0,0:0|0:0,0:0:0:0:
432,100,202024,5,2,0:0:0:0:
288,152,202203,1,2,0:1:0:0:
440,223,202381,2,0,P|391:211|344:202,1,80,8|0,0:0|0:0,0:0:0:0:
249,161,202738,2,0,L|309:147,2,40,2|0|0,0:0|0:0|0:0,0:0:0:0:
384,42,203095,2,0,L|359:137,1,80,8|0,0:0|0:0,0:0:0:0:
281,246,203453,5,2,0:0:0:0:
285,260,203631,1,2,0:1:0:0:
289,274,203810,1,8,0:0:0:0:
383,276,203988,5,2,0:1:0:0:
376,293,204167,1,2,0:0:0:0:
369,310,204345,1,2,0:1:0:0:
219,331,204524,5,8,0:0:0:0:
243,341,204703,1,2,0:1:0:0:
269,352,204881,5,2,0:0:0:0:
183,338,205060,1,2,0:1:0:0:
98,319,205238,1,8,0:0:0:0:
194,293,205417,1,2,0:1:0:0:
289,274,205595,6,0,L|267:356,1,80,2|0,0:0|0:0,0:0:0:0:
120,216,205953,1,8,0:0:0:0:
256,191,206131,2,0,L|306:182,1,40,2|0,0:0|0:0,0:0:0:0:
359,220,206310,6,0,P|336:176|324:131,1,80,6|0,0:0|0:0,0:0:0:0:
178,135,206667,2,0,P|196:90|197:45,1,80,8|0,0:0|0:0,0:0:0:0:
363,32,207024,6,0,L|283:42,1,80,2|0,0:0|0:0,0:0:0:0:
99,119,207381,2,0,L|198:138,1,80,8|0,0:0|0:0,0:0:0:0:
297,209,207738,1,2,0:0:0:0:
155,279,207917,1,2,0:1:0:0:
6,220,208095,2,0,L|103:204,1,80,8|0,0:0|0:0,0:0:0:0:
193,290,208453,2,0,L|135:272,2,40,2|0|0,0:0|0:0|0:0,0:0:0:0:
53,372,208810,2,0,L|77:284,1,80,8|0,0:0|0:0,0:0:0:0:
167,195,209167,5,2,0:0:0:0:
178,192,209345,1,2,0:1:0:0:
190,189,209524,1,8,0:0:0:0:
252,136,209703,5,2,0:1:0:0:
265,155,209881,1,2,0:0:0:0:
278,173,210060,1,2,0:1:0:0:
329,239,210238,5,8,0:0:0:0:
299,251,210417,1,2,0:1:0:0:
273,264,210595,5,2,0:0:0:0:
355,283,210774,1,2,0:1:0:0:
435,301,210953,1,8,0:0:0:0:
348,330,211131,1,2,0:1:0:0:
256,342,211310,6,0,L|274:258,1,80,2|8,0:0|0:0,0:0:0:0:
332,198,211578,1,8,0:0:0:0:
343,186,211667,2,0,L|395:200,1,40,8|0,0:0|0:0,0:0:0:0:
193,229,211845,2,0,L|133:239,1,40,2|0,0:0|0:0,0:0:0:0:
423,127,212024,6,0,L|397:230,1,80,12|0,0:0|0:0,0:0:0:0:
260,164,212381,1,8,0:0:0:0:
355,283,212560,1,2,0:0:0:0:
423,127,212738,2,0,L|326:108,1,80,8|2,0:0|0:0,0:0:0:0:
138,153,213095,1,8,0:0:0:0:
277,40,213274,1,2,0:0:0:0:
234,231,213453,6,0,P|165:202|107:198,1,120,8|0,0:0|0:0,0:0:0:0:
49,232,213810,2,0,P|80:182|92:94,1,120,8|0,0:0|0:0,0:0:0:0:
24,89,214167,2,0,L|173:65,1,120,8|0,0:0|0:0,0:0:0:0:
219,63,214524,2,0,P|213:95|203:134,1,40,8|0,0:0|0:0,0:0:0:0:
143,343,214703,1,2,0:0:0:0:
49,232,214881,6,0,P|137:214|184:213,1,120,12|0,0:0|0:0,0:0:0:0:
194,215,215238,1,8,0:0:0:0:
151,24,215417,1,2,0:0:0:0:
352,88,215595,1,8,0:0:0:0:
146,42,215774,1,2,0:0:0:0:
323,192,215953,1,8,0:0:0:0:
142,58,216131,1,2,0:0:0:0:
364,85,216310,6,0,P|393:78|421:73,2,53.3333333333333,6|0|0,0:0|0:0|0:0,0:0:0:0:
213,191,216667,2,0,P|187:183|152:175,2,53.3333333333333,8|0|0,0:0|0:0|0:0,0:0:0:0:
355,298,217024,2,0,P|389:289|423:277,2,53.3333333333333,2|0|0,0:0|0:0|0:0,0:0:0:0:
252,358,217381,2,0,L|191:340,2,53.3333333333333,2|0|0,0:0|0:0|0:0,0:0:0:0:
277,272,217738,5,6,0:0:0:0:
277,272,219167,5,2,0:1:0:0:
277,272,220060,5,2,0:0:0:0:
310,200,220238,2,0,L|330:206,6,20,8|0|0|0|0|0|0,0:0|0:0|0:0|0:0|0:0|0:0|0:0,0:0:0:0:
352,185,220595,6,0,L|213:204,1,120,8|0,0:0|0:0,0:0:0:0:
214,204,220953,1,2,0:0:0:0:
410,251,221131,1,8,0:0:0:0:
219,334,221310,1,8,0:0:0:0:
313,111,221488,1,8,0:0:0:0:
343,344,221667,1,8,0:0:0:0:
414,95,221845,2,0,L|425:44,1,40,2|0,0:0|0:0,0:0:0:0:
475,364,222024,5,6,0:0:0:0:
306,267,223453,6,0,L|205:249,1,95.9999970703126,2|0,0:1|0:0,0:0:0:0:
124,228,224167,1,2,0:1:0:0:
168,77,224524,1,2,0:1:0:0:
188,160,224881,1,2,0:1:0:0:
105,142,225238,1,2,0:1:0:0:
281,20,225595,6,0,L|257:125,1,95.9999970703126,2|0,0:1|0:0,0:0:0:0:
188,160,226131,1,2,0:1:0:0:
189,165,226310,2,0,L|307:151,1,95.9999970703126,2|0,0:1|0:0,0:0:0:0:
362,199,226845,1,2,0:1:0:0:
362,199,227024,2,0,P|401:175|467:184,1,95.9999970703126,2|0,0:1|0:0,0:0:0:0:
424,254,227560,1,2,0:1:0:0:
289,327,227917,6,0,L|227:314,1,47.9999985351563,2|0,0:1|0:0,0:0:0:0:
193,374,228274,2,0,L|179:265,1,95.9999970703126,2|0,0:1|0:0,0:0:0:0:
170,198,228810,1,2,0:1:0:0:
176,183,229167,6,0,L|224:172,1,47.9999985351563,2|0,0:1|0:0,0:0:0:0:
103,138,229524,2,0,L|47:126,1,47.9999985351563,2|0,0:1|0:0,0:0:0:0:
82,232,229881,1,2,0:1:0:0:
70,238,230238,6,0,L|88:302,1,47.9999985351563,2|0,0:1|0:0,0:0:0:0:
137,356,230595,1,2,0:1:0:0:
137,356,230774,2,0,L|202:341,1,47.9999985351563,2|0,0:1|0:0,0:0:0:0:
261,325,231131,1,2,0:1:0:0:
266,307,231488,6,0,L|318:317,1,47.9999985351563,2|0,0:1|0:0,0:0:0:0:
422,331,231845,1,2,0:1:0:0:
336,191,232024,6,0,P|303:203|264:216,1,64,2|0,0:1|0:0,0:0:0:0:
199,195,232381,2,0,P|243:209|276:227,1,64,2|0,0:1|0:0,0:0:0:0:
382,252,232738,2,0,P|298:234|278:120,1,192,2|0,0:1|0:0,0:0:0:0:
143,104,233453,6,0,L|133:144,1,32,2|0,0:1|0:0,0:0:0:0:
188,227,233988,2,0,L|178:267,1,32,2|0,0:1|0:0,0:0:0:0:
63,95,234881,6,0,P|116:99|177:111,1,80,6|0,0:0|0:0,0:0:0:0:
385,117,235238,2,0,P|309:131|259:148,1,120,8|0,0:0|0:0,0:0:0:0:
252,162,235595,1,2,0:0:0:0:
175,25,235774,1,2,0:0:0:0:
151,340,235953,2,0,P|174:278|190:212,1,120,8|0,0:0|0:0,0:0:0:0:
166,157,236310,6,0,P|187:209|260:181,1,143.999995605469,6|0,0:0|0:0,0:0:0:0:
320,140,236667,2,0,P|302:68|225:108,1,167.999994873047,8|0,0:0|0:0,0:0:0:0:
229,110,237024,5,2,0:0:0:0:
229,110,237203,1,2,0:0:0:0:
470,81,237381,2,0,P|451:134|433:210,1,120,8|0,0:0|0:0,0:0:0:0:
470,259,237738,6,0,P|408:241|329:229,1,120,6|0,0:0|0:0,0:0:0:0:
327,237,238095,1,8,0:0:0:0:
278,35,238274,1,2,0:1:0:0:
290,328,238453,1,2,0:0:0:0:
366,158,238631,1,2,0:0:0:0:
189,210,238810,1,8,0:0:0:0:
407,358,238988,6,0,P|349:342|258:322,1,120,2|0,0:1|0:0,0:0:0:0:
189,323,239345,2,0,P|197:350|211:384,1,40,2|0,0:1|0:0,0:0:0:0:
294,246,239524,2,0,P|305:218|314:186,1,40,8|0,0:0|0:0,0:0:0:0:
230,86,239703,1,2,0:0:0:0:
237,106,240060,6,0,L|186:120,1,40,2|0,0:0|0:0,0:0:0:0:
1,203,240238,1,8,0:0:0:0:
1,203,240595,5,6,0:0:0:0:
130,367,240774,1,2,0:1:0:0:
85,119,240953,1,8,0:0:0:0:
21,326,241131,1,2,0:1:0:0:
109,114,241310,2,0,P|99:160|91:211,1,80,2|2,3:1|0:0,0:0:0:0:
249,92,241667,5,8,0:0:0:0:
218,341,241845,1,2,0:1:0:0:
186,53,242024,2,0,L|315:41,1,120,6|2,0:0|0:1,0:0:0:0:
385,52,242381,2,0,L|367:97,1,40,8|0,0:0|0:0,0:0:0:0:
237,259,242560,2,0,L|190:266,1,40,2|0,3:1|0:0,0:0:0:0:
470,289,242738,2,0,L|509:307,1,40,2|0,0:1|0:0,0:0:0:0:
264,164,242917,5,2,0:0:0:0:
429,208,243095,2,0,L|322:228,1,80,8|0,0:0|0:0,0:0:0:0:
303,333,243453,5,6,0:0:0:0:
356,134,243631,1,2,0:1:0:0:
127,227,243810,1,8,0:0:0:0:
398,257,243988,1,2,0:1:0:0:
138,243,244167,2,0,L|226:220,1,80,2|2,0:0|0:0,0:0:0:0:
274,121,244524,5,8,0:0:0:0:
188,365,244703,1,2,0:1:0:0:
225,67,244881,2,0,L|364:98,1,120,6|0,0:0|0:0,0:0:0:0:
423,79,245238,2,0,P|425:106|424:128,1,40,8|0,0:0|0:0,0:0:0:0:
314,345,245417,2,0,P|291:327|279:314,1,40,2|0,0:0|0:0,0:0:0:0:
155,162,245595,1,2,0:1:0:0:
371,222,245774,1,2,0:0:0:0:
217,259,245953,2,0,P|167:251|122:247,1,80,8|0,0:0|0:0,0:0:0:0:
10,80,246310,5,6,0:0:0:0:
10,80,246667,5,8,0:0:0:0:
168,264,246845,1,8,0:0:0:0:
225,106,247024,1,8,0:0:0:0:
107,331,247203,1,8,0:0:0:0:
371,239,247381,1,8,0:0:0:0:
27,359,247560,1,8,0:0:0:0:
442,183,247738,6,0,P|420:246|402:331,1,143.999995605469,12|0,0:0|0:0,0:0:0:0:
399,336,248631,6,0,L|351:321,1,40,2|0,0:0|0:0,0:0:0:0:
82,342,248810,1,8,0:0:0:0:
82,342,249167,5,6,0:0:0:0:
164,199,249345,1,2,0:1:0:0:
172,372,249524,1,8,0:0:0:0:
92,144,249703,1,2,0:1:0:0:
174,283,249881,2,0,P|215:267|278:249,1,80,2|2,0:0|0:0,0:0:0:0:
286,119,250238,5,8,0:0:0:0:
361,274,250417,1,2,0:1:0:0:
376,164,250595,1,2,0:0:0:0:
307,352,250774,1,2,0:1:0:0:
260,237,250953,2,0,P|318:248|350:256,1,80,8|2,0:0|0:0,0:0:0:0:
442,221,251310,5,2,0:1:0:0:
232,325,251488,1,2,0:0:0:0:
426,334,251667,2,0,L|282:356,1,120,8|0,0:0|0:0,0:0:0:0:
232,325,252024,6,0,P|187:345|111:319,1,120,6|0,0:0|0:0,0:0:0:0:
42,307,252381,2,0,P|58:263|54:170,1,120,8|0,0:0|0:0,0:0:0:0:
47,167,252738,1,2,0:0:0:0:
257,232,252917,1,2,0:0:0:0:
63,384,253095,1,8,0:0:0:0:
55,368,253453,6,0,P|75:326|161:289,1,120,2|0,0:0|0:0,0:0:0:0:
189,231,253810,2,0,P|208:235|233:249,1,40,8|0,0:0|0:0,0:0:0:0:
422,288,253988,1,2,0:0:0:0:
411,301,254345,6,0,L|355:314,1,40,2|0,0:0|0:0,0:0:0:0:
144,372,254524,1,8,0:0:0:0:
269,329,254703,1,2,0:1:0:0:
46,249,254881,5,6,0:0:0:0:
197,108,255060,1,2,0:1:0:0:
164,286,255238,1,8,0:0:0:0:
58,105,255417,1,2,0:1:0:0:
66,331,255595,2,0,P|116:311|153:301,1,80,2|2,0:0|0:0,0:0:0:0:
299,170,255953,5,8,0:0:0:0:
269,329,256131,1,2,0:1:0:0:
165,178,256310,1,2,0:0:0:0:
262,344,256488,1,2,0:1:0:0:
297,156,256667,1,8,0:0:0:0:
217,258,256845,6,0,L|295:243,1,80,2|0,0:0|0:0,0:0:0:0:
131,255,257203,1,2,0:0:0:0:
347,345,257381,2,0,L|378:222,1,120,8|0,0:0|0:0,0:0:0:0:
343,157,257738,6,0,P|363:121|360:34,1,120,6|0,0:0|0:0,0:0:0:0:
347,28,258095,1,8,0:0:0:0:
438,175,258274,1,2,0:1:0:0:
486,26,258453,1,2,0:0:0:0:
409,95,258631,1,2,0:0:0:0:
267,18,258810,2,0,L|352:28,1,80,8|0,0:0|0:0,0:0:0:0:
253,196,259167,5,6,0:0:0:0:
215,106,259345,1,2,0:0:0:0:
183,266,259524,1,8,0:0:0:0:
348,205,259703,1,2,0:0:0:0:
183,266,259881,2,0,P|150:261|120:255,3,40,8|0|0|0,0:0|0:0|0:0|0:0,0:0:0:0:
65,366,260238,2,0,P|44:354|21:341,3,40,2|0|0|0,0:0|0:0|0:0|0:0,0:0:0:0:
11,225,260595,5,6,0:0:0:0:
11,225,260774,1,2,0:1:0:0:
185,173,260953,1,8,0:0:0:0:
185,173,261131,1,2,0:1:0:0:
220,361,261310,2,0,P|168:350|121:343,1,80,8|2,0:0|0:0,0:0:0:0:
305,255,261667,5,8,0:0:0:0:
305,255,261845,1,2,0:0:0:0:
99,189,262024,1,8,0:0:0:0:
99,189,262203,1,2,0:0:0:0:
302,97,262381,2,0,P|291:137|284:179,1,80,8|2,0:0|0:0,0:0:0:0:
469,288,262738,6,0,P|456:240|447:202,1,80,8|2,0:0|0:0,0:0:0:0:
476,30,263095,2,0,P|423:45|388:55,1,80,8|2,0:0|0:0,0:0:0:0:
214,113,263453,6,0,P|153:104|124:96,1,80,8|0,0:0|0:0,0:0:0:0:
46,296,263810,2,0,P|94:288|143:286,1,80,8|0,0:0|0:0,0:0:0:0:
238,133,264167,6,0,P|177:124|148:116,1,80,8|2,0:0|0:0,0:0:0:0:
70,316,264524,2,0,P|118:308|167:306,1,80,8|2,0:0|0:0,0:0:0:0:
270,147,264881,6,0,P|209:138|180:130,1,80,8|0,0:0|0:0,0:0:0:0:
102,330,265238,2,0,P|150:322|199:320,1,80,8|2,0:0|0:0,0:0:0:0:
325,227,265595,5,8,0:0:0:0:
325,227,265774,1,2,0:0:0:0:
291,319,265953,1,8,0:0:0:0:
291,319,266131,1,2,0:0:0:0:
398,311,266310,5,12,0:0:0:0:
235,237,266488,1,2,0:0:0:0:
398,311,266667,1,2,0:0:0:0:
235,237,266845,1,8,0:0:0:0:
486,285,267024,2,0,L|470:369,1,80,2|2,0:0|0:0,0:0:0:0:
439,148,267381,5,8,0:0:0:0:
398,311,267560,1,2,0:0:0:0:
439,148,267738,1,2,0:0:0:0:
398,311,267917,1,8,0:0:0:0:
385,58,268095,1,8,0:0:0:0:
255,107,268453,5,8,0:0:0:0:
385,58,268631,2,0,P|403:54|436:45,1,40,8|0,0:0|0:0,0:0:0:0:
332,215,268810,2,0,P|306:208|286:203,1,40,8|0,0:0|0:0,0:0:0:0:
119,204,268988,2,0,L|97:258,1,40,8|0,0:0|0:0,0:0:0:0:
170,43,269167,5,6,0:0:0:0:
256,192,269256,12,0,273988,0:0:0:0:
