osu file format v14

[General]
AudioFilename: takunomi.mp3
AudioLeadIn: 0
PreviewTime: 26339
Countdown: 0
SampleSet: None
StackLeniency: 0.7
Mode: 3
LetterboxInBreaks: 0
SpecialStyle: 0
WidescreenStoryboard: 1

[Editor]
DistanceSpacing: 1.5
BeatDivisor: 4
GridSize: 4
TimelineZoom: 1.9

[Metadata]
Title:aventure bleu
TitleUnicode:aventure bleu
Artist:Uchida Maaya
ArtistUnicode:Uchida Maaya
Creator:Polarni
Version:NM
Source:takunomi
Tags:たくのみ takunomi アニメ anime
BeatmapID:1768826
BeatmapSetID:835516

[Difficulty]
HPDrainRate:5
CircleSize:4
OverallDifficulty:10
ApproachRate:8
SliderMultiplier:1.4
SliderTickRate:1

[Events]
//Background and Video events
0,0,"ogp.png",0,0
//Break Periods
2,22789,26125
//Storyboard Layer 0 (Background)
//Storyboard Layer 1 (Fail)
//Storyboard Layer 2 (Pass)
//Storyboard Layer 3 (Foreground)
//Storyboard Sound Samples

[TimingPoints]
1161,357.142857142857,4,3,0,80,1,0
18303,-100,4,3,0,20,0,0
26875,-100,4,3,0,80,0,0
44018,-100,4,3,0,40,0,0
54375,-100,4,3,0,60,0,0
60446,-90.9090909090909,4,3,0,100,0,1
87946,-100,4,3,0,5,0,0

[HitObjects]
448,192,1161,5,0,0:0:0:0:
64,192,1518,1,0,0:0:0:0:
320,192,1875,1,0,0:0:0:0:
192,192,2232,1,0,0:0:0:0:
448,192,2589,128,0,2946:0:0:0:0:
192,192,2946,1,0,0:0:0:0:
64,192,3303,1,0,0:0:0:0:
448,192,3660,1,0,0:0:0:0:
192,192,4018,1,0,0:0:0:0:
320,192,4375,1,0,0:0:0:0:
64,192,4732,1,0,0:0:0:0:
320,192,5089,1,0,0:0:0:0:
448,192,5446,1,0,0:0:0:0:
192,192,5803,1,0,0:0:0:0:
320,192,6160,1,0,0:0:0:0:
64,192,6518,1,0,0:0:0:0:
448,192,6875,1,0,0:0:0:0:
192,192,7232,1,0,0:0:0:0:
320,192,7589,1,0,0:0:0:0:
64,192,7946,1,0,0:0:0:0:
192,192,8303,128,0,8660:0:0:0:0:
320,192,8660,1,0,0:0:0:0:
448,192,9018,1,0,0:0:0:0:
64,192,9375,1,0,0:0:0:0:
320,192,9732,1,0,0:0:0:0:
64,192,10089,1,0,0:0:0:0:
448,192,10446,1,0,0:0:0:0:
192,192,10803,1,0,0:0:0:0:
320,192,11160,1,0,0:0:0:0:
64,192,11518,1,0,0:0:0:0:
448,192,11875,1,0,0:0:0:0:
320,192,12232,1,0,0:0:0:0:
192,192,12589,128,0,12946:0:0:0:0:
448,192,12946,1,0,0:0:0:0:
64,192,13303,1,0,0:0:0:0:
192,192,13660,1,0,0:0:0:0:
320,192,14018,1,0,0:0:0:0:
448,192,14375,1,0,0:0:0:0:
192,192,14732,1,0,0:0:0:0:
448,192,15089,1,0,0:0:0:0:
320,192,15446,1,0,0:0:0:0:
64,192,15803,1,0,0:0:0:0:
320,192,16160,1,0,0:0:0:0:
192,192,16518,1,0,0:0:0:0:
448,192,16875,1,0,0:0:0:0:
64,192,17232,1,0,0:0:0:0:
192,192,17589,1,0,0:0:0:0:
448,192,17946,1,0,0:0:0:0:
320,192,18303,128,0,20803:0:0:0:0:
64,192,20803,128,0,22589:0:0:0:0:
448,192,26875,5,0,0:0:0:0:
64,192,27232,1,0,0:0:0:0:
192,192,27589,1,0,0:0:0:0:
448,192,27946,1,0,0:0:0:0:
320,192,28303,128,0,28660:0:0:0:0:
64,192,28660,1,0,0:0:0:0:
192,192,29018,1,0,0:0:0:0:
448,192,29375,1,0,0:0:0:0:
320,192,29732,1,0,0:0:0:0:
64,192,30089,1,0,0:0:0:0:
192,192,30446,1,0,0:0:0:0:
448,192,30803,1,0,0:0:0:0:
320,192,31160,1,0,0:0:0:0:
448,192,31518,1,0,0:0:0:0:
64,192,31875,1,0,0:0:0:0:
320,192,32232,1,0,0:0:0:0:
192,192,32589,1,0,0:0:0:0:
448,192,32946,1,0,0:0:0:0:
64,192,33303,1,0,0:0:0:0:
320,192,33660,1,0,0:0:0:0:
64,192,34018,128,0,34375:0:0:0:0:
448,192,34375,1,0,0:0:0:0:
192,192,34732,1,0,0:0:0:0:
64,192,35089,1,0,0:0:0:0:
320,192,35446,1,0,0:0:0:0:
64,192,35803,1,0,0:0:0:0:
192,192,36160,1,0,0:0:0:0:
448,192,36518,1,0,0:0:0:0:
192,192,36875,1,0,0:0:0:0:
448,192,37232,1,0,0:0:0:0:
64,192,37589,1,0,0:0:0:0:
320,192,37946,1,0,0:0:0:0:
192,192,38303,1,0,0:0:0:0:
448,192,38660,1,0,0:0:0:0:
64,192,39018,1,0,0:0:0:0:
320,192,39375,1,0,0:0:0:0:
448,192,39732,1,0,0:0:0:0:
64,192,40089,1,0,0:0:0:0:
320,192,40446,1,0,0:0:0:0:
192,192,40803,1,0,0:0:0:0:
448,192,41160,1,0,0:0:0:0:
64,192,41518,1,0,0:0:0:0:
448,192,41875,1,0,0:0:0:0:
192,192,42232,1,0,0:0:0:0:
320,192,42589,1,0,0:0:0:0:
64,192,42946,1,0,0:0:0:0:
448,192,43303,1,0,0:0:0:0:
192,192,43660,1,0,0:0:0:0:
320,192,44018,128,0,45803:0:0:0:0:
192,192,45803,1,0,0:0:0:0:
320,192,46518,1,0,0:0:0:0:
64,192,47232,1,0,0:0:0:0:
448,192,47946,1,0,0:0:0:0:
192,192,48660,1,0,0:0:0:0:
448,192,49375,1,0,0:0:0:0:
192,192,50089,1,0,0:0:0:0:
64,192,50803,1,0,0:0:0:0:
448,192,51518,1,0,0:0:0:0:
192,192,52232,1,0,0:0:0:0:
64,192,52946,1,0,0:0:0:0:
448,192,53660,1,0,0:0:0:0:
320,192,54375,128,0,57232:0:0:0:0:
192,192,57232,1,0,0:0:0:0:
448,192,57589,1,0,0:0:0:0:
320,192,57946,1,0,0:0:0:0:
64,192,58303,1,0,0:0:0:0:
192,192,58660,1,0,0:0:0:0:
320,192,59018,1,0,0:0:0:0:
64,192,59375,1,0,0:0:0:0:
320,192,59732,1,0,0:0:0:0:
448,192,60089,1,0,0:0:0:0:
448,192,60446,128,0,61160:0:0:0:0:
320,192,60625,1,0,0:0:0:0:
192,192,60803,1,0,0:0:0:0:
64,192,60982,1,0,0:0:0:0:
192,192,61160,1,0,0:0:0:0:
320,192,61339,1,0,0:0:0:0:
64,192,61518,1,0,0:0:0:0:
448,192,61696,1,0,0:0:0:0:
320,192,61875,1,0,0:0:0:0:
64,192,62053,1,0,0:0:0:0:
192,192,62232,1,0,0:0:0:0:
448,192,62410,1,0,0:0:0:0:
320,192,62589,1,0,0:0:0:0:
64,192,62768,1,0,0:0:0:0:
192,192,62946,1,0,0:0:0:0:
64,192,63125,1,0,0:0:0:0:
320,192,63303,1,0,0:0:0:0:
448,192,63482,1,0,0:0:0:0:
192,192,63660,1,0,0:0:0:0:
448,192,63839,1,0,0:0:0:0:
64,192,64018,1,0,0:0:0:0:
192,192,64196,1,0,0:0:0:0:
320,192,64375,128,0,65089:0:0:0:0:
448,192,64553,1,0,0:0:0:0:
64,192,64732,1,0,0:0:0:0:
448,192,64910,1,0,0:0:0:0:
64,192,65089,1,0,0:0:0:0:
192,192,65268,1,0,0:0:0:0:
448,192,65446,1,0,0:0:0:0:
320,192,65625,1,0,0:0:0:0:
448,192,65803,1,0,0:0:0:0:
192,192,65982,1,0,0:0:0:0:
320,192,66160,1,0,0:0:0:0:
64,192,66339,1,0,0:0:0:0:
192,192,66518,1,0,0:0:0:0:
448,192,66696,1,0,0:0:0:0:
64,192,66875,1,0,0:0:0:0:
320,192,67053,1,0,0:0:0:0:
192,192,67232,1,0,0:0:0:0:
448,192,67410,1,0,0:0:0:0:
64,192,67589,1,0,0:0:0:0:
320,192,67768,1,0,0:0:0:0:
192,192,67946,1,0,0:0:0:0:
320,192,68125,1,0,0:0:0:0:
448,192,68303,1,0,0:0:0:0:
64,192,68482,1,0,0:0:0:0:
192,192,68660,1,0,0:0:0:0:
448,192,68839,1,0,0:0:0:0:
320,192,69018,128,0,70446:0:0:0:0:
448,192,69196,1,0,0:0:0:0:
192,192,69375,1,0,0:0:0:0:
448,192,69553,1,0,0:0:0:0:
64,192,69732,1,0,0:0:0:0:
448,192,69910,1,0,0:0:0:0:
192,192,70089,1,0,0:0:0:0:
448,192,70268,1,0,0:0:0:0:
64,192,70446,1,0,0:0:0:0:
448,192,70625,1,0,0:0:0:0:
192,192,70803,1,0,0:0:0:0:
448,192,70982,1,0,0:0:0:0:
192,192,71160,1,0,0:0:0:0:
320,192,71339,1,0,0:0:0:0:
64,192,71518,1,0,0:0:0:0:
448,192,71696,1,0,0:0:0:0:
320,192,71875,1,0,0:0:0:0:
64,192,72053,1,0,0:0:0:0:
192,192,72232,1,0,0:0:0:0:
64,192,72410,1,0,0:0:0:0:
448,192,72589,1,0,0:0:0:0:
320,192,72768,1,0,0:0:0:0:
64,192,72946,1,0,0:0:0:0:
448,192,73125,1,0,0:0:0:0:
192,192,73303,1,0,0:0:0:0:
448,192,73482,1,0,0:0:0:0:
64,192,73660,1,0,0:0:0:0:
448,192,73839,1,0,0:0:0:0:
320,192,74018,1,0,0:0:0:0:
64,192,74196,1,0,0:0:0:0:
448,192,74375,1,0,0:0:0:0:
192,192,74553,1,0,0:0:0:0:
448,192,74732,128,0,75089:0:0:0:0:
64,192,74910,1,0,0:0:0:0:
320,192,75089,1,0,0:0:0:0:
192,192,75268,1,0,0:0:0:0:
448,192,75446,1,0,0:0:0:0:
64,192,75625,1,0,0:0:0:0:
192,192,75803,1,0,0:0:0:0:
448,192,75982,1,0,0:0:0:0:
64,192,76160,1,0,0:0:0:0:
320,192,76339,1,0,0:0:0:0:
192,192,76518,1,0,0:0:0:0:
448,192,76696,1,0,0:0:0:0:
64,192,76875,1,0,0:0:0:0:
320,192,77053,1,0,0:0:0:0:
192,192,77232,1,0,0:0:0:0:
448,192,77410,1,0,0:0:0:0:
64,192,77589,128,0,80446:0:0:0:0:
192,192,77768,1,0,0:0:0:0:
320,192,77946,1,0,0:0:0:0:
448,192,78125,1,0,0:0:0:0:
320,192,78303,1,0,0:0:0:0:
192,192,78482,1,0,0:0:0:0:
320,192,78660,1,0,0:0:0:0:
448,192,78839,1,0,0:0:0:0:
320,192,79018,1,0,0:0:0:0:
192,192,79196,1,0,0:0:0:0:
320,192,79375,1,0,0:0:0:0:
448,192,79553,1,0,0:0:0:0:
320,192,79732,1,0,0:0:0:0:
192,192,79910,1,0,0:0:0:0:
320,192,80089,1,0,0:0:0:0:
448,192,80268,1,0,0:0:0:0:
320,192,80446,1,0,0:0:0:0:
192,192,80625,1,0,0:0:0:0:
448,192,80803,1,0,0:0:0:0:
64,192,80982,1,0,0:0:0:0:
320,192,81160,1,0,0:0:0:0:
192,192,81339,1,0,0:0:0:0:
448,192,81518,1,0,0:0:0:0:
64,192,81696,1,0,0:0:0:0:
320,192,81875,1,0,0:0:0:0:
192,192,82053,1,0,0:0:0:0:
448,192,82232,1,0,0:0:0:0:
64,192,82410,1,0,0:0:0:0:
320,192,82589,128,0,83303:0:0:0:0:
192,192,82768,1,0,0:0:0:0:
448,192,82946,1,0,0:0:0:0:
64,192,83125,1,0,0:0:0:0:
192,192,83303,128,0,85982:0:0:0:0:
