osu file format v14

[General]
AudioFilename: takunomi.mp3
AudioLeadIn: 0
PreviewTime: 26339
Countdown: 0
SampleSet: None
StackLeniency: 0.7
Mode: 0
LetterboxInBreaks: 0
WidescreenStoryboard: 1

[Editor]
DistanceSpacing: 0.5
BeatDivisor: 4
GridSize: 4
TimelineZoom: 0.8

[Metadata]
Title:aventure bleu
TitleUnicode:aventure bleu
Artist:Uchida Maaya
ArtistUnicode:Uchida Maaya
Creator:Polarni
Version:Easy
Source:takunomi
Tags:たくのみ takunomi アニメ anime
BeatmapID:1751054
BeatmapSetID:835516

[Difficulty]
HPDrainRate:4
CircleSize:3
OverallDifficulty:4
ApproachRate:4
SliderMultiplier:1.4
SliderTickRate:1

[Events]
//Background and Video events
0,0,"ogp.png",0,0
//Break Periods
2,22789,25555
2,57075,59126
//Storyboard Layer 0 (Background)
//Storyboard Layer 1 (Fail)
//Storyboard Layer 2 (Pass)
//Storyboard Layer 3 (Foreground)
//Storyboard Sound Samples

[TimingPoints]
1161,357.142857142857,4,3,0,80,1,0
18303,-100,4,3,0,20,0,0
26875,-100,4,3,0,80,0,0
44018,-100,4,3,0,40,0,0
54018,-100,4,3,0,60,0,0
60446,-100,4,3,0,100,0,1
87946,-100,4,3,0,5,0,0

[HitObjects]
135,205,1161,5,0,0:0:0:0:
389,89,2589,1,0,0:0:0:0:
233,322,4018,1,0,0:0:0:0:
133,60,5446,1,0,0:0:0:0:
353,233,6875,5,0,0:0:0:0:
75,198,8303,1,0,0:0:0:0:
340,109,9732,1,0,0:0:0:0:
116,277,11160,1,0,0:0:0:0:
383,193,12589,5,0,0:0:0:0:
123,86,14018,1,0,0:0:0:0:
313,290,15446,1,0,0:0:0:0:
457,50,16875,1,0,0:0:0:0:
256,192,18303,12,4,22589,0:0:0:0:
147,243,26875,5,0,0:0:0:0:
367,70,28303,1,0,0:0:0:0:
87,89,29732,1,0,0:0:0:0:
319,245,31160,1,0,0:0:0:0:
49,320,32589,5,0,0:0:0:0:
223,100,34018,1,0,0:0:0:0:
415,303,35446,1,0,0:0:0:0:
415,303,36875,1,0,0:0:0:0:
137,266,38303,5,0,0:0:0:0:
400,172,39732,1,0,0:0:0:0:
128,103,41160,1,0,0:0:0:0:
350,273,42589,1,0,0:0:0:0:
256,192,44018,12,4,45446,0:0:0:0:
98,280,46875,5,0,0:0:0:0:
376,256,48303,2,8,B|388:168|311:104|206:87|97:146|54:235|96:337|280:309,1,560
415,87,51160,1,0,0:0:0:0:
179,238,52589,1,0,0:0:0:0:
256,192,54018,12,4,56875,0:0:0:0:
107,267,60446,5,0,0:0:0:0:
386,269,61160,1,0,0:0:0:0:
166,95,61875,1,0,0:0:0:0:
445,78,62589,1,0,0:0:0:0:
347,178,63303,2,8,B|268:232|208:212|166:160|206:91|274:67,2,280
218,232,65446,5,0,0:0:0:0:
175,98,66160,1,0,0:0:0:0:
314,107,66875,1,0,0:0:0:0:
379,230,67589,1,0,0:0:0:0:
242,259,68303,1,0,0:0:0:0:
108,302,69018,2,8,P|148:154|274:128,2,280
247,295,71160,5,0,0:0:0:0:
341,191,71875,1,0,0:0:0:0:
220,119,72589,1,0,0:0:0:0:
359,120,73303,1,0,0:0:0:0:
228,169,74018,1,0,0:0:0:0:
338,255,74732,2,8,B|440:182|400:92|323:62|250:74,2,280
217,183,76875,5,0,0:0:0:0:
333,259,77589,1,0,0:0:0:0:
409,141,78303,1,0,0:0:0:0:
440,277,79018,1,0,0:0:0:0:
300,270,79732,1,0,0:0:0:0:
186,188,80446,1,0,0:0:0:0:
315,134,81160,6,0,B|222:72|146:150|208:252|308:240,1,280
163,188,82589,1,12,0:0:0:0:
270,98,83303,1,12,0:0:0:0:
334,222,84018,1,12,0:0:0:0:
256,192,84732,12,14,87946,0:0:0:0:
