osu file format v14

[General]
AudioFilename: audio.mp3
AudioLeadIn: 0
PreviewTime: 47548
Countdown: 0
SampleSet: Soft
StackLeniency: 0.7
Mode: 0
LetterboxInBreaks: 0
WidescreenStoryboard: 1

[Editor]
Bookmarks: 23357,34312,47295,58250,69711,69795,69879,69964,70048,70132,70216,70301,70385,70469,70554,70638,70722,70806,70891,70975,71059,71143,71228,71312,71396,71481,71565,71649,71733,71818,71902,71986,72070,72155,72239,72323,72407,72492,72576,72660,72745,72829,72913,72997,73082,73166,73250,73334,73419,73503,73587,73672,73756,73840,73924,74009,74093,74177,74261,74346,74430,74514,74599,74683,74767,74851,74936,75020,75104,75188,75273,75357,75441,75525,75610,75694,75778,83700,94333,107620,118575,128014,141497,141581,141665,141750,141834,141918,142002,142087,142171,142255,142339,142424,142508,142592,142677,142761,142845,142929,143014,143098,143182,143266,143351,143435,143519,143604,143688,143772,143856,143941,144025,144109,144193,144278,144362,144446,144531,144615,144699,144783,144868,144952,145036,145120,145205,145289,145373,145457,145542,145626,145710,145795,145879,145963,146047,146132,146216,146300,146384,146469,146553,146637,146722,146806,146890,146974,147059,147143,147227,147311,147396,147480,147564,147648,147733,147817,147901,147986,148070,148154,148238,163070,172508,181778
DistanceSpacing: 1
BeatDivisor: 2
GridSize: 4
TimelineZoom: 1.900005

[Metadata]
Title:Symbolic View
TitleUnicode:シンボリックビュー
Artist:Uchida Maaya
ArtistUnicode:内田真礼
Creator:Akane Hime
Version:Kowari's Normal
Source:
Tags:cosmos c.o.s.m.o.s magic hour Meg image-- kuei -_ex_- Kuroame Kowari NEURONIO japanese pop jpop j-pop
BeatmapID:3114816
BeatmapSetID:1379960

[Difficulty]
HPDrainRate:3
CircleSize:3
OverallDifficulty:4
ApproachRate:6
SliderMultiplier:1.1
SliderTickRate:1

[Events]
//Background and Video events
0,0,"BG.jpg",0,0
//Break Periods
2,12771,16769
2,69911,74578
2,141518,147189
//Storyboard Layer 0 (Background)
//Storyboard Layer 1 (Fail)
//Storyboard Layer 2 (Pass)
//Storyboard Layer 3 (Foreground)
//Storyboard Layer 4 (Overlay)
//Storyboard Sound Samples

[TimingPoints]
615,337.078651685393,4,2,1,70,1,0
8695,337.078651685393,4,2,1,70,1,0
8695,-111.111111111111,4,2,1,85,0,0
10380,-100,4,2,1,80,0,0
12571,-111.111111111111,4,2,1,80,0,0
17964,-111.111111111111,4,2,1,70,0,0
22009,-111.111111111111,4,2,1,80,0,0
23357,-111.111111111111,4,2,1,80,0,0
24364,337.078651685393,4,2,1,70,1,0
24364,-111.111111111111,4,2,1,70,0,0
34312,337.078651685393,4,2,1,70,1,0
34312,-111.111111111111,4,2,1,70,0,0
36334,-100,4,2,1,85,0,0
36847,304.568527918782,4,2,1,70,1,0
36999,337.078651685393,4,2,1,70,1,0
37673,-111.111111111111,4,2,1,85,0,0
39031,337.078651685393,4,2,1,70,1,0
39358,344.827586206896,4,2,1,85,1,0
39358,-99.9999999999999,4,2,1,85,0,0
39530,337.078651685393,4,2,1,70,1,0
41636,306.122448979592,4,2,1,70,1,0
41865,357.142857142857,4,2,1,70,1,0
42043,357.142857142857,4,2,1,70,1,0
42408,337.078651685393,4,2,1,70,1,0
42745,-100,4,2,1,85,0,0
43579,-111.111111111111,4,2,1,85,0,0
47295,-100,4,2,1,90,0,1
67688,-111.111111111111,4,2,1,60,0,0
75778,-111.111111111111,4,2,1,85,0,0
77464,-111.111111111111,4,2,1,70,0,0
78306,-111.111111111111,4,2,1,80,0,0
89261,-99.9999999999999,4,2,1,85,0,0
93973,363.636363636363,4,2,1,70,1,0
94333,337.078651685393,4,2,1,85,1,0
94335,-99.9999999999999,4,2,1,85,0,0
95346,320.855614973262,4,2,1,70,1,0
96311,337.078651685393,4,2,1,70,1,0
96982,394.736842105263,4,2,1,70,1,0
97179,312.5,4,2,1,70,1,0
97340,337.078651685393,4,2,1,70,1,0
97677,-111.111111111111,4,2,1,80,0,0
107620,-100,4,2,1,90,0,1
128014,-111.111111111111,4,2,1,75,0,0
133407,-111.111111111111,4,2,1,75,0,0
138126,-100,4,2,1,75,0,0
138800,-100,4,2,1,55,0,0
151609,-100,4,2,2,80,0,0
152115,-100,4,2,1,90,0,1
172508,-100,4,2,1,90,0,0
183155,-100,4,2,1,90,0,0
190879,-100,4,2,1,90,0,0
191076,337.078651685393,4,2,1,70,1,0
191218,337.078651685393,4,2,1,70,1,0
193914,-100,4,2,1,90,0,0

[Colours]
Combo1 : 179,255,102
Combo2 : 255,211,6
Combo3 : 255,119,255
Combo4 : 142,199,255

[HitObjects]
64,44,8695,5,6,1:2:0:0:
140,107,9032,1,6,1:2:0:0:
63,170,9369,2,0,L|62:243,1,49.4999984893799,6|2,1:2|0:0,0:0:0:0:
65,273,9706,1,6,1:2:0:0:
65,273,9874,1,2,0:0:0:0:
188,382,10380,5,14,0:2:0:0:
275,316,10717,1,8,0:0:0:0:
197,238,11054,2,0,L|195:177,1,55,8|2,0:0|1:2,0:0:0:0:
244,159,11391,2,0,L|242:98,1,55,10|2,0:2|1:2,0:0:0:0:
244,48,11728,1,10,0:2:0:0:
347,11,12065,2,0,B|390:11|390:11|416:23|416:23|461:24,1,110,8|0,3:0|1:0,0:0:0:0:
503,26,12571,1,6,1:2:0:0:
503,322,17964,6,0,L|392:319,1,98.9999969787599,14|0,0:0|3:0,0:0:0:0:
354,319,18470,1,0,3:0:0:0:
354,319,18638,1,0,3:0:0:0:
269,370,18975,1,0,3:0:0:0:
184,318,19312,2,0,P|173:273|195:210,1,98.9999969787599,0|0,3:0|3:0,0:0:0:0:
224,190,19818,1,0,3:0:0:0:
224,190,19986,1,0,3:0:0:0:
376,194,20492,5,0,3:0:0:0:
376,194,20660,2,0,P|387:149|365:86,1,98.9999969787599,0|0,3:0|3:0,0:0:0:0:
343,59,21166,1,0,3:0:0:0:
343,59,21335,2,0,B|290:58|290:58|252:76|252:76|165:75,1,148.49999546814,0|0,3:0|1:0,0:0:0:0:
148,75,22009,1,12,0:0:0:0:
22,288,22852,2,0,L|24:342,2,49.4999984893799,0|8|8,1:0|3:0|0:0,0:0:0:0:
22,238,23357,6,0,L|150:234,1,98.9999969787599,6|2,1:2|1:2,0:0:0:0:
166,254,23863,2,0,L|240:251,1,49.4999984893799,10|2,0:0|0:0,0:0:0:0:
252,343,24364,2,0,L|316:343,1,49.4999984893799,2|8,1:2|0:0,0:0:0:0:
348,357,24701,2,0,P|400:377|497:352,1,148.49999546814,2|10,1:2|0:2,0:0:0:0:
507,312,25375,1,2,1:2:0:0:
472,219,25713,2,0,L|468:154,1,49.4999984893799,0|10,1:0|0:2,0:0:0:0:
481,121,26050,6,0,B|493:72|493:72|474:20,1,98.9999969787599,2|2,1:2|1:2,0:0:0:0:
433,1,26555,1,8,0:0:0:0:
376,82,26892,2,0,L|259:82,1,98.9999969787599,2|8,0:0|0:0,0:0:0:0:
227,82,27398,1,2,1:2:0:0:
151,17,27735,2,0,L|74:18,1,49.4999984893799,2|8,1:2|0:2,0:0:0:0:
51,18,28072,1,2,1:2:0:0:
12,109,28409,1,2,1:2:0:0:
103,146,28746,6,0,P|119:196|91:286,1,148.49999546814,6|10,1:2|0:2,0:0:0:0:
50,312,29420,1,2,0:0:0:0:
123,378,29758,2,0,L|193:377,1,49.4999984893799,2|8,1:2|0:0,0:0:0:0:
205,341,30094,2,0,L|359:337,1,148.49999546814,2|10,1:2|0:2,0:0:0:0:
403,336,30769,1,2,1:2:0:0:
410,237,31106,2,0,P|413:205|399:157,1,49.4999984893799,2|10,1:2|0:0,0:0:0:0:
362,180,31443,6,0,B|278:172|302:232|207:217,1,148.49999546814,6|10,1:2|0:2,0:0:0:0:
176,200,32117,2,0,P|158:154|181:92,1,98.9999969787599,2|0,0:0|0:0,0:0:0:0:
212,81,32623,1,10,0:2:0:0:
212,81,32791,1,6,1:2:0:0:
310,68,33128,2,0,L|310:6,2,49.4999984893799,8|8|8,3:0|3:0|3:0,0:0:0:0:
315,121,33634,1,14,0:0:0:0:
315,121,33802,1,10,0:0:0:0:
449,216,34312,5,4,1:2:0:0:
449,216,34480,2,0,P|470:271|451:323,1,98.9999969787599,2|2,1:2|0:0,0:0:0:0:
408,346,34986,2,0,P|349:336|314:294,1,98.9999969787599,2|10,1:2|0:2,0:0:0:0:
312,245,35491,2,0,P|349:199|403:189,1,98.9999969787599,2|2,0:2|1:2,0:0:0:0:
449,216,35996,1,10,0:2:0:0:
475,108,36334,2,0,B|420:102|420:102|387:66|387:66|297:58,1,165,2|2,1:2|0:2,0:0:0:0:
271,58,36999,5,2,1:2:0:0:
271,58,37167,1,2,1:2:0:0:
226,160,37504,1,2,0:2:0:0:
226,160,37673,2,0,L|112:162,1,98.9999969787599,2|10,1:2|0:2,0:0:0:0:
60,161,38178,1,2,0:2:0:0:
5,258,38515,1,2,1:2:0:0:
5,258,38684,1,10,0:2:0:0:
66,349,39031,1,14,0:2:0:0:
139,267,39358,5,6,1:2:0:0:
139,267,39530,2,0,B|194:258|194:258|261:288,1,110,2|2,1:2|0:2,0:0:0:0:
280,239,40035,2,0,B|244:195|244:195|237:122,1,110,2|10,1:2|0:2,0:0:0:0:
184,135,40541,2,0,B|164:187|164:187|104:230,1,110,2|2,0:2|1:2,0:0:0:0:
77,253,41046,1,10,0:2:0:0:
5,168,41383,2,0,P|18:92|21:86,1,82.5,10|4,0:2|3:0,0:0:0:0:
141,57,41865,5,4,3:0:0:0:
141,57,42043,2,0,P|203:53|254:75,1,110,4|8,1:2|0:0,0:0:0:0:
259,179,42745,2,0,L|256:244,2,55,2|0|9,1:2|1:0|0:2,0:0:0:0:
303,156,43250,1,2,1:2:0:0:
393,114,43587,2,0,L|394:53,1,49.4999984893799,2|10,1:2|0:2,0:0:0:0:
394,14,43924,1,2,1:2:0:0:
492,24,44261,2,0,L|493:85,1,49.4999984893799,2|10,1:2|0:0,0:0:0:0:
481,121,44598,6,0,L|478:246,1,98.9999969787599,6|2,1:2|1:2,0:0:0:0:
477,269,45104,1,10,0:0:0:0:
477,269,45272,2,0,P|417:280|368:262,1,98.9999969787599,6|2,1:2|1:2,0:0:0:0:
314,196,45947,2,0,P|266:185|218:196,1,98.9999969787599,6|10,1:2|3:0,0:0:0:0:
184,232,46452,2,0,L|183:307,1,49.4999984893799,10|10,3:0|3:0,0:0:0:0:
185,335,46789,1,10,0:0:0:0:
185,335,46958,1,10,0:0:0:0:
91,384,47295,5,6,1:2:0:0:
0,331,47632,1,2,1:2:0:0:
0,331,47800,2,0,L|7:201,1,110,10|2,0:2|1:2,0:0:0:0:
6,166,48306,1,2,1:2:0:0:
25,57,48643,2,0,P|72:44|142:60,1,110,2|2,1:2|1:2,0:0:0:0:
166,104,49149,1,10,0:2:0:0:
166,104,49317,1,2,0:2:0:0:
177,213,49654,2,0,L|242:214,1,55,2|10,1:2|0:2,0:0:0:0:
287,212,49991,1,6,1:2:0:0:
292,326,50329,5,2,1:2:0:0:
292,326,50497,2,0,L|408:326,1,110,10|2,0:2|1:2,0:0:0:0:
457,322,51003,1,2,1:2:0:0:
501,221,51340,2,0,P|512:159|491:101,1,110,6|2,1:2|1:2,0:0:0:0:
465,71,51845,1,10,0:2:0:0:
465,71,52014,1,6,1:2:0:0:
355,60,52351,1,6,1:2:0:0:
296,152,52688,5,6,1:2:0:0:
389,219,53025,1,2,1:2:0:0:
389,219,53194,2,0,L|392:335,1,110,10|2,0:2|0:0,0:0:0:0:
393,383,53699,1,2,1:2:0:0:
296,329,54036,2,0,B|241:317|241:317|176:329,1,110,2|2,1:2|1:2,0:0:0:0:
140,349,54542,1,10,0:2:0:0:
140,349,54711,1,2,0:2:0:0:
32,373,55048,6,0,L|37:307,1,55,2|10,1:2|0:2,0:0:0:0:
43,263,55385,1,6,1:2:0:0:
146,225,55722,2,0,L|151:159,1,55,2|10,1:2|0:2,0:0:0:0:
157,115,56059,1,6,1:2:0:0:
49,92,56396,2,0,L|54:26,1,55,2|8,1:2|0:2,0:0:0:0:
103,14,56733,2,0,P|158:2|233:33,1,110,6|4,1:2|3:0,0:0:0:0:
240,67,57238,1,8,3:0:0:0:
240,67,57407,1,6,1:2:0:0:
209,172,57744,2,0,L|136:171,2,55,8|8|0,0:0|0:0|1:0,0:0:0:0:
263,176,58250,5,6,1:2:0:0:
328,264,58587,1,10,0:2:0:0:
441,264,58924,1,2,1:2:0:0:
441,264,59093,1,2,1:2:0:0:
511,179,59430,2,0,L|511:66,1,110,6|2,1:2|1:2,0:0:0:0:
477,33,59935,1,8,0:0:0:0:
477,33,60104,2,0,P|412:20|353:51,1,110,2|0,1:2|0:0,0:0:0:0:
330,70,60609,1,10,0:2:0:0:
330,180,60947,5,6,1:2:0:0:
258,263,61284,1,10,0:2:0:0:
152,266,61621,1,2,0:0:0:0:
152,266,61789,1,2,1:2:0:0:
66,197,62126,2,0,B|52:147|52:147|71:84,1,110,6|2,1:2|1:2,0:0:0:0:
102,47,62632,1,8,0:0:0:0:
102,47,62800,2,0,L|237:52,1,110,2|0,1:2|0:0,0:0:0:0:
267,52,63306,1,10,0:2:0:0:
263,161,63643,5,6,1:2:0:0:
309,260,63980,1,10,0:2:0:0:
240,345,64317,2,0,L|162:346,1,55,10|2,0:2|1:2,0:0:0:0:
137,373,64654,2,0,L|59:374,1,55,8|2,0:0|1:2,0:0:0:0:
26,373,64991,1,8,0:0:0:0:
17,263,65329,1,8,0:0:0:0:
114,212,65666,2,0,P|118:171|109:129,1,55,12|0,0:0|1:0,0:0:0:0:
74,121,66003,2,0,P|72:93|76:66,1,55,14|0,0:0|0:0,0:0:0:0:
119,32,66340,5,8,3:0:0:0:
214,87,66677,1,10,3:0:0:0:
320,54,67014,2,0,L|320:-12,2,55,14|12|12,3:0|3:0|0:3,0:0:0:0:
320,161,67688,1,6,1:2:0:0:
256,192,67857,12,2,69711,1:2:0:0:
462,334,75778,5,6,1:2:0:0:
398,257,76115,1,6,1:2:0:0:
326,325,76452,2,0,L|252:324,1,49.4999984893799,6|2,1:2|0:0,0:0:0:0:
226,326,76789,1,6,1:2:0:0:
226,326,76958,1,2,0:0:0:0:
86,375,77463,2,0,P|75:331|92:272,1,98.9999969787599,2|2,0:0|0:0,0:0:0:0:
121,243,77969,1,8,3:0:0:0:
218,223,78306,6,0,L|214:95,1,98.9999969787599,6|2,1:2|1:2,0:0:0:0:
186,83,78812,2,0,L|187:19,1,49.4999984893799,10|2,0:0|0:0,0:0:0:0:
284,15,79317,2,0,P|312:9|348:15,1,49.4999984893799,2|8,1:2|0:0,0:0:0:0:
378,30,79654,2,0,B|406:100|406:100|375:183,1,148.49999546814,2|10,1:2|0:2,0:0:0:0:
351,208,80328,1,2,1:0:0:0:
426,272,80666,2,0,L|427:338,1,49.4999984893799,2|10,1:2|0:2,0:0:0:0:
420,370,81003,6,0,P|370:382|319:363,1,98.9999969787599,2|2,1:2|1:2,0:0:0:0:
289,334,81508,1,8,0:0:0:0:
190,342,81845,2,0,L|47:345,1,98.9999969787599,2|8,0:0|0:0,0:0:0:0:
41,344,82351,1,2,1:2:0:0:
40,245,82688,2,0,L|117:244,1,49.4999984893799,2|8,1:2|0:2,0:0:0:0:
140,244,83025,1,2,1:2:0:0:
188,157,83362,1,2,1:2:0:0:
90,140,83699,6,0,B|59:72|59:72|114:-2,1,148.49999546814,6|10,1:2|0:2,0:0:0:0:
152,15,84373,1,2,0:0:0:0:
233,79,84711,2,0,L|303:78,1,49.4999984893799,2|8,1:2|0:0,0:0:0:0:
318,44,85048,2,0,P|362:26|462:63,1,148.49999546814,2|10,1:2|0:2,0:0:0:0:
481,96,85722,1,2,0:2:0:0:
393,142,86059,2,0,L|398:221,1,49.4999984893799,2|10,1:2|0:0,0:0:0:0:
385,239,86396,6,0,P|319:272|246:234,1,148.49999546814,6|10,1:2|0:2,0:0:0:0:
210,220,87070,2,0,P|164:202|102:225,1,98.9999969787599,2|0,0:0|1:0,0:0:0:0:
87,253,87576,1,10,0:2:0:0:
87,253,87744,1,6,1:2:0:0:
136,345,88081,1,8,3:0:0:0:
136,345,88250,1,8,3:0:0:0:
239,350,88587,1,14,0:0:0:0:
239,350,88756,1,10,0:0:0:0:
404,384,89261,5,4,1:2:0:0:
404,384,89430,2,0,L|412:261,1,110,2|2,1:2|0:0,0:0:0:0:
357,262,89935,2,0,L|365:139,1,110,2|10,1:2|0:2,0:0:0:0:
310,141,90441,2,0,L|318:18,1,110,2|2,0:2|1:2,0:0:0:0:
262,23,90947,1,10,0:2:0:0:
212,121,91284,2,0,B|165:114|141:89|141:89|115:119|54:127,1,165,2|2,1:2|0:2,0:0:0:0:
14,138,91958,5,2,1:2:0:0:
14,138,92126,1,2,1:2:0:0:
71,238,92464,1,2,0:2:0:0:
71,238,92632,2,0,P|54:278|69:351,1,110,2|10,1:2|0:2,0:0:0:0:
108,374,93138,1,2,0:2:0:0:
222,378,93475,1,2,1:2:0:0:
222,378,93643,1,10,0:2:0:0:
286,289,93973,1,14,0:2:0:0:
205,213,94333,5,6,1:2:0:0:
205,213,94501,2,0,P|201:167|249:103,1,110,2|2,1:2|0:2,0:0:0:0:
284,133,95007,2,0,P|321:106|401:116,1,110,2|10,1:2|0:2,0:0:0:0:
396,160,95506,2,0,P|437:179|469:253,1,110,2|2,0:2|1:2,0:0:0:0:
461,288,95987,1,10,0:2:0:0:
353,262,96311,2,0,B|264:246|264:246|238:286|180:291,1,165,10|4,0:2|3:0,0:0:0:0:
155,295,96982,5,4,1:2:0:0:
83,226,97340,1,10,0:2:0:0:
157,160,97677,2,0,L|163:82,1,49.4999984893799,2|0,1:2|1:0,0:0:0:0:
172,65,98014,1,10,0:2:0:0:
172,65,98182,1,2,1:2:0:0:
258,17,98519,2,0,P|294:15|327:30,1,49.4999984893799,2|10,1:2|0:2,0:0:0:0:
343,51,98857,1,2,1:2:0:0:
388,138,99194,2,0,P|390:174|375:207,1,49.4999984893799,2|10,1:2|0:0,0:0:0:0:
345,215,99531,6,0,L|226:213,1,98.9999969787599,2|2,1:2|1:2,0:0:0:0:
203,239,100037,1,10,0:0:0:0:
203,239,100205,2,0,L|82:234,1,98.9999969787599,2|2,1:2|1:2,0:0:0:0:
31,302,100880,1,6,1:2:0:0:
105,367,101217,1,10,3:0:0:0:
105,367,101385,2,0,L|172:371,1,49.4999984893799,10|6,3:0|3:0,0:0:0:0:
202,380,101722,1,14,0:0:0:0:
272,310,102059,1,14,0:0:0:0:
203,239,102396,6,0,P|196:182|215:126,1,98.9999969787599,4|2,1:2|1:2,0:0:0:0:
291,91,103071,2,0,L|291:24,2,49.4999984893799,2|4|2,1:2|3:0|1:2,0:0:0:0:
329,121,103576,2,0,L|453:121,1,98.9999969787599,14|2,0:2|0:0,0:0:0:0:
477,125,104082,1,2,1:2:0:0:
477,125,104250,1,10,3:0:0:0:
491,222,104587,6,0,P|457:226|422:219,1,49.4999984893799,10|6,3:0|3:0,0:0:0:0:
396,204,104924,1,6,1:2:0:0:
313,149,105261,2,0,P|279:145|244:152,1,49.4999984893799,8|8,3:0|3:0,0:0:0:0:
218,167,105598,1,8,3:0:0:0:
152,241,105936,1,12,3:0:0:0:
176,336,106273,2,0,B|246:329|282:278|282:278|319:333|403:333,1,247.4999924469,6|10,0:0|0:0,0:0:0:0:
509,220,107620,5,6,1:2:0:0:
448,135,107957,1,2,1:2:0:0:
448,135,108126,2,0,L|524:132,2,55,10|2|2,0:2|0:0|1:2,0:0:0:0:
392,135,108632,1,2,1:2:0:0:
289,95,108969,2,0,B|273:147|273:147|292:212,1,110,2|2,1:2|1:2,0:0:0:0:
315,254,109475,1,10,0:2:0:0:
315,254,109643,1,2,0:2:0:0:
229,323,109980,2,0,L|164:322,1,55,2|10,1:2|0:2,0:0:0:0:
118,320,110317,1,6,1:2:0:0:
72,225,110654,5,2,1:2:0:0:
72,225,110823,2,0,L|136:225,2,55,10|2|0,0:2|0:2|1:0,0:0:0:0:
16,222,111328,1,2,1:2:0:0:
16,112,111665,2,0,B|70:95|70:95|142:116,1,110,6|2,1:2|1:2,0:0:0:0:
171,144,112170,1,10,0:2:0:0:
171,144,112339,1,6,1:2:0:0:
280,154,112676,1,6,1:2:0:0:
344,64,113013,5,6,1:2:0:0:
429,141,113350,1,2,1:2:0:0:
429,141,113519,2,0,L|499:138,2,55,10|2|2,0:2|0:0|1:2,0:0:0:0:
399,186,114024,1,2,1:2:0:0:
289,192,114361,2,0,B|169:192,1,110,2|2,1:2|1:2,0:0:0:0:
127,195,114867,1,10,0:2:0:0:
127,195,115035,1,2,0:2:0:0:
17,191,115373,6,0,L|12:257,1,55,2|10,1:2|0:2,0:0:0:0:
11,301,115710,1,6,1:2:0:0:
116,305,116048,2,0,L|121:239,1,55,2|10,1:2|0:2,0:0:0:0:
127,195,116385,1,6,1:2:0:0:
234,216,116722,2,0,L|229:270,1,55,2|8,1:2|0:2,0:0:0:0:
230,325,117059,2,0,B|286:346|286:346|351:323,1,110,6|4,1:2|3:0,0:0:0:0:
389,312,117564,1,8,3:0:0:0:
389,312,117733,1,2,1:2:0:0:
456,225,118070,2,0,L|529:226,2,55,8|8|0,0:0|0:0|1:0,0:0:0:0:
415,189,118576,5,6,1:2:0:0:
482,102,118913,1,10,0:2:0:0:
402,34,119250,1,2,1:2:0:0:
402,34,119418,1,2,1:2:0:0:
323,110,119755,2,0,P|270:127|209:104,1,110,6|2,1:2|1:2,0:0:0:0:
187,73,120261,1,8,0:0:0:0:
187,73,120430,2,0,P|122:60|63:91,1,110,2|0,1:2|0:0,0:0:0:0:
48,117,120935,1,10,0:2:0:0:
122,197,121272,5,6,1:2:0:0:
46,277,121609,1,10,0:2:0:0:
121,364,121946,1,2,0:0:0:0:
121,364,122115,1,2,1:2:0:0:
206,294,122452,2,0,B|261:279|261:279|319:299,1,110,6|2,1:2|1:2,0:0:0:0:
353,331,122958,1,8,0:0:0:0:
353,331,123126,2,0,B|408:346|408:346|466:326,1,110,2|0,1:2|0:0,0:0:0:0:
503,298,123632,1,10,0:2:0:0:
417,229,123969,5,6,1:2:0:0:
417,119,124306,1,10,0:2:0:0:
325,57,124643,2,0,P|295:52|246:65,1,55,10|2,0:2|1:2,0:0:0:0:
226,87,124980,2,0,P|219:121|227:165,1,55,8|6,0:0|1:2,0:0:0:0:
253,185,125317,1,8,0:0:0:0:
248,294,125654,1,8,0:0:0:0:
169,371,125991,2,0,L|86:366,1,55,12|0,0:0|1:0,0:0:0:0:
89,317,126329,2,0,L|34:315,1,55,14|0,0:0|0:0,0:0:0:0:
4,268,126666,5,8,3:0:0:0:
8,158,127003,1,10,3:0:0:0:
126,171,127340,1,12,3:0:0:0:
126,171,127508,1,12,3:0:0:0:
126,171,127677,2,0,P|132:136|125:105,1,55,14|12,3:0|3:0,0:0:0:0:
110,70,128014,1,6,1:2:0:0:
256,192,128183,12,14,132733,0:2:0:0:
330,171,133408,6,0,P|363:262|314:368,1,197.99999395752,6|10,1:2|0:0,0:0:0:0:
180,347,134587,2,0,P|157:270|187:183,1,148.49999546814,2|2,1:2|1:2,0:0:0:0:
252,264,135430,2,0,B|311:262|311:262|347:279|347:279|403:278,1,148.49999546814,10|2,0:2|0:0,0:0:0:0:
445,283,136104,2,0,B|481:192|481:192|446:91,1,197.99999395752,2|10,1:2|0:2,0:0:0:0:
309,43,137283,2,0,L|185:43,1,98.9999969787599,2|10,1:2|0:0,0:0:0:0:
160,44,137790,1,6,1:2:0:0:
81,120,138126,2,0,L|79:182,1,55,14|4,0:2|3:0,0:0:0:0:
118,213,138463,2,0,L|116:275,1,55,0|6,0:0|3:0,0:0:0:0:
117,323,138800,5,2,0:0:0:0:
256,192,148239,12,2,151610,1:2:0:0:
256,192,152115,5,6,1:2:0:0:
334,277,152453,1,2,1:2:0:0:
334,277,152621,2,0,P|365:282|418:272,1,55,10|2,0:2|0:0,0:0:0:0:
445,268,152957,1,2,1:2:0:0:
445,268,153125,1,2,1:2:0:0:
499,172,153462,2,0,L|499:37,1,110,2|2,1:2|1:2,0:0:0:0:
461,29,153968,1,10,0:2:0:0:
461,29,154136,1,2,0:2:0:0:
368,87,154474,2,0,P|337:90|301:84,1,55,2|10,1:2|0:2,0:0:0:0:
263,64,154811,1,6,1:2:0:0:
163,29,155148,5,2,1:2:0:0:
163,29,155317,2,0,L|163:104,1,55,10|2,0:2|0:2,0:0:0:0:
166,143,155653,1,2,1:2:0:0:
166,143,155822,1,2,1:2:0:0:
74,204,156159,2,0,P|60:259|84:324,1,110,6|2,1:2|1:2,0:0:0:0:
113,354,156664,1,10,0:2:0:0:
113,354,156833,1,6,1:2:0:0:
222,359,157170,1,6,1:2:0:0:
331,358,157507,5,6,1:2:0:0:
402,275,157844,1,2,1:2:0:0:
402,275,158013,2,0,P|405:239|402:208,1,55,10|2,0:2|0:0,0:0:0:0:
371,183,158350,1,2,1:2:0:0:
371,183,158518,1,2,1:2:0:0:
277,124,158855,2,0,B|222:112|222:112|157:124,1,110,2|2,1:2|1:2,0:0:0:0:
123,148,159361,1,10,0:2:0:0:
123,148,159530,1,2,0:2:0:0:
20,186,159867,6,0,P|18:156|25:120,1,55,2|10,1:2|0:2,0:0:0:0:
31,76,160204,1,6,1:2:0:0:
111,1,160541,2,0,P|144:-1|177:6,1,55,2|10,1:2|0:2,0:0:0:0:
221,12,160878,1,6,1:2:0:0:
287,99,161215,2,0,P|289:129|282:165,1,55,2|8,1:2|0:2,0:0:0:0:
245,191,161552,2,0,L|234:307,1,110,6|4,1:2|3:0,0:0:0:0:
236,359,162058,1,8,3:0:0:0:
236,359,162227,1,2,1:2:0:0:
343,337,162564,1,8,0:0:0:0:
343,337,162732,2,0,L|422:343,1,55,8|0,0:0|1:0,0:0:0:0:
452,351,163070,5,6,1:2:0:0:
508,256,163407,1,10,0:2:0:0:
448,170,163744,1,2,1:2:0:0:
448,170,163913,1,2,1:2:0:0:
499,72,164250,2,0,P|443:56|386:72,1,110,6|2,1:2|1:2,0:0:0:0:
346,90,164755,1,8,0:0:0:0:
346,90,164923,2,0,L|348:216,1,110,2|0,1:2|0:0,0:0:0:0:
351,255,165429,1,10,0:2:0:0:
255,310,165767,5,6,1:2:0:0:
194,218,166104,1,10,0:2:0:0:
245,123,166441,1,2,1:2:0:0:
245,123,166609,1,2,1:2:0:0:
164,48,166946,2,0,B|110:30|110:30|51:53,1,110,6|2,1:2|1:2,0:0:0:0:
23,90,167452,1,8,0:0:0:0:
23,90,167620,2,0,L|18:225,1,110,2|0,1:2|0:0,0:0:0:0:
12,254,168126,1,10,0:2:0:0:
70,347,168463,5,6,1:2:0:0:
154,276,168800,1,10,0:2:0:0:
238,346,169137,2,0,L|316:345,1,55,10|2,0:2|1:2,0:0:0:0:
320,297,169474,2,0,L|398:296,1,55,8|6,0:0|1:2,0:0:0:0:
430,294,169811,1,8,0:0:0:0:
387,192,170148,1,8,0:0:0:0:
471,121,170486,2,0,P|475:80|466:38,1,55,12|0,0:0|1:0,0:0:0:0:
435,26,170823,2,0,P|407:22|380:24,1,55,14|0,0:0|0:0,0:0:0:0:
329,45,171160,5,4,1:2:0:0:
259,129,171497,1,8,3:0:0:0:
327,229,171834,1,6,3:0:0:0:
327,229,172002,2,0,L|328:295,1,55,4|0,3:0|1:0,0:0:0:0:
325,339,172339,6,0,P|270:358|201:334,1,110,6|2,1:2|1:2,0:0:0:0:
174,316,172846,1,8,0:0:0:0:
174,316,173014,1,2,0:2:0:0:
168,206,173351,2,0,L|166:137,1,55,2|8,1:2|0:0,0:0:0:0:
162,95,173689,2,0,B|111:81|111:81|52:96,1,110,2|0,1:2|1:0,0:0:0:0:
14,131,174194,1,8,0:0:0:0:
55,232,174531,2,0,L|58:309,1,55,2|2,1:2|1:2,0:0:0:0:
57,342,174868,1,10,0:2:0:0:
57,342,175037,6,0,L|175:341,1,110,6|2,1:2|1:2,0:0:0:0:
221,342,175542,1,10,0:2:0:0:
313,282,175880,1,2,1:2:0:0:
313,282,176048,2,0,L|380:281,1,55,2|8,1:2|0:0,0:0:0:0:
423,283,176385,2,0,P|439:223|424:168,1,110,6|2,1:2|1:2,0:0:0:0:
389,138,176891,1,8,0:0:0:0:
389,138,177060,1,6,1:2:0:0:
295,194,177396,1,0,1:0:0:0:
207,127,177733,6,0,P|196:73|212:21,1,110,6|0,1:2|1:2,0:0:0:0:
264,2,178239,1,10,0:0:0:0:
345,84,178576,1,2,1:2:0:0:
345,84,178745,2,0,L|408:85,1,55,2|8,1:2|0:0,0:0:0:0:
455,87,179082,1,2,1:2:0:0:
498,187,179419,2,0,P|501:222|489:267,1,55,0|10,1:0|0:2,0:0:0:0:
463,284,179756,1,2,0:2:0:0:
353,294,180093,2,0,P|350:259|362:214,1,55,2|10,1:2|0:2,0:0:0:0:
380,191,180430,6,0,L|255:190,1,110,6|0,1:2|1:2,0:0:0:0:
218,193,180936,1,10,0:2:0:0:
218,193,181104,1,2,0:2:0:0:
158,285,181441,2,0,L|92:285,1,55,2|10,1:2|0:2,0:0:0:0:
47,284,181778,1,6,1:2:0:0:
7,181,182115,2,0,B|-6:127|-6:127|20:59,2,110,8|0|4,3:2|1:0|3:0,0:0:0:0:
107,136,183127,6,0,L|230:139,1,110,6|2,1:2|1:2,0:0:0:0:
271,142,183632,1,10,0:0:0:0:
343,224,183969,1,2,1:2:0:0:
343,224,184138,2,0,L|423:224,1,55,0|10,1:0|0:2,0:0:0:0:
453,224,184475,1,2,1:2:0:0:
508,129,184812,2,0,P|511:100|506:64,1,55,2|10,1:2|0:2,0:0:0:0:
482,25,185149,1,2,0:0:0:0:
377,12,185486,1,2,1:2:0:0:
377,12,185655,2,0,L|286:11,1,55,8|2,0:2|1:2,0:0:0:0:
267,11,185991,5,2,0:0:0:0:
210,105,186329,1,10,0:2:0:0:
272,195,186666,2,0,L|347:197,2,55,2|0|8,1:2|1:0|0:0,0:0:0:0:
247,244,187172,1,6,1:2:0:0:
194,340,187509,2,0,L|112:339,1,55,2|10,1:2|0:2,0:0:0:0:
83,339,187846,1,6,1:2:0:0:
36,239,188182,2,0,L|118:240,1,55,6|10,1:2|0:2,0:0:0:0:
147,240,188519,1,6,1:2:0:0:
224,161,188857,5,2,1:2:0:0:
224,161,189026,2,0,P|226:113|219:85,1,55,10|2,0:2|0:2,0:0:0:0:
200,56,189363,1,2,1:2:0:0:
94,57,189700,1,10,0:2:0:0:
94,57,189868,2,0,P|78:119|95:180,1,110,6|2,1:2|1:2,0:0:0:0:
118,198,190373,1,10,0:2:0:0:
118,198,190542,2,0,P|126:251|110:304,1,110,2|2,0:2|1:2,0:0:0:0:
219,378,191218,5,4,1:2:0:0:
302,328,191555,1,0,1:0:0:0:
302,328,191723,2,0,L|374:333,1,55,12|0,0:0|0:0,0:0:0:0:
411,337,192060,1,0,1:0:0:0:
457,256,192397,1,10,0:2:0:0:
457,256,192566,1,6,1:2:0:0:
362,223,192903,5,10,3:0:0:0:
362,223,193071,1,10,3:0:0:0:
362,223,193240,2,0,L|366:142,1,55,10|10,3:0|3:0,0:0:0:0:
332,123,193577,2,0,L|336:42,1,55,10|10,3:0|3:0,0:0:0:0:
301,24,193914,1,6,1:2:0:0:
