osu file format v14

[General]
AudioFilename: audio.mp3
AudioLeadIn: 0
PreviewTime: 47548
Countdown: 0
SampleSet: Soft
StackLeniency: 0.4
Mode: 0
LetterboxInBreaks: 0
WidescreenStoryboard: 1

[Editor]
Bookmarks: 8695,12571,23357,34307,41383,42043,47632,67688,78306,89261,96982,107620,128014,141497,152115,172339,183126,191218,193914
DistanceSpacing: 0.2
BeatDivisor: 4
GridSize: 8
TimelineZoom: 4.000003

[Metadata]
Title:Symbolic View
TitleUnicode:シンボリックビュー
Artist:Uchida Maaya
ArtistUnicode:内田真礼
Creator:Akane Hime
Version:Insane
Source:
Tags:cosmos c.o.s.m.o.s magic hour Meg image-- kuei -_ex_- Kuroame Kowari NEURONIO japanese pop jpop j-pop
BeatmapID:3018490
BeatmapSetID:1379960

[Difficulty]
HPDrainRate:6
CircleSize:4
OverallDifficulty:8
ApproachRate:9
SliderMultiplier:1.7
SliderTickRate:1

[Events]
//Background and Video events
0,0,"BG.jpg",0,0
//Break Periods
2,69911,72481
2,141696,147638
//Storyboard Layer 0 (Background)
//Storyboard Layer 1 (Fail)
//Storyboard Layer 2 (Pass)
//Storyboard Layer 3 (Foreground)
//Storyboard Layer 4 (Overlay)
//Storyboard Sound Samples

[TimingPoints]
615,337.078651685393,4,2,1,70,1,0
615,-166.666666666667,4,2,1,60,0,0
8695,337.078651685393,4,2,1,70,1,0
8709,-100,4,2,1,85,0,0
12571,-111.111111111111,4,2,1,70,0,0
18975,-111.111111111111,4,2,1,50,0,0
19312,-111.111111111111,4,2,1,60,0,0
19987,-111.111111111111,4,2,1,70,0,0
20661,-111.111111111111,4,2,1,80,0,0
21335,-111.111111111111,4,2,1,90,0,0
23357,-111.111111111111,4,2,1,80,0,0
24032,-100,4,2,1,80,0,0
24364,337.078651685393,4,2,1,70,1,0
24364,-111.111111111111,4,2,1,80,0,0
26049,-100,4,2,1,80,0,0
26386,-111.111111111111,4,2,1,80,0,0
32790,-100,4,2,1,80,0,0
33465,-111.111111111111,4,2,1,80,0,0
34312,337.078651685393,4,2,1,70,1,0
34312,-100,4,2,1,85,0,0
36334,-133.333333333333,4,2,1,85,0,0
36847,304.568527918782,4,2,1,70,1,0
36999,337.078651685393,4,2,1,70,1,0
36999,-100,4,2,1,85,0,0
39031,337.078651685393,4,2,1,70,1,0
39358,344.827586206896,4,2,1,85,1,0
39530,337.078651685393,4,2,1,70,1,0
41383,-133.333333333333,4,2,1,85,0,0
41636,306.122448979592,4,2,1,70,1,0
41865,357.142857142857,4,2,1,70,1,0
42043,357.142857142857,4,2,1,70,1,0
42043,-111.111111111111,4,2,1,90,0,0
42408,337.078651685393,4,2,1,70,1,0
42745,-100,4,2,1,90,0,0
44599,-100,4,2,1,90,0,0
47295,-86.9565217391304,4,2,1,90,0,1
67688,-111.111111111111,4,2,1,80,0,0
75778,-100,4,2,1,85,0,0
77464,-111.111111111111,4,2,1,70,0,0
78306,-111.111111111111,4,2,1,90,0,0
89261,-100,4,2,1,85,0,0
91284,-133.333333333333,4,2,1,85,0,0
91958,-100,4,2,1,85,0,0
93973,363.636363636363,4,2,1,70,1,0
93973,-200,4,2,1,85,0,0
94333,337.078651685393,4,2,1,85,1,0
95346,320.855614973262,4,2,1,70,1,0
96311,337.078651685393,4,2,1,70,1,0
96311,-133.333333333333,4,2,1,85,0,0
96982,394.736842105263,4,2,1,70,1,0
96982,-86.9565217391304,4,2,1,90,0,0
97179,312.5,4,2,1,70,1,0
97340,337.078651685393,4,2,1,70,1,0
97677,-111.111111111111,4,2,1,70,0,0
101722,-100,4,2,1,90,0,0
102059,-90.9090909090909,4,2,1,90,0,0
102733,-111.111111111111,4,2,1,90,0,0
106272,-111.111111111111,4,2,1,80,0,0
107115,-111.111111111111,4,2,1,90,0,0
107620,-80,4,2,1,90,0,1
108632,-86.9565217391304,4,2,1,90,0,1
128014,-111.111111111111,4,2,1,75,0,0
130036,-133.333333333333,4,2,1,75,0,0
130710,-111.111111111111,4,2,1,75,0,0
133407,-111.111111111111,4,2,1,75,0,0
135429,-133.333333333333,4,2,1,75,0,0
136104,-111.111111111111,4,2,1,75,0,0
138800,-111.111111111111,4,2,1,55,0,0
152115,-83.3333333333333,4,2,2,70,0,0
152452,-86.9565217391304,4,2,1,90,0,1
172339,-86.9565217391304,4,2,1,90,0,0
183126,-90.9090909090909,4,2,1,90,0,0
190874,-83.3333333333333,4,2,1,70,0,0
191076,337.078651685393,4,2,1,70,1,0
191218,337.078651685393,4,2,1,70,1,0
191386,-83.3333333333333,4,2,1,70,0,0
192229,-83.3333333333333,4,2,1,90,0,0
193914,-83.3333333333333,4,2,1,90,0,0
193998,-83.3333333333333,4,2,1,5,0,0

[Colours]
Combo1 : 179,255,102
Combo2 : 255,211,6
Combo3 : 255,119,255
Combo4 : 142,199,255

[HitObjects]
192,77,615,6,0,P|264:106|304:94,1,101.999996887207,0|2,0:0|0:0,0:0:0:0:
407,224,1289,2,0,P|364:197|313:197,1,101.999996887207,0|2,0:0|0:0,0:0:0:0:
201,329,1963,2,0,L|181:215,1,101.999996887207,0|2,0:0|0:0,0:0:0:0:
102,75,2637,2,0,L|84:175,1,101.999996887207,0|2,0:0|0:0,0:0:0:0:
47,344,3311,6,0,P|86:312|136:306,1,101.999996887207,0|2,0:0|0:0,0:0:0:0:
299,364,3985,2,0,P|260:332|243:284,1,101.999996887207,0|2,0:0|0:0,0:0:0:0:
345,144,4659,2,0,L|332:254,1,101.999996887207,0|2,0:0|0:0,0:0:0:0:
495,184,5334,2,0,L|483:82,1,101.999996887207,0|2,0:0|0:0,0:0:0:0:
318,28,6008,6,0,P|287:68|241:86,1,101.999996887207
79,149,6682,2,0,P|125:167|155:207,1,101.999996887207
293,312,7356,2,0,L|183:338,1,101.999996887207
292,192,8030,2,0,L|402:218,1,101.999996887207,0|2,0:0|0:0,0:0:0:0:
193,335,8695,5,6,1:2:0:0:
164,163,8863,1,2,0:0:0:0:
48,296,9032,5,6,1:2:0:0:
225,261,9200,1,2,0:0:0:0:
55,219,9369,5,6,1:2:0:0:
232,254,9537,1,2,0:0:0:0:
108,376,9706,5,6,1:2:0:0:
55,219,9874,1,2,0:0:0:0:
476,105,10381,6,0,L|454:226,1,85,14|0,0:2|0:0,0:0:0:0:
497,304,10718,1,8,0:0:0:0:
384,254,10886,1,0,0:0:0:0:
505,298,11055,1,8,0:0:0:0:
385,381,11223,5,2,1:2:0:0:
385,381,11308,1,0,0:0:0:0:
385,381,11392,2,0,P|342:379|307:357,1,85,10|2,0:2|1:2,0:0:0:0:
235,287,11729,2,0,L|135:305,1,85,10|0,0:2|0:0,0:0:0:0:
51,243,12066,5,8,3:0:0:0:
50,228,12150,1,8,3:0:0:0:
49,214,12234,1,4,3:0:0:0:
48,200,12318,1,4,3:0:0:0:
48,186,12403,1,0,1:0:0:0:
47,172,12487,1,0,0:0:0:0:
46,158,12571,6,0,P|106:115|179:149,1,152.999995330811,6|2,1:2|0:0,0:0:0:0:
271,221,13077,1,2,0:0:0:0:
271,221,13246,2,0,P|278:140|293:44,1,152.999995330811,2|2,0:0|0:0,0:0:0:0:
393,0,13751,1,0,0:0:0:0:
393,0,13920,2,0,P|374:44|445:119,1,152.999995330811,2|0,0:0|0:0,0:0:0:0:
512,217,14425,1,0,0:0:0:0:
512,217,14594,2,0,P|437:211|354:208,1,152.999995330811,2|2,0:0|0:0,0:0:0:0:
219,231,15100,5,2,0:0:0:0:
161,150,15268,2,0,L|181:40,1,76.4999976654053,2|0,0:0|0:0,0:0:0:0:
54,209,15605,2,0,L|39:284,1,76.4999976654053,2|2,0:0|0:0,0:0:0:0:
61,118,15942,1,2,0:0:0:0:
139,237,16111,1,0,0:0:0:0:
144,242,16279,2,0,L|252:227,1,76.4999976654053,2|0,0:0|0:0,0:0:0:0:
486,293,16616,6,0,P|434:247|344:292,1,152.999995330811,2|2,0:0|0:0,0:0:0:0:
283,349,17122,1,2,0:0:0:0:
283,349,17291,2,0,L|188:339,1,76.4999976654053,2|0,0:0|0:0,0:0:0:0:
115,384,17628,2,0,L|77:370,2,38.2499988327027,8|8|4,3:0|3:0|3:0,0:0:0:0:
169,163,17965,6,0,L|186:255,1,76.4999976654053,14|0,0:0|3:0,0:0:0:0:
115,384,18302,1,0,3:0:0:0:
115,384,18470,1,0,3:0:0:0:
74,270,18639,2,0,P|31:247|-9:257,1,76.4999976654053,0|0,3:0|3:0,0:0:0:0:
182,238,18976,6,0,P|198:230|214:218,3,38.2499988327027,0|0|0|0,3:0|3:0|3:0|3:0,0:0:0:0:
285,257,19313,2,0,P|295:241|304:223,3,38.2499988327027,0|0|0|0,3:0|3:0|3:0|3:0,0:0:0:0:
383,221,19650,2,0,P|384:201|382:182,3,38.2499988327027,0|0|0|0,3:0|3:0|3:0|3:0,0:0:0:0:
337,83,19987,1,0,3:0:0:0:
337,83,20071,1,0,3:0:0:0:
337,83,20156,2,0,L|260:73,1,76.4999976654053,0|0,3:0|3:0,0:0:0:0:
123,48,20493,5,0,3:0:0:0:
123,48,20577,1,0,3:0:0:0:
123,48,20661,2,0,P|131:64|136:85,3,38.2499988327027,0|0|0|0,3:0|3:0|3:0|3:0,0:0:0:0:
185,148,20998,2,0,P|176:164|171:185,3,38.2499988327027,0|0|0|0,3:0|3:0|3:0|3:0,0:0:0:0:
134,274,21336,6,0,P|153:272|171:274,1,38.2499988327027,0|0,3:0|3:0,0:0:0:0:
252,226,21504,2,0,P|267:236|284:245,1,38.2499988327027,0|0,3:0|3:0,0:0:0:0:
405,344,21673,5,8,3:0:0:0:
377,341,21757,1,8,3:0:0:0:
348,339,21841,1,0,1:0:0:0:
320,337,21925,1,0,1:0:0:0:
292,335,22010,2,0,L|245:331,1,38.2499988327027,12|0,0:0|0:0,0:0:0:0:
474,218,22852,5,0,1:0:0:0:
474,218,22937,1,0,1:0:0:0:
474,218,23021,2,0,L|456:149,1,38.2499988327027,8|8,3:0|3:0,0:0:0:0:
392,80,23189,2,0,L|380:136,1,38.2499988327027,8|0,0:0|0:0,0:0:0:0:
240,221,23358,6,0,B|268:185|321:190|321:190|357:220|403:212,1,152.999995330811,6|2,1:2|1:2,0:0:0:0:
494,56,23864,1,8,0:0:0:0:
383,117,24032,2,0,L|284:102,1,85,2|2,0:0|0:0,0:0:0:0:
28,128,24364,6,0,L|57:234,1,76.4999976654053,2|8,1:2|0:0,0:0:0:0:
156,73,24701,2,0,L|176:-1,1,76.4999976654053,2|0,1:2|0:0,0:0:0:0:
58,30,25038,1,2,1:2:0:0:
58,30,25206,1,8,0:0:0:0:
157,167,25375,2,0,L|252:152,1,76.4999976654053,2|2,1:2|1:2,1:2:0:0:
83,280,25712,1,0,1:0:0:0:
83,280,25880,1,10,0:2:0:0:
157,167,26049,6,0,P|184:220|178:255,1,85,2|0,1:2|0:0,0:0:0:0:
102,384,26386,1,2,1:2:0:0:
203,363,26554,1,8,0:0:0:0:
83,280,26722,1,2,0:0:0:0:
83,280,26807,1,2,0:0:0:0:
83,280,26891,1,2,0:0:0:0:
208,368,27060,6,0,P|262:368|311:354,1,76.4999976654053,0|8,1:0|0:0,0:0:0:0:
462,222,27397,2,0,P|403:233|342:243,1,114.749996498108,2|0,1:2|0:0,0:0:0:0:
328,222,27734,2,0,P|283:214|223:206,1,76.4999976654053,2|8,1:2|0:2,0:0:0:0:
80,207,28071,5,2,1:2:0:0:
111,205,28155,1,2,0:0:0:0:
142,190,28239,1,2,0:0:0:0:
162,165,28323,1,2,0:0:0:0:
172,134,28408,2,0,L|160:68,1,38.2499988327027,2|2,1:2|0:0,0:0:0:0:
108,43,28577,1,10,0:0:0:0:
280,123,28745,6,0,P|316:117|362:112,1,76.4999976654053,6|0,1:2|0:0,0:0:0:0:
500,227,29082,1,2,1:2:0:0:
353,197,29251,1,8,0:0:0:0:
449,55,29419,2,0,P|467:103|448:154,1,76.4999976654053,2|2,0:0|0:0,0:0:0:0:
442,334,29757,6,0,P|383:323|322:313,1,114.749996498108,2|0,1:2|0:0,0:0:0:0:
308,334,30094,2,0,P|263:342|229:348,1,76.4999976654053,2|0,1:2|0:0,0:0:0:0:
152,173,30431,1,2,1:2:0:0:
152,173,30599,1,10,0:2:0:0:
56,243,30768,2,0,P|136:254|227:273,1,152.999995330811,2|2,1:2|1:2,0:0:0:0:
348,104,31273,5,10,0:0:0:0:
378,195,31442,2,0,P|286:176|254:103,1,152.999995330811,6|0,1:2|1:0,0:0:0:0:
118,48,31948,1,10,0:2:0:0:
118,48,32116,2,0,B|154:31|154:31|132:159,1,152.999995330811,2|0,0:0|1:0,0:0:0:0:
53,283,32622,1,10,0:2:0:0:
53,283,32790,2,0,P|103:243|176:262,1,127.5,6|0,1:2|0:0,0:0:0:0:
251,263,33127,5,8,3:0:0:0:
173,375,33295,1,8,3:0:0:0:
256,258,33465,2,0,L|245:155,1,76.4999976654053,8|14,3:0|0:0,0:0:0:0:
180,98,33802,5,10,0:0:0:0:
180,98,33886,1,8,0:0:0:0:
180,98,33970,2,0,L|128:108,2,38.2499988327027,2|2|2,0:0|0:0|0:0,0:0:0:0:
270,3,34312,5,4,1:2:0:0:
270,3,34480,2,0,P|308:29|371:24,1,85,2|8,1:2|0:0,0:0:0:0:
497,128,34817,1,2,0:0:0:0:
497,128,34986,2,0,P|455:132|421:157,1,85,2|0,1:2|1:0,0:0:0:0:
266,300,35323,5,10,0:2:0:0:
246,200,35491,2,0,L|342:227,1,85,2|0,0:2|1:0,0:0:0:0:
489,332,35829,1,2,1:2:0:0:
509,232,35997,2,0,L|413:259,1,85,10|0,0:2|0:0,0:0:0:0:
197,370,36334,5,2,1:2:0:0:
214,122,36587,1,2,0:2:0:0:
355,316,36847,1,2,0:2:0:0:
27,334,36999,5,2,1:2:0:0:
27,334,37167,2,0,P|68:328|101:301,1,85,2|8,1:2|0:0,0:0:0:0:
242,214,37504,1,2,0:2:0:0:
242,214,37673,2,0,P|200:208|167:181,1,85,2|0,1:2|1:0,0:0:0:0:
20,47,38010,5,10,0:2:0:0:
0,147,38178,2,0,L|96:120,1,85,2|0,0:2|1:0,0:0:0:0:
236,4,38515,1,2,1:2:0:0:
256,104,38684,2,0,L|160:77,1,85,10|0,0:2|0:0,0:0:0:0:
174,80,39031,5,14,0:2:0:0:
455,46,39358,5,6,1:2:0:0:
455,46,39530,2,0,P|430:79|427:122,1,85,2|8,1:2|0:0,0:0:0:0:
456,293,39867,1,2,0:2:0:0:
456,293,40035,2,0,P|426:262|385:250,1,85,2|0,1:2|1:0,0:0:0:0:
185,195,40371,5,10,0:2:0:0:
255,121,40540,2,0,L|286:214,1,85,2|0,0:2|1:0,0:0:0:0:
233,382,40877,1,2,1:2:0:0:
307,312,41046,2,0,L|212:279,1,85,10|0,0:2|0:0,0:0:0:0:
3,266,41383,5,10,0:2:0:0:
69,67,41636,1,8,3:0:0:0:
140,328,41865,1,4,3:0:0:0:
215,154,42043,6,0,B|186:119|133:125|133:125|98:156|52:150,1,152.999995330811,4|10,1:2|0:2,0:0:0:0:
219,46,42576,1,0,0:0:0:0:
219,46,42745,2,0,L|317:60,1,85,2|0,1:2|1:0,0:0:0:0:
492,218,43082,5,10,0:2:0:0:
504,128,43250,2,0,P|461:128|426:150,1,85,2|0,1:2|0:0,0:0:0:0:
416,291,43587,2,0,L|314:270,1,85,2|10,1:2|0:2,0:0:0:0:
226,365,43924,2,0,L|124:344,1,85,2|2,1:2|0:0,0:0:0:0:
237,260,44261,5,2,1:2:0:0:
321,365,44430,1,10,0:0:0:0:
142,259,44598,2,0,L|177:152,1,85,6|0,1:2|0:0,0:0:0:0:
259,19,44935,1,2,1:2:0:0:
259,19,45104,1,10,0:0:0:0:
95,89,45272,6,0,B|138:59|182:75|182:75|212:116|261:115,1,170,6|2,1:2|1:2,0:0:0:0:
377,87,45778,1,10,0:0:0:0:
341,250,45947,2,0,L|322:154,1,85,6|0,1:2|0:0,0:0:0:0:
388,69,46284,1,10,3:0:0:0:
388,69,46368,1,2,0:0:0:0:
388,69,46452,2,0,L|394:27,2,42.5,10|2|10,3:0|0:0|3:0,0:0:0:0:
341,250,46789,5,10,0:0:0:0:
341,250,46958,2,0,P|261:238|223:268,1,127.5,10|0,0:0|0:0,0:0:0:0:
221,307,47295,2,0,P|175:295|120:289,1,97.7500018644333,6|0,1:2|0:0,0:0:0:0:
89,50,47632,5,2,1:2:0:0:
137,192,47801,1,10,2:0:0:0:
246,100,47969,1,2,0:0:0:0:
37,136,48138,1,2,1:2:0:0:
125,289,48306,2,0,P|136:238|132:156,1,97.7500018644333,2|8,1:2|0:0,0:0:0:0:
212,10,48643,6,0,L|342:28,1,97.7500018644333,2|0,1:2|0:0,0:0:0:0:
395,142,48980,1,2,1:2:0:0:
246,100,49149,1,10,0:2:0:0:
408,24,49317,2,0,P|423:85|398:143,1,97.7500018644333,2|0,0:2|1:0,0:0:0:0:
403,291,49654,5,2,1:2:0:0:
503,233,49823,1,10,0:2:0:0:
396,298,49991,2,0,L|279:273,1,97.7500018644333,6|0,1:2|0:0,0:0:0:0:
131,122,50329,5,2,1:2:0:0:
208,250,50497,2,0,P|190:308|196:366,1,97.7500018644333,10|2,0:2|0:2,0:0:0:0:
81,226,50834,1,2,1:2:0:0:
264,159,51003,1,2,1:2:0:0:
264,159,51087,1,0,0:0:0:0:
264,159,51171,1,8,0:0:0:0:
400,45,51340,6,0,B|340:43|301:25|301:25|337:59|332:105,1,146.62500279665,2|0,1:2|0:0,0:0:0:0:
372,126,51677,2,0,L|357:247,1,97.7500018644333,2|10,1:2|0:2,0:0:0:0:
251,356,52014,6,0,P|170:326|128:344,1,97.7500018644333,6|0,1:2|0:0,0:0:0:0:
14,343,52351,2,0,P|79:287|85:243,1,97.7500018644333,6|0,1:2|0:0,0:0:0:0:
148,142,52688,2,0,P|162:226|198:253,1,97.7500018644333,6|0,1:2|0:0,0:0:0:0:
231,45,53025,5,2,1:2:0:0:
57,131,53194,1,10,0:2:0:0:
243,154,53362,1,2,0:0:0:0:
116,34,53531,1,2,1:2:0:0:
249,160,53699,2,0,L|360:139,1,97.7500018644333,2|8,1:2|0:0,0:0:0:0:
479,268,54036,6,0,P|423:293|397:353,1,97.7500018644333,2|0,1:2|0:0,0:0:0:0:
238,247,54373,1,2,1:2:0:0:
290,378,54542,1,10,0:2:0:0:
321,216,54711,2,0,P|295:177|210:169,1,97.7500018644333,2|0,0:2|1:0,0:0:0:0:
348,10,55048,5,2,1:2:0:0:
348,10,55216,1,10,0:2:0:0:
232,58,55385,2,0,L|109:40,1,97.7500018644333,6|0,1:2|0:0,0:0:0:0:
364,111,55722,5,2,1:2:0:0:
364,111,55890,1,10,0:2:0:0:
248,159,56059,2,0,L|125:141,1,97.7500018644333,6|0,1:2|0:0,0:0:0:0:
21,284,56396,5,2,1:2:0:0:
20,284,56565,1,8,0:2:0:0:
163,356,56733,2,0,P|180:311|166:264,1,97.7500018644333,6|0,1:2|0:0,0:0:0:0:
0,199,57070,1,4,3:0:0:0:
189,123,57239,1,8,3:0:0:0:
48,53,57407,2,0,L|71:160,1,97.7500018644333,6|0,1:2|0:0,0:0:0:0:
101,316,57744,5,8,0:0:0:0:
127,282,57828,1,8,0:0:0:0:
166,264,57912,1,8,0:0:0:0:
210,266,57996,1,8,0:0:0:0:
247,287,58081,2,0,L|278:327,1,48.8750009322167,0|0,1:0|1:0,0:0:0:0:
383,384,58250,6,0,L|406:274,1,97.7500018644333,6|2,1:2|1:2,0:0:0:0:
492,103,58587,1,10,1:2:0:0:
337,230,58756,1,2,0:0:0:0:
479,244,58924,1,10,0:2:0:0:
347,88,59093,2,0,L|224:69,1,97.7500018644333,2|8,1:2|0:0,0:0:0:0:
0,153,59430,6,0,L|155:128,1,146.62500279665,6|0,1:2|0:0,0:0:0:0:
217,162,59767,2,0,P|250:206|216:272,1,97.7500018644333,2|8,1:2|0:0,0:0:0:0:
174,354,60104,1,2,1:2:0:0:
174,354,60272,2,0,L|280:339,1,97.7500018644333,4|0,1:2|0:0,0:0:0:0:
463,355,60609,2,0,P|419:303|426:240,1,97.7500018644333,10|0,0:2|0:0,0:0:0:0:
512,166,60947,5,6,1:2:0:0:
389,133,61115,1,2,1:2:0:0:
278,96,61284,2,0,L|171:110,1,97.7500018644333,10|2,0:2|0:0,0:0:0:0:
297,202,61620,5,2,0:0:0:0:
353,27,61789,1,2,1:2:0:0:
353,27,61873,1,0,0:0:0:0:
353,27,61958,1,8,0:0:0:0:
72,48,62126,6,0,P|148:52|177:135,1,146.62500279665,6|0,1:2|0:0,0:0:0:0:
160,184,62463,2,0,P|190:234|248:246,1,97.7500018644333,2|8,1:2|0:0,0:0:0:0:
355,359,62800,1,2,1:2:0:0:
355,359,62885,1,0,0:0:0:0:
355,359,62969,2,0,L|251:345,1,97.7500018644333,6|0,1:2|0:0,0:0:0:0:
157,318,63306,2,0,L|60:336,1,97.7500018644333,10|0,0:2|0:0,0:0:0:0:
65,119,63643,5,6,1:2:0:0:
65,119,63812,1,2,1:2:0:0:
174,197,63980,2,0,P|241:203|287:170,1,97.7500018644333,10|2,0:2|0:2,0:0:0:0:
363,91,64317,1,10,0:2:0:0:
363,91,64486,2,0,L|471:104,1,97.7500018644333,2|8,1:2|0:0,0:0:0:0:
348,221,64823,6,0,P|314:188|266:190,1,97.7500018644333,6|8,1:2|0:0,0:0:0:0:
92,146,65160,2,0,P|125:113|173:115,1,97.7500018644333,2|8,0:2|0:0,0:0:0:0:
207,2,65497,2,0,B|260:-14|299:24|299:24|316:81|375:94,1,195.500003728867,2|0,0:2|1:0,0:0:0:0:
511,217,66003,6,0,B|475:211|475:211|445:218|445:218|398:213,1,97.7500018644333,14|0,0:0|0:0,0:0:0:0:
215,282,66340,1,8,3:0:0:0:
215,282,66508,1,8,3:0:0:0:
437,319,66677,1,10,3:0:0:0:
437,319,66845,1,8,3:0:0:0:
309,176,67014,1,10,3:0:0:0:
356,379,67182,1,8,3:0:0:0:
215,282,67350,5,14,3:0:0:0:
191,280,67436,1,12,3:0:0:0:
166,277,67520,2,0,L|92:269,1,48.8750009322167,12|12,3:0|3:0,0:0:0:0:
45,223,67688,5,6,1:2:0:0:
256,192,67772,12,2,69711,1:2:0:0:
13,282,73081,6,0,P|56:263|81:216,1,76.4999976654053,6|0,1:2|0:0,0:0:0:0:
160,293,73418,2,0,P|175:248|156:198,1,76.4999976654053,8|0,0:0|0:0,0:0:0:0:
158,49,73756,6,0,L|237:86,1,76.4999976654053,2|0,1:2|0:0,0:0:0:0:
300,13,74093,2,0,L|349:84,1,76.4999976654053,8|0,0:0|0:0,0:0:0:0:
512,217,74430,6,0,P|464:221|426:259,1,76.4999976654053,2|0,1:2|0:0,0:0:0:0:
373,163,74767,2,0,P|344:201|347:253,1,76.4999976654053,8|0,0:0|0:0,0:0:0:0:
415,375,75104,6,0,P|334:333|285:353,1,114.749996498108,2|0,1:2|0:0,0:0:0:0:
292,362,75441,2,0,P|251:367|207:359,1,76.4999976654053,8|0,0:0|0:0,0:0:0:0:
104,89,75778,5,6,1:2:0:0:
75,260,75947,1,2,0:0:0:0:
220,222,76115,5,6,1:2:0:0:
43,187,76283,1,2,0:0:0:0:
213,145,76453,5,6,1:2:0:0:
36,180,76621,1,2,0:0:0:0:
160,302,76790,5,6,1:2:0:0:
213,145,76958,1,2,0:0:0:0:
213,145,77464,6,0,P|255:129|303:140,1,76.4999976654053,2|2,0:0|0:0,0:0:0:0:
386,166,77800,1,2,0:0:0:0:
386,166,77969,2,0,L|394:111,2,38.2499988327027,8|8|4,3:0|3:0|3:0,0:0:0:0:
430,311,78306,6,0,B|402:275|349:280|349:280|313:310|267:302,1,152.999995330811,6|2,1:2|1:2,0:0:0:0:
150,213,78812,1,8,0:0:0:0:
285,132,78980,2,0,L|277:215,1,76.4999976654053,2|2,0:0|0:0,0:0:0:0:
387,114,79317,6,0,P|376:77|349:51,1,76.4999976654053,2|8,1:2|0:0,0:0:0:0:
471,167,79654,2,0,P|487:123|469:73,1,76.4999976654053,2|0,1:2|0:0,0:0:0:0:
382,208,79991,1,2,1:2:0:0:
492,259,80160,1,8,0:0:0:0:
416,316,80329,2,0,L|308:294,1,76.4999976654053,2|2,1:0|0:0,0:0:0:0:
238,337,80666,1,2,1:2:0:0:
238,337,80834,1,10,0:2:0:0:
122,168,81003,6,0,B|162:147|208:175|208:175|227:218|272:231,1,152.999995330811,2|2,1:2|1:2,0:0:0:0:
69,322,81508,2,0,L|47:245,1,76.4999976654053,8|2,0:0|0:0,0:0:0:0:
0,128,81845,2,0,L|22:51,2,76.4999976654053,2|0|8,0:0|1:0|0:0,0:0:0:0:
122,168,82351,6,0,P|181:157|242:147,1,114.749996498108,2|0,1:2|0:0,0:0:0:0:
256,168,82688,2,0,P|301:176|335:182,1,76.4999976654053,2|8,1:2|0:2,0:0:0:0:
475,157,83025,1,2,1:2:0:0:
475,157,83109,1,2,0:0:0:0:
475,157,83194,1,2,0:0:0:0:
418,268,83362,2,0,L|431:350,1,76.4999976654053,2|10,1:2|0:0,0:0:0:0:
310,287,83699,6,0,P|278:265|240:262,1,76.4999976654053,6|0,1:2|0:0,0:0:0:0:
121,341,84036,1,2,1:2:0:0:
241,261,84205,1,8,0:0:0:0:
101,172,84373,2,0,L|122:245,1,76.4999976654053,2|2,0:0|0:0,0:0:0:0:
2,132,84711,6,0,P|29:91|83:74,1,76.4999976654053,2|8,1:2|0:0,0:0:0:0:
138,6,85048,2,0,L|233:20,1,76.4999976654053,2|0,1:2|0:0,0:0:0:0:
352,124,85385,1,2,1:2:0:0:
352,124,85553,1,10,0:2:0:0:
459,66,85722,2,0,P|448:135|441:217,1,152.999995330811,2|2,1:2|1:2,0:0:0:0:
332,362,86227,5,10,0:0:0:0:
362,271,86396,2,0,P|270:290|238:363,1,152.999995330811,6|0,1:2|1:0,0:0:0:0:
75,378,86902,1,10,0:2:0:0:
75,378,87070,2,0,B|102:331|102:331|108:272|72:204,1,152.999995330811,2|0,0:0|1:0,0:0:0:0:
0,93,87576,1,10,0:2:0:0:
0,93,87744,2,0,B|64:57|57:106|128:63,1,114.749996498108,6|0,1:2|0:0,0:0:0:0:
185,14,88081,5,8,3:0:0:0:
185,14,88250,2,0,L|292:32,1,76.4999976654053,8|0,3:0|1:0,0:0:0:0:
423,46,88587,5,14,0:0:0:0:
347,143,88756,1,10,0:0:0:0:
347,143,88840,1,8,0:0:0:0:
347,143,88924,2,0,L|337:105,2,38.2499988327027,8|8|2,0:0|0:0|1:2,0:0:0:0:
475,227,89261,5,4,1:2:0:0:
475,227,89430,2,0,P|433:231|399:256,1,85,2|8,1:2|0:0,0:0:0:0:
266,364,89767,1,2,0:0:0:0:
266,364,89936,2,0,P|262:322|237:288,1,85,2|0,1:2|1:0,0:0:0:0:
71,170,90272,5,10,0:2:0:0:
63,271,90441,2,0,L|154:232,1,85,2|0,0:2|1:0,0:0:0:0:
302,73,90778,1,2,1:2:0:0:
333,169,90947,2,0,L|234:153,1,85,10|0,0:2|0:0,0:0:0:0:
82,66,91284,5,2,1:2:0:0:
141,237,91537,1,2,0:2:0:0:
212,15,91790,1,2,0:2:0:0:
2,165,91958,5,2,1:2:0:0:
2,165,92127,2,0,P|44:169|78:194,1,85,2|8,1:2|0:0,0:0:0:0:
185,332,92464,1,2,0:2:0:0:
185,332,92632,2,0,P|200:292|233:266,1,85,2|0,1:2|1:0,0:0:0:0:
430,245,92969,5,10,0:2:0:0:
351,308,93138,2,0,L|330:211,1,85,2|0,0:2|1:0,0:0:0:0:
198,61,93475,1,2,1:2:0:0:
193,158,93643,2,0,L|272:127,1,85,10|0,0:2|0:0,0:0:0:0:
370,70,93973,6,0,P|359:53|361:80,1,63.75,14|0,0:2|0:0,0:0:0:0:
397,158,94333,5,6,1:2:0:0:
397,158,94501,2,0,P|433:136|475:136,1,85,2|8,1:2|0:0,0:0:0:0:
370,271,94838,1,2,0:2:0:0:
370,271,95007,2,0,P|333:249|291:249,1,85,2|0,1:2|1:0,0:0:0:0:
109,334,95346,5,10,0:2:0:0:
209,354,95506,2,0,L|182:258,1,85,2|0,0:2|1:0,0:0:0:0:
60,106,95827,1,2,1:2:0:0:
160,86,95987,2,0,L|133:182,1,85,10|0,0:2|0:0,0:0:0:0:
109,334,96308,5,10,0:2:0:0:
239,166,96563,1,8,3:0:0:0:
42,231,96816,1,4,3:0:0:0:
310,362,96982,6,0,L|324:246,1,97.7500018644333,4|0,1:2|0:0,0:0:0:0:
388,158,97340,1,10,0:2:0:0:
388,158,97508,1,0,0:0:0:0:
300,16,97677,2,0,B|340:-5|386:23|386:23|405:66|450:79,1,152.999995330811,2|10,1:2|0:2,0:0:0:0:
296,126,98182,2,0,L|194:98,1,76.4999976654053,2|0,1:2|0:0,0:0:0:0:
63,62,98519,1,2,1:2:0:0:
194,10,98688,1,10,0:2:0:0:
58,67,98856,2,0,L|71:143,1,76.4999976654053,2|2,1:2|0:0,0:0:0:0:
92,333,99193,5,2,1:2:0:0:
160,167,99362,1,10,0:0:0:0:
233,280,99530,2,0,L|123:258,1,76.4999976654053,2|0,1:2|0:0,0:0:0:0:
281,369,99867,5,2,1:2:0:0:
374,334,100036,1,10,0:0:0:0:
466,298,100204,2,0,L|476:217,1,76.4999976654053,2|0,1:2|1:0,0:0:0:0:
512,42,100542,6,0,P|463:69|381:43,1,114.749996498108,2|0,1:2|0:0,0:0:0:0:
379,32,100879,2,0,P|341:26|277:55,1,76.4999976654053,6|0,1:2|0:0,0:0:0:0:
241,151,101216,1,10,3:0:0:0:
241,151,101300,1,8,3:0:0:0:
241,151,101384,2,0,L|247:203,2,38.2499988327027,10|8|6,3:0|3:0|3:0,0:0:0:0:
189,5,101722,6,0,P|141:39|78:28,1,85,14|0,0:0|0:0,0:0:0:0:
0,114,102059,2,0,P|55:118|121:245,1,187.000005706787,14|4,0:0|1:2,0:0:0:0:
401,351,102733,6,0,P|397:313|384:277,1,76.4999976654053,2|0,1:2|0:0,0:0:0:0:
471,220,103070,2,0,P|461:182|461:144,1,76.4999976654053,2|4,1:2|3:0,0:0:0:0:
461,144,103322,1,2,1:2:0:0:
461,144,103407,1,2,1:2:0:0:
326,186,103575,6,0,L|231:170,1,76.4999976654053,14|0,0:2|1:0,0:0:0:0:
182,85,103912,2,0,L|87:101,1,76.4999976654053,2|2,0:0|1:2,0:0:0:0:
0,170,104249,1,10,3:0:0:0:
0,170,104334,1,8,3:0:0:0:
0,170,104418,1,8,3:0:0:0:
131,295,104586,6,0,P|156:243|147:203,1,76.4999976654053,10|6,3:0|3:0,0:0:0:0:
106,97,104923,2,0,L|181:85,1,76.4999976654053,6|0,1:2|0:0,0:0:0:0:
346,206,105261,5,8,3:0:0:0:
306,20,105429,1,8,3:0:0:0:
232,198,105598,1,8,3:0:0:0:
428,132,105766,1,8,3:0:0:0:
239,205,105935,1,12,3:0:0:0:
442,275,106103,1,12,3:0:0:0:
260,377,106272,6,0,P|238:312|165:327,1,152.999995330811,6|2,0:0|0:0,0:0:0:0:
106,380,106693,1,0,0:0:0:0:
106,380,106778,2,0,L|90:337,3,38.2499988327027,2|2|2|2,0:0|0:0|0:0|0:0,0:0:0:0:
63,314,107115,6,0,L|77:243,1,38.2499988327027,10|0,0:0|0:0,0:0:0:0:
128,195,107283,1,8,3:0:0:0:
126,177,107368,1,8,3:0:0:0:
124,160,107452,2,0,L|116:110,1,38.2499988327027,8|0,0:0|0:0,0:0:0:0:
145,0,107620,2,0,P|114:35|51:36,1,106.25,6|0,1:2|0:0,0:0:0:0:
318,112,107957,5,2,1:2:0:0:
213,171,108126,1,10,0:2:0:0:
408,132,108294,1,2,0:0:0:0:
272,23,108463,1,2,1:2:0:0:
387,232,108632,2,0,P|444:213|493:214,1,97.7500018644333,2|8,1:2|0:0,0:0:0:0:
249,355,108968,6,0,L|222:218,1,97.7500018644333,2|0,1:2|0:0,0:0:0:0:
124,160,109305,1,2,1:2:0:0:
153,328,109474,1,10,0:2:0:0:
299,200,109643,2,0,P|247:168|181:188,1,97.7500018644333,2|0,0:2|1:0,0:0:0:0:
163,37,109980,5,2,1:2:0:0:
274,65,110149,1,10,0:2:0:0:
153,31,110317,2,0,L|44:60,1,97.7500018644333,6|0,1:2|0:0,0:0:0:0:
299,200,110654,5,2,1:2:0:0:
372,23,110822,1,10,0:2:0:0:
420,234,110991,1,2,0:2:0:0:
274,65,111159,1,2,1:2:0:0:
479,99,111328,1,2,1:2:0:0:
479,99,111412,1,0,0:0:0:0:
479,99,111497,1,8,0:0:0:0:
396,348,111665,6,0,B|365:316|365:316|312:315|271:355,1,146.62500279665,6|0,1:2|0:0,0:0:0:0:
199,384,112002,2,0,P|166:350|160:291,1,97.7500018644333,2|10,1:2|0:2,0:0:0:0:
257,144,112339,6,0,L|162:114,1,97.7500018644333,6|0,1:2|0:0,0:0:0:0:
64,273,112676,2,0,L|135:205,1,97.7500018644333,6|8,1:2|0:0,0:0:0:0:
48,39,113013,2,0,L|69:133,1,97.7500018644333,6|0,1:2|0:0,0:0:0:0:
276,66,113350,5,2,1:2:0:0:
135,205,113519,1,10,0:2:0:0:
316,230,113688,1,2,0:0:0:0:
163,115,113856,1,2,1:2:0:0:
218,339,114025,2,0,P|217:283|240:216,1,97.7500018644333,2|8,1:2|0:0,0:0:0:0:
486,49,114362,6,0,B|398:56|443:102|326:112,1,146.62500279665,2|0,1:2|0:0,0:0:0:0:
340,94,114699,1,2,1:2:0:0:
231,39,114867,2,0,B|188:30|188:30|179:32|179:32|109:19,1,97.7500018644333,10|2,0:2|0:2,0:0:0:0:
111,38,115120,1,2,1:2:0:0:
111,38,115204,1,2,1:2:0:0:
248,128,115373,5,2,1:2:0:0:
248,128,115541,1,10,0:2:0:0:
132,176,115710,2,0,L|9:158,1,97.7500018644333,6|0,1:2|0:0,0:0:0:0:
264,229,116047,5,2,1:2:0:0:
264,229,116215,1,10,0:2:0:0:
148,277,116384,2,0,L|25:259,1,97.7500018644333,6|0,1:2|0:0,0:0:0:0:
256,353,116721,6,0,P|352:299|407:341,1,146.62500279665,2|0,1:2|0:0,0:0:0:0:
451,332,117058,2,0,P|472:284|450:222,1,97.7500018644333,6|0,1:2|0:0,0:0:0:0:
376,115,117395,5,4,3:0:0:0:
505,55,117564,1,8,3:0:0:0:
369,123,117732,2,0,L|267:105,1,97.7500018644333,2|12,1:2|0:2,0:0:0:0:
55,145,118070,5,8,0:0:0:0:
94,127,118154,1,8,0:0:0:0:
137,131,118238,1,8,0:0:0:0:
174,154,118322,1,8,0:0:0:0:
195,191,118407,2,0,L|176:253,1,48.8750009322167,0|0,1:0|1:0,0:0:0:0:
101,359,118575,6,0,L|199:344,1,97.7500018644333,6|2,1:2|1:2,0:0:0:0:
375,364,118912,1,10,0:2:0:0:
466,259,119082,1,2,0:0:0:0:
361,163,119249,1,2,1:2:0:0:
267,271,119418,2,0,L|369:262,1,97.7500018644333,2|2,1:2|1:2,0:0:0:0:
507,174,119755,6,0,L|360:162,1,146.62500279665,6|0,1:2|0:0,0:0:0:0:
305,105,120092,2,0,P|304:50|370:16,1,97.7500018644333,2|8,1:2|0:0,0:0:0:0:
284,182,120429,1,2,1:2:0:0:
284,182,120598,2,0,L|177:173,1,97.7500018644333,6|0,1:2|0:0,0:0:0:0:
32,118,120935,2,0,P|67:150|79:197,1,97.7500018644333,10|0,0:2|0:0,0:0:0:0:
54,321,121272,5,6,1:2:0:0:
177,288,121440,1,2,1:2:0:0:
292,267,121609,2,0,L|400:291,1,97.7500018644333,10|2,0:2|0:0,0:0:0:0:
249,357,121946,1,2,0:0:0:0:
299,157,122114,1,2,1:2:0:0:
299,157,122199,1,0,0:0:0:0:
299,157,122283,1,8,0:0:0:0:
143,41,122452,6,0,P|59:48|51:139,1,146.62500279665,6|0,1:2|0:0,0:0:0:0:
88,160,122789,2,0,P|108:200|90:262,1,97.7500018644333,2|8,1:2|0:0,0:0:0:0:
27,354,123126,1,2,1:2:0:0:
27,354,123210,1,0,0:0:0:0:
27,354,123294,2,0,L|149:338,1,97.7500018644333,6|0,1:2|0:0,0:0:0:0:
191,272,123631,2,0,L|287:284,1,97.7500018644333,10|0,0:2|0:0,0:0:0:0:
512,256,123968,5,6,1:2:0:0:
512,256,124137,1,2,1:2:0:0:
376,346,124305,2,0,P|368:297|385:253,1,97.7500018644333,10|2,0:2|0:2,0:0:0:0:
473,149,124643,1,10,0:2:0:0:
473,149,124811,2,0,L|453:24,1,97.7500018644333,2|8,1:2|0:0,0:0:0:0:
310,0,125148,6,0,P|280:51|209:53,1,97.7500018644333,6|8,1:2|0:0,0:0:0:0:
44,74,125485,2,0,P|103:74|140:134,1,97.7500018644333,2|8,0:2|0:0,0:0:0:0:
188,224,125822,2,0,B|225:182|279:196|279:196|323:236|380:217,1,195.500003728867,2|0,1:2|1:0,0:0:0:0:
381,45,126328,6,0,P|344:97|365:154,1,97.7500018644333,14|0,0:0|0:0,0:0:0:0:
471,189,126665,1,8,3:0:0:0:
471,189,126834,1,8,3:0:0:0:
352,372,127002,1,10,3:0:0:0:
352,372,127171,1,8,3:0:0:0:
274,198,127339,1,12,3:0:0:0:
448,303,127508,1,12,3:0:0:0:
274,198,127677,5,14,3:0:0:0:
249,194,127761,1,12,3:0:0:0:
224,191,127845,1,12,3:0:0:0:
199,189,127929,1,12,3:0:0:0:
173,186,128014,2,0,L|20:208,1,152.999995330811,6|0,1:2|0:0,0:0:0:0:
108,301,128519,5,2,0:0:0:0:
108,301,128688,2,0,P|158:282|225:350,1,152.999995330811,6|2,0:0|0:0,0:0:0:0:
334,364,129193,2,0,L|422:344,1,76.4999976654053,2|0,0:0|0:0,0:0:0:0:
503,257,129530,1,2,0:0:0:0:
503,257,129699,2,0,L|415:237,1,76.4999976654053,2|0,0:0|0:0,0:0:0:0:
280,150,130036,6,0,P|299:101|275:46,2,95.6250036478044,6|2|2,0:0|0:0|0:0,0:0:0:0:
156,215,130710,5,2,0:0:0:0:
156,215,130879,2,0,B|248:225|197:274|289:284,1,152.999995330811,2|2,0:0|0:0,0:0:0:0:
397,330,131384,2,0,P|353:336|320:373,1,76.4999976654053,6|2,0:0|0:0,0:0:0:0:
490,288,131721,5,2,0:0:0:0:
490,288,131890,2,0,P|486:234|476:181,1,76.4999976654053,2|0,0:0|0:0,0:0:0:0:
485,91,132227,1,2,0:0:0:0:
485,91,132395,2,0,P|454:113|417:117,1,76.4999976654053,2|0,0:0|0:0,0:0:0:0:
326,78,132732,5,14,0:2:0:0:
205,227,132985,1,10,3:0:0:0:
394,256,133238,1,6,3:0:0:0:
312,172,133407,5,6,1:2:0:0:
312,172,133575,2,0,L|161:125,1,152.999995330811,2|2,0:0|0:0,0:0:0:0:
60,59,134081,2,0,P|82:89|86:126,1,76.4999976654053,10|2,0:0|0:0,0:0:0:0:
6,219,134418,5,2,0:0:0:0:
6,219,134586,2,0,P|63:215|100:240,1,76.4999976654053,2|0,1:2|0:0,0:0:0:0:
174,291,134923,1,10,0:2:0:0:
174,291,135092,2,0,L|280:269,1,76.4999976654053,2|0,1:2|0:0,0:0:0:0:
348,255,135429,5,10,0:2:0:0:
173,176,135682,1,2,0:0:0:0:
321,52,135935,1,2,0:0:0:0:
288,167,136103,5,2,1:2:0:0:
288,167,136272,2,0,B|322:135|365:151|365:151|398:188|449:175,1,152.999995330811,2|2,0:0|0:0,0:0:0:0:
494,86,136777,2,0,L|472:1,1,76.4999976654053,10|2,0:2|0:0,0:0:0:0:
321,52,137115,5,2,0:0:0:0:
321,52,137283,2,0,B|263:50|263:50|228:66|228:66|142:60,1,152.999995330811,2|10,1:2|0:0,0:0:0:0:
67,14,137789,2,0,L|79:109,1,76.4999976654053,6|4,1:2|3:0,0:0:0:0:
76,89,138041,1,4,3:0:0:0:
76,89,138126,1,14,0:2:0:0:
201,161,138294,5,4,3:0:0:0:
127,284,138463,1,8,0:0:0:0:
8,210,138631,1,6,3:0:0:0:
201,161,138800,5,2,0:0:0:0:
201,161,138968,1,2,0:0:0:0:
37,372,139305,5,4,3:0:0:0:
37,372,139474,1,8,0:0:0:0:
248,334,139811,5,2,0:0:0:0:
248,334,139980,1,2,0:0:0:0:
8,210,140317,5,2,0:0:0:0:
8,210,140485,2,0,P|56:224|91:274,1,76.4999976654053,2|0,0:0|0:0,0:0:0:0:
209,255,140822,6,2,B|171:278|157:323|157:323|162:186|251:259|251:116,1,305.999990661621,0|4,0:0|1:0,0:1:0:0:
256,192,148238,12,2,151272,1:2:0:0:
20,113,151609,6,0,B|69:92|110:125|104:130|147:174|210:148,1,191.249994163513,2|0,1:2|0:0,0:0:0:0:
207,134,152115,6,0,P|155:147|128:191,1,101.999996887207,6|0,1:2|0:0,0:0:0:0:
337,286,152452,1,2,1:2:0:0:
153,339,152620,1,10,0:2:0:0:
273,197,152789,1,2,0:0:0:0:
323,384,152957,1,2,1:2:0:0:
412,207,153126,2,0,L|382:97,1,97.7500018644333,2|8,1:2|0:0,0:0:0:0:
177,21,153463,6,0,L|285:2,1,97.7500018644333,2|0,1:2|0:0,0:0:0:0:
135,162,153800,1,2,1:2:0:0:
27,61,153968,1,10,0:2:0:0:
142,169,154137,2,0,P|158:210|119:294,1,97.7500018644333,2|0,0:2|1:0,0:0:0:0:
0,357,154474,6,0,P|55:327|113:353,1,97.7500018644333,2|10,1:2|0:2,0:0:0:0:
251,384,154811,2,0,P|216:334|241:270,1,97.7500018644333,6|0,1:2|0:0,0:0:0:0:
483,180,155148,5,2,1:2:0:0:
294,141,155317,1,10,0:2:0:0:
370,325,155485,1,2,0:2:0:0:
428,108,155654,1,2,1:2:0:0:
484,286,155822,2,0,P|427:248|361:268,1,97.7500018644333,2|8,1:2|0:0,0:0:0:0:
232,30,156160,6,0,P|299:66|379:25,1,146.62500279665,6|0,1:2|0:0,0:0:0:0:
434,13,156497,2,0,P|488:30|519:96,1,97.7500018644333,2|10,1:2|0:2,0:0:0:0:
314,179,156834,6,0,B|266:152|266:152|276:193,1,97.7500018644333,6|0,1:2|0:0,0:0:0:0:
324,364,157171,1,6,1:2:0:0:
474,259,157339,1,8,0:0:0:0:
317,371,157508,2,0,L|186:357,1,97.7500018644333,6|0,1:2|0:0,0:0:0:0:
110,78,157845,5,2,1:2:0:0:
199,244,158013,1,10,0:2:0:0:
205,118,158182,1,2,0:0:0:0:
92,296,158350,1,2,1:2:0:0:
0,154,158519,2,0,P|-10:193|8:244,1,97.7500018644333,2|8,1:2|0:0,0:0:0:0:
175,32,158856,6,0,B|225:23|225:23|272:54|336:42,1,146.62500279665,2|0,1:2|0:0,0:0:0:0:
388,17,159193,2,0,P|397:64|372:105,1,97.7500018644333,2|10,1:2|0:2,0:0:0:0:
263,221,159530,2,0,P|326:223|366:273,1,97.7500018644333,2|2,0:2|1:2,0:0:0:0:
316,349,159867,5,2,1:2:0:0:
316,349,160035,1,10,0:2:0:0:
263,221,160204,2,0,L|282:85,1,97.7500018644333,6|0,1:2|0:0,0:0:0:0:
204,366,160541,5,2,1:2:0:0:
204,366,160709,1,10,0:2:0:0:
152,239,160878,2,0,L|171:103,1,97.7500018644333,6|2,1:2|0:0,0:0:0:0:
0,39,161216,6,0,P|59:86|148:50,1,146.62500279665,2|0,1:2|0:0,0:0:0:0:
186,23,161553,2,0,P|239:18|282:44,1,97.7500018644333,6|0,1:2|0:0,0:0:0:0:
461,172,161890,5,4,3:0:0:0:
297,127,162058,1,8,3:0:0:0:
409,7,162227,2,0,L|386:107,1,97.7500018644333,2|12,1:2|0:2,0:0:0:0:
402,318,162564,5,8,0:0:0:0:
377,274,162648,1,8,0:0:0:0:
339,243,162732,1,8,0:0:0:0:
291,231,162816,1,8,0:0:0:0:
241,241,162901,2,0,L|179:290,1,48.8750009322167,0|0,1:0|1:0,0:0:0:0:
102,356,163070,6,0,L|85:240,1,97.7500018644333,6|2,1:2|1:2,0:0:0:0:
0,70,163407,1,10,1:2:0:0:
153,195,163576,1,2,0:0:0:0:
10,209,163744,1,10,0:2:0:0:
144,52,163913,2,0,L|261:33,1,97.7500018644333,2|8,1:2|0:0,0:0:0:0:
486,166,164249,6,0,P|429:124|344:168,1,146.62500279665,6|0,1:2|0:0,0:0:0:0:
297,191,164586,2,0,L|195:169,1,97.7500018644333,2|8,1:2|0:0,0:0:0:0:
6,226,164923,1,2,1:2:0:0:
6,226,165092,2,0,P|80:239|104:297,1,97.7500018644333,6|0,1:2|0:0,0:0:0:0:
220,365,165429,2,0,P|234:320|219:275,1,97.7500018644333,10|0,0:2|0:0,0:0:0:0:
28,115,165766,5,6,1:2:0:0:
163,72,165934,1,2,1:2:0:0:
291,31,166103,2,0,L|428:55,1,97.7500018644333,10|2,0:2|0:0,0:0:0:0:
511,136,166440,1,2,1:2:0:0:
331,238,166609,2,0,P|304:184|319:117,1,97.7500018644333,2|8,1:2|0:0,0:0:0:0:
475,282,166946,6,0,B|387:288|436:339|324:347,1,146.62500279665,6|0,1:2|0:0,0:0:0:0:
272,369,167283,2,0,P|223:351|175:352,1,97.7500018644333,2|8,1:2|0:0,0:0:0:0:
0,298,167620,1,2,1:2:0:0:
133,171,167789,2,0,L|262:196,1,97.7500018644333,6|0,1:2|0:0,0:0:0:0:
354,41,168126,2,0,L|259:60,1,97.7500018644333,10|0,0:2|0:0,0:0:0:0:
354,232,168463,5,6,1:2:0:0:
354,232,168631,1,2,1:2:0:0:
512,124,168800,1,10,0:2:0:0:
512,124,168968,1,2,0:2:0:0:
354,41,169137,1,10,0:2:0:0:
481,217,169305,1,2,1:2:0:0:
481,217,169390,1,2,1:2:0:0:
481,217,169474,1,8,0:0:0:0:
387,314,169643,6,0,P|343:279|266:293,1,97.7500018644333,6|8,1:2|0:0,0:0:0:0:
119,369,169980,2,0,P|152:333|160:283,1,97.7500018644333,2|8,0:2|0:0,0:0:0:0:
230,174,170317,2,0,B|192:130|136:145|136:145|91:186|33:166,1,195.500003728867,2|0,0:2|1:0,0:0:0:0:
5,53,170822,6,0,P|74:48|118:102,1,97.7500018644333,14|0,0:0|0:0,0:0:0:0:
236,180,171159,2,0,L|337:155,1,97.7500018644333,4|0,1:2|1:0,0:0:0:0:
466,84,171497,1,8,3:0:0:0:
466,84,171581,1,8,3:0:0:0:
466,84,171665,2,0,L|399:65,1,48.8750009322167,8|8,3:0|3:0,0:0:0:0:
312,19,171834,5,6,3:0:0:0:
281,22,171918,1,4,3:0:0:0:
251,25,172002,1,4,3:0:0:0:
220,28,172086,1,4,3:0:0:0:
189,32,172172,2,0,L|98:46,1,48.8750009322167,0|0,1:0|1:0,0:0:0:0:
7,123,172339,6,0,P|97:144|114:250,1,195.500003728867,6|2,1:2|1:2,0:0:0:0:
218,347,172845,1,8,0:0:0:0:
218,347,173013,2,0,L|317:326,1,97.7500018644333,2|0,0:2|1:0,0:0:0:0:
474,244,173350,2,0,L|375:223,1,97.7500018644333,2|8,1:2|0:0,0:0:0:0:
203,106,173688,2,0,B|260:66|260:66|329:68|381:109,1,195.500003728867,2|0,1:2|1:0,0:0:0:0:
266,193,174193,5,8,0:0:0:0:
203,106,174362,1,2,0:2:0:0:
203,280,174530,1,2,1:2:0:0:
100,139,174699,1,2,1:2:0:0:
266,193,174867,1,10,0:2:0:0:
99,246,175036,2,0,L|-15:275,1,97.7500018644333,6|0,1:2|0:0,0:0:0:0:
127,346,175373,5,2,1:2:0:0:
174,194,175541,2,0,P|146:156|58:146,1,97.7500018644333,10|2,0:2|0:2,0:0:0:0:
203,280,175879,1,2,1:2:0:0:
203,280,176047,2,0,L|321:263,1,97.7500018644333,2|8,1:2|0:0,0:0:0:0:
512,198,176384,6,0,L|357:223,1,146.62500279665,6|0,1:2|0:0,0:0:0:0:
295,189,176721,2,0,P|262:145|296:79,1,97.7500018644333,2|8,1:2|0:0,0:0:0:0:
126,57,177058,6,0,B|200:47|200:47|234:18|234:18|310:11,1,195.500003728867,6|0,1:2|1:0,0:0:0:0:
0,120,177564,1,10,0:2:0:0:
132,246,177732,2,0,P|150:189|116:133,1,97.7500018644333,6|0,1:2|0:0,0:0:0:0:
25,342,178070,5,0,1:2:0:0:
204,289,178238,1,10,0:0:0:0:
34,222,178407,1,2,0:2:0:0:
141,379,178575,1,2,1:2:0:0:
147,384,178744,2,0,L|276:369,1,97.7500018644333,2|8,1:2|0:0,0:0:0:0:
512,257,179081,6,0,P|426:200|347:240,1,195.500003728867,2|0,1:2|1:0,0:0:0:0:
205,290,179586,1,10,0:2:0:0:
242,111,179755,2,0,P|264:157|273:209,1,97.7500018644333,2|0,0:2|1:2,0:0:0:0:
102,131,180092,2,0,P|111:83|133:39,1,97.7500018644333,2|10,1:2|0:2,0:0:0:0:
379,76,180429,6,0,B|353:40|353:40|291:25|233:60|241:147,1,195.500003728867,6|0,1:2|1:2,0:0:0:0:
415,193,180934,1,10,0:2:0:0:
415,193,181103,2,0,L|520:170,1,97.7500018644333,2|0,0:2|1:2,0:0:0:0:
327,264,181440,2,0,L|423:285,1,97.7500018644333,2|10,1:2|0:2,0:0:0:0:
227,369,181777,2,0,P|200:317|211:254,1,97.7500018644333,6|0,1:2|0:0,0:0:0:0:
268,113,182115,5,8,3:2:0:0:
242,93,182199,1,8,3:2:0:0:
211,83,182283,1,8,3:2:0:0:
178,84,182368,1,8,3:2:0:0:
147,93,182452,1,0,1:0:0:0:
122,113,182536,1,0,1:0:0:0:
103,139,182620,2,0,L|89:194,1,48.8750009322167,8|8,3:0|3:0,0:0:0:0:
71,312,182789,5,4,3:0:0:0:
103,303,182873,1,4,3:0:0:0:
136,295,182957,1,0,1:0:0:0:
169,287,183041,1,0,1:0:0:0:
202,278,183126,2,0,L|403:293,1,187.000005706787,6|2,1:2|1:2,0:0:0:0:
190,370,183631,6,0,P|193:323|202:277,1,93.5000028533936,10|2,0:0|0:2,0:0:0:0:
329,71,183968,2,0,P|337:116|341:163,1,93.5000028533936,2|0,1:2|1:0,0:0:0:0:
388,291,184305,1,10,0:2:0:0:
388,291,184474,2,0,L|279:283,1,93.5000028533936,2|0,1:2|0:0,0:0:0:0:
98,342,184811,1,2,1:2:0:0:
98,342,184895,1,2,0:0:0:0:
98,342,184980,2,0,L|38:353,2,46.7500014266968,10|0|2,0:2|0:0|0:0,0:0:0:0:
202,278,185317,6,0,P|205:232|182:192,2,93.5000028533936,2|2|8,1:2|1:2|0:2,0:0:0:0:
68,210,185822,1,2,1:2:0:0:
182,192,185991,1,2,0:0:0:0:
16,110,186159,1,2,1:2:0:0:
196,79,186328,1,10,0:2:0:0:
94,30,186497,1,2,0:0:0:0:
182,192,186665,6,0,P|232:182|319:176,1,93.5000028533936,2|2,1:2|1:2,0:0:0:0:
274,177,186918,1,2,1:2:0:0:
274,177,187002,1,8,0:0:0:0:
417,71,187171,2,0,P|367:61|280:55,1,93.5000028533936,6|0,1:2|0:0,0:0:0:0:
507,148,187508,6,0,P|512:128|511:91,2,46.7500014266968,2|2|10,1:2|0:0|0:2,0:0:0:0:
451,279,187845,2,0,L|468:400,1,93.5000028533936,6|2,1:2|0:0,0:0:0:0:
299,277,188182,1,6,1:2:0:0:
413,183,188350,1,10,0:2:0:0:
294,281,188519,2,0,L|162:270,1,93.5000028533936,6|0,1:2|0:0,0:0:0:0:
94,176,188856,5,2,1:2:0:0:
46,314,189025,1,10,0:2:0:0:
188,185,189193,1,2,0:2:0:0:
23,83,189362,2,0,P|73:57|139:81,1,93.5000028533936,2|2,1:2|1:2,0:0:0:0:
293,161,189699,1,10,0:2:0:0:
237,0,189867,2,0,L|216:115,1,93.5000028533936,6|0,1:2|0:0,0:0:0:0:
151,303,190204,5,2,1:2:0:0:
262,267,190372,1,10,0:2:0:0:
371,238,190541,2,0,L|464:261,1,93.5000028533936,2|0,0:2|1:0,0:0:0:0:
277,361,190879,2,0,P|254:317|273:250,1,101.999996887207,2|10,1:2|0:2,0:0:0:0:
388,67,191218,5,6,1:2:0:0:
378,65,191302,1,2,0:2:0:0:
368,63,191386,2,0,L|310:53,1,50.9999984436036,2|2,1:2|0:2,0:0:0:0:
213,8,191555,1,2,1:2:0:0:
203,10,191639,1,2,0:2:0:0:
193,12,191723,2,0,L|138:20,1,50.9999984436036,10|2,1:2|0:2,0:0:0:0:
0,83,191892,5,2,0:2:0:0:
4,75,191976,1,2,0:2:0:0:
12,69,192060,2,0,P|34:70|62:81,1,50.9999984436036,6|2,1:2|0:2,0:0:0:0:
85,219,192229,2,0,P|137:172|228:202,1,152.999995330811,2|0,1:2|0:0,0:0:0:0:
270,243,192566,2,0,P|316:259|371:256,1,101.999996887207,6|0,1:2|0:0,3:0:0:0:
318,18,192903,5,10,3:0:0:0:
270,243,193071,1,10,3:0:0:0:
422,63,193240,1,10,3:0:0:0:
215,75,193409,5,10,3:0:0:0:
450,170,193577,1,10,3:0:0:0:
213,186,193746,1,10,3:0:0:0:
382,306,193914,6,0,L|366:247,1,50.9999984436036,6|0,1:2|0:0,0:0:0:0:
