osu file format v14

[General]
AudioFilename: audio.mp3
AudioLeadIn: 0
PreviewTime: -1
Countdown: 1
SampleSet: None
StackLeniency: 0.3
Mode: 0
LetterboxInBreaks: 0
WidescreenStoryboard: 0

[Editor]
Bookmarks: 14460,23826,28509,37875,49582,58948,68314,77680
DistanceSpacing: 0.6
BeatDivisor: 4
GridSize: 32
TimelineZoom: 5.299998

[Metadata]
Title:Soushou Innocence
TitleUnicode:Soushou Innocence
Artist:Uchida Maaya
ArtistUnicode:Uchida Maaya
Creator:revurii
Version:a
Source:
Tags:
BeatmapID:1835835
BeatmapSetID:877775

[Difficulty]
HPDrainRate:8
CircleSize:4
OverallDifficulty:8
ApproachRate:9
SliderMultiplier:1.3
SliderTickRate:1

[Events]
//Background and Video events
0,0,"BG1.jpg",0,0
//Break Periods
//Storyboard Layer 0 (Background)
//Storyboard Layer 1 (Fail)
//Storyboard Layer 2 (Pass)
//Storyboard Layer 3 (Foreground)
//Storyboard Sound Samples

[TimingPoints]
412,292.682926829268,4,2,0,60,1,0
412,-57.1428571428571,4,2,0,60,0,0
997,-166.666666666667,4,2,0,30,0,0
2753,-57.1428571428571,4,2,0,60,0,0
3338,-166.666666666667,4,2,0,30,0,0
4509,-57.1428571428571,4,2,0,30,0,0
4802,-66.6666666666667,4,2,0,60,0,0
5094,-100,4,2,0,60,0,0
9046,-66.6666666666667,4,2,0,60,0,0
9777,-100,4,2,0,60,0,0
14021,-57.1428571428571,4,2,0,60,0,0
14460,-76.9230769230769,4,2,0,60,0,0
23826,-66.6666666666667,4,2,0,60,0,0
25875,-100,4,2,0,60,0,0
26168,-50,4,2,0,60,0,0
26753,-57.1428571428571,4,2,0,60,0,0
28216,-200,4,2,0,60,0,0
28509,-100,4,2,0,60,0,0
30558,-66.6666666666667,4,2,0,60,0,0
30851,-100,4,2,0,60,0,0
31875,-66.6666666666667,4,2,0,60,0,0
32753,-100,4,2,0,60,0,0
35972,-66.6666666666667,4,2,0,60,0,0
42265,-50,4,2,0,60,0,0

[Colours]
Combo1 : 200,200,200
Combo2 : 96,160,255
Combo3 : 255,128,112
Combo4 : 255,160,200

[HitObjects]
437,187,412,6,0,B|446:232|446:232|469:249|469:249|477:287,1,113.750001084805
342,254,704,2,0,B|351:299|351:299|374:316|374:316|382:354,1,113.750001084805
382,354,997,6,0,B|355:332|355:332|297:344,1,77.999997619629
298,361,1436,2,0,L|213:366,1,77.999997619629
121,375,1875,1,0,0:0:0:0:
217,340,2021,1,0,0:0:0:0:
85,306,2168,6,0,L|89:257,1,38.9999988098145
92,271,2460,2,0,L|89:310,1,38.9999988098145
75,197,2753,6,0,B|66:152|66:152|43:135|43:135|34:96,1,113.750001084805
170,130,3045,2,0,B|161:85|161:85|138:68|138:68|129:29,1,113.750001084805
130,30,3338,6,0,B|157:52|157:52|215:40,1,77.999997619629
214,23,3777,2,0,L|299:18,1,77.999997619629
391,9,4216,1,0,0:0:0:0:
295,44,4363,1,0,0:0:0:0:
427,78,4509,6,0,L|417:169,1,85.3125008136034
415,189,4655,2,0,L|421:248,2,56.8750005424023
488,3,5094,6,0,L|391:9,1,97.5
339,71,5387,1,0,0:0:0:0:
322,251,5533,6,0,L|225:246,1,97.5
173,185,5826,1,0,0:0:0:0:
191,318,5972,1,0,0:0:0:0:
234,132,6119,6,0,B|241:100|241:100|225:62,1,65
133,11,6411,1,0,0:0:0:0:
294,31,6558,1,0,0:0:0:0:
105,89,6704,6,0,B|32:99|32:99|44:168,1,130
81,244,7143,2,0,L|145:251,1,65
170,242,7363,1,0,0:0:0:0:
191,233,7436,1,0,0:0:0:0:
250,307,7582,5,0,0:0:0:0:
171,352,7729,1,0,0:0:0:0:
136,170,7875,1,0,0:0:0:0:
250,307,8021,1,0,0:0:0:0:
224,221,8168,1,0,0:0:0:0:
345,300,8314,5,0,0:0:0:0:
339,191,8461,1,0,0:0:0:0:
434,343,8607,1,0,0:0:0:0:
512,201,8753,5,0,0:0:0:0:
388,97,8899,1,0,0:0:0:0:
434,343,9046,2,0,P|476:299|449:252,1,97.50000371933
422,331,9338,6,0,P|439:278|393:323,1,146.250005578995
426,335,9631,1,0,0:0:0:0:
430,339,9704,1,0,0:0:0:0:
434,343,9777,6,0,B|449:303|449:303|418:276|418:276|424:230,1,130
325,1,10216,2,0,B|331:46|331:46|300:73|300:73|315:113,1,130
472,146,10655,1,0,0:0:0:0:
322,136,10802,2,0,L|408:122,1,65
267,321,11094,6,0,B|276:362|276:362|259:402,1,65
108,248,11387,2,0,L|22:234,1,65
199,94,11680,2,0,B|181:42|230:14|230:14|244:65,1,130
263,135,12119,6,0,L|285:128,1,16.25
263,148,12192,2,0,L|286:145,1,16.25
259,160,12265,2,0,L|284:161,1,16.25
253,171,12338,2,0,L|278:174,1,16.25
245,181,12411,2,0,L|270:186,1,16.25
234,188,12484,2,0,L|258:195,1,16.25
222,195,12558,2,0,L|245:205,1,16.25
210,197,12631,2,0,L|230:211,1,16.25
197,197,12704,2,0,L|217:211,1,16.25
184,194,12777,2,0,L|202:212,1,16.25,0|0,3:0|3:0,3:0:0:0:
172,189,12850,2,0,L|188:208,1,16.25,0|0,3:0|3:0,3:0:0:0:
162,181,12924,2,0,L|176:201,1,16.25,0|0,3:0|3:0,3:0:0:0:
154,169,12997,5,0,0:0:0:0:
135,138,13070,1,0,0:0:0:0:
107,115,13143,1,0,0:0:0:0:
71,115,13216,1,0,0:0:0:0:
40,134,13290,1,0,0:0:0:0:
15,179,13363,1,0,0:0:0:0:
22,230,13436,1,0,0:0:0:0:
53,283,13509,1,0,0:0:0:0:
113,292,13582,1,0,0:0:0:0:
174,256,13655,1,0,0:0:0:0:
216,186,13729,6,0,P|248:170|291:176,1,65
502,242,14021,6,0,B|497:221|480:207|456:205|456:205|430:216|404:212|384:192|384:192|344:202|344:202|331:238|299:252|262:244,1,284.375002712011
262,244,14460,6,0,L|270:359,1,84.4999961318971
171,123,14753,5,0,0:0:0:0:
235,73,14899,1,0,0:0:0:0:
235,73,14972,1,0,0:0:0:0:
235,73,15046,2,0,L|319:81,1,84.4999961318971
502,35,15338,1,0,0:0:0:0:
495,132,15485,2,0,P|464:158|423:153,1,84.4999961318971
333,60,15777,5,0,0:0:0:0:
304,249,15924,1,0,0:0:0:0:
278,173,16070,1,0,0:0:0:0:
253,97,16216,1,0,0:0:0:0:
181,129,16363,1,0,0:0:0:0:
177,149,16436,1,0,0:0:0:0:
174,169,16509,1,0,0:0:0:0:
71,59,16655,6,0,L|88:172,1,84.4999961318971
154,248,16948,1,0,0:0:0:0:
48,258,17094,5,0,0:0:0:0:
174,169,17241,1,0,0:0:0:0:
188,324,17387,1,0,0:0:0:0:
401,308,17533,5,0,0:0:0:0:
262,284,17680,1,0,0:0:0:0:
376,234,17826,1,0,0:0:0:0:
250,120,17972,6,0,P|240:68|277:30,1,84.4999961318971
418,72,18265,2,0,L|424:120,1,42.2499980659486
434,141,18411,1,0,0:0:0:0:
434,141,18485,1,0,0:0:0:0:
434,141,18558,2,0,B|410:162|410:162|335:152,1,84.4999961318971
292,115,18777,2,0,L|225:122,1,42.2499980659486
73,266,18997,2,0,L|115:261,1,42.2499980659486
153,323,19143,6,0,L|163:186,1,126.749994197846
165,166,19436,6,0,L|150:69,1,84.4999961318971
152,82,19655,1,0,0:0:0:0:
152,82,19729,1,0,0:0:0:0:
63,106,19875,1,0,0:0:0:0:
245,186,20021,1,0,0:0:0:0:
194,263,20168,2,0,B|160:280|160:280|81:272,1,84.4999961318971
18,172,20460,5,0,0:0:0:0:
39,359,20607,1,0,0:0:0:0:
130,208,20753,1,0,0:0:0:0:
144,206,20826,2,0,L|190:201,1,42.2499980659486
259,139,21046,1,0,0:0:0:0:
334,334,21192,2,0,L|380:338,1,42.2499980659486
435,289,21338,6,0,L|421:166,1,84.4999961318971
475,121,21631,2,0,L|461:-2,1,84.4999961318971
456,297,21924,6,0,L|442:174,1,84.4999961318971
496,129,22216,2,0,L|482:6,1,84.4999961318971
371,6,22509,6,0,L|364:67,1,42.2499980659486
300,90,22655,1,0,0:0:0:0:
179,76,22802,1,0,0:0:0:0:
30,170,22948,5,0,0:0:0:0:
109,162,23094,2,0,L|113:209,1,42.2499980659486
214,343,23241,5,0,0:0:0:0:
214,343,23387,1,0,0:0:0:0:
214,343,23533,1,0,0:0:0:0:
214,343,23680,1,0,0:0:0:0:
454,271,23826,6,0,B|494:257|508:209|484:167|484:167|428:152,1,146.250005578995
431,29,24119,6,0,B|370:42|370:42|340:5|296:17,1,146.250005578995
222,60,24411,2,0,B|266:72|296:35|296:35|357:48,1,146.250005578995
228,75,24704,2,0,B|167:88|167:88|137:51|93:63,1,146.250005578995
38,185,24997,6,0,B|66:186|86:169|90:140|90:140|115:127|135:165|112:182,1,146.250005578995
77,248,25290,2,0,B|64:223|39:214|12:225|12:225|-11:210|11:174|38:185,1,146.250005578995
112,182,25582,2,0,B|97:206|102:231|125:249|125:249|124:278|81:276|77:248,1,146.250005578995
38,185,25875,2,0,B|66:186|86:169|90:140|90:140,1,65
154,35,26094,1,0,0:0:0:0:
154,35,26168,6,0,B|165:65|167:103|167:103|192:111|218:139|218:139|194:180|206:244,1,195
233,354,26460,6,0,B|244:324|246:286|246:286|271:278|297:250|297:250|273:209|285:145,1,195
342,51,26753,6,0,B|346:78|342:111|342:111|363:122|381:150|381:150|354:182|355:238,1,170.625001627207
369,339,27045,6,0,B|383:314|390:282|390:282|413:279|439:259|439:259|425:220|445:166,1,170.625001627207
512,166,27338,6,0,B|518:192|518:192|509:219,1,56.8750005424023,0|0,0:3|0:3,0:0:0:0:
478,354,27485,2,0,B|457:341|457:341|451:309,1,56.8750005424023
435,205,27631,2,0,B|442:169|442:169|419:143|419:143|414:100,1,113.750001084805
414,100,27851,1,0,0:0:0:0:
412,21,27924,5,0,0:0:0:0:
412,21,28070,1,0,0:0:0:0:
412,21,28216,2,0,L|347:11,1,65
159,28,28655,5,0,0:0:0:0:
230,66,28802,1,0,0:0:0:0:
157,48,28948,2,0,B|152:91|152:91|181:128|181:128|166:169,1,130
189,242,29387,1,0,0:0:0:0:
116,272,29533,6,0,B|76:254|76:254|1:273,1,97.5
19,290,29826,2,0,B|15:323|15:323|48:339,1,65
189,242,30119,5,0,0:0:0:0:
189,242,30411,2,0,L|184:209,1,32.5
230,137,30558,6,0,B|263:211|263:211|190:243|190:243|184:209,1,195.00000743866
387,274,30997,5,0,0:0:0:0:
369,197,31144,1,0,0:0:0:0:
413,132,31290,2,0,B|458:100|511:125|511:125|496:132|485:146,1,130
478,218,31729,2,0,L|445:213,1,32.5
432,344,31875,6,0,B|380:315|380:315|338:349|278:336,1,146.250005578995
290,357,32168,2,0,P|241:349|193:343,1,97.50000371933
61,244,32460,5,0,0:0:0:0:
58,228,32533,1,0,0:0:0:0:
55,211,32607,1,0,0:0:0:0:
153,159,32753,2,0,L|136:288,1,130
63,321,33192,1,0,0:0:0:0:
153,159,33485,6,0,L|136:288,1,130
230,361,33924,2,0,L|219:282,1,65
269,231,34143,1,0,0:0:0:0:
281,217,34216,6,0,L|264:88,1,130
358,15,34655,1,0,0:0:0:0:
357,183,34802,5,0,0:0:0:0:
357,183,35094,1,0,0:0:0:0:
455,28,35241,2,0,L|446:92,1,65
361,263,35533,5,0,0:0:0:0:
418,318,35680,1,0,0:0:0:0:
434,319,35753,1,0,0:0:0:0:
449,313,35826,2,0,L|455:276,1,32.5
361,263,35972,2,0,L|244:271,1,97.50000371933
158,345,36265,1,0,0:0:0:0:
139,170,36411,1,0,0:0:0:0:
91,110,36558,2,0,L|32:106,1,48.750001859665
21,281,36704,5,0,0:0:0:0:
139,170,36851,2,0,B|184:128|144:55|88:69|88:69|91:109,1,195.00000743866
171,258,37290,5,0,0:0:0:0:
95,125,37436,1,0,0:0:0:0:
93,132,37509,1,0,0:0:0:0:
91,139,37582,1,0,0:0:0:0:
89,146,37655,1,0,0:0:0:0:
87,153,37729,1,0,0:0:0:0:
86,160,37802,1,0,0:0:0:0:
110,184,37875,6,0,L|297:174,1,146.250005578995
232,84,38168,6,0,B|263:17|345:37|345:37|303:65,1,146.250005578995
442,20,38460,2,0,B|509:51|489:133|489:133|461:91,1,146.250005578995
506,230,38753,2,0,B|475:297|393:277|393:277|435:249,1,146.250005578995
392,156,39046,6,0,B|397:92|337:75|337:75|318:90|331:109,1,146.250005578995
320,185,39338,2,0,B|372:221|417:178|417:178|414:153|391:155,1,146.250005578995
331,109,39631,2,0,B|272:135|288:196|288:196|310:206|320:185,1,146.250005578995
392,156,39924,2,0,B|397:92|337:75|337:75|318:90,1,97.50000371933
224,108,40143,1,0,0:0:0:0:
215,130,40216,6,0,L|42:145,1,146.250005578995
2,72,40509,2,0,P|45:42|98:51,1,97.50000371933
92,237,40802,6,0,L|265:252,1,146.250005578995
305,179,41095,2,0,P|262:149|209:158,1,97.50000371933
60,167,41387,6,0,L|72:312,1,146.250005578995
161,268,41680,2,0,L|152:373,1,97.50000371933
256,74,41972,6,0,L|245:219,1,146.250005578995
331,345,42265,2,0,L|325:280,1,65
487,200,42411,1,0,0:0:0:0:
487,200,42485,1,0,0:0:0:0:
487,200,42558,6,0,L|483:238,1,32.5
