osu file format v14

[General]
AudioFilename: audio.mp3
AudioLeadIn: 0
PreviewTime: 57969
Countdown: 0
SampleSet: Soft
StackLeniency: 0.7
Mode: 0
LetterboxInBreaks: 0
WidescreenStoryboard: 0

[Editor]
DistanceSpacing: 1
BeatDivisor: 4
GridSize: 16
TimelineZoom: 1.399999

[Metadata]
Title:Resonant Heart
TitleUnicode:Resonant Heart
Artist:Uchida Maaya
ArtistUnicode:内田真礼
Creator:-Zelos-
Version:Easy
Source:聖戦ケルベロス 竜刻のファタリテ
Tags:Seisen Cerberus Ryuukoku no Fatalite anime opening tv size Mocha
BeatmapID:966460
BeatmapSetID:450329

[Difficulty]
HPDrainRate:2
CircleSize:3
OverallDifficulty:2
ApproachRate:3
SliderMultiplier:0.9
SliderTickRate:1

[Events]
//Background and Video events
0,0,"endcard_03a.jpg",0,0
//Break Periods
2,56385,57340
//Storyboard Layer 0 (Background)
//Storyboard Layer 1 (Fail)
//Storyboard Layer 2 (Pass)
//Storyboard Layer 3 (Foreground)
//Storyboard Sound Samples

[TimingPoints]
402,324.324324324324,4,2,1,70,1,0
1699,-100,4,2,1,50,0,0
6888,-100,4,2,1,70,0,0
17915,-100,4,2,1,50,0,0
25050,-100,4,2,1,70,0,0
32834,-100,4,2,2,70,0,0
33320,-100,4,2,1,70,0,0
34131,-100,4,2,2,70,0,0
34618,-100,4,2,1,70,0,0
43212,-100,4,2,1,50,0,0
47753,-100,4,2,1,70,0,0
58780,-100,4,2,1,70,0,1
60077,-100,4,2,2,70,0,1
60726,-100,4,2,1,70,0,1
62672,-100,4,2,2,70,0,1
64456,-100,4,2,1,70,0,1
80185,-100,4,2,2,70,0,1
81645,-100,4,2,1,70,0,1
83266,-100,4,2,1,70,0,0
87158,-100,4,2,1,40,0,0
88293,-100,4,2,1,30,0,0
88618,-100,4,2,1,20,0,0
88942,-100,4,2,1,10,0,0
89266,-100,4,2,1,5,0,0

[Colours]
Combo1 : 134,221,208
Combo2 : 0,255,255
Combo3 : 19,215,236
Combo4 : 0,174,255

[HitObjects]
84,324,1699,6,0,P|67:237|95:139,1,180,2|2,0:0|0:0,0:0:0:0:
257,86,2996,2,4,B|336:116|386:65|386:65|417:132|394:194,1,270,2|2,0:0|0:0,0:0:0:0:
331,256,4293,6,0,L|185:281,1,135,2|2,0:0|0:0,0:0:0:0:
141,349,5104,2,0,P|103:294|129:223,1,135,2|2,0:0|0:0,0:0:0:0:
136,143,5915,2,0,B|220:112|220:112|321:145,1,180,2|2,0:0|0:0,0:0:0:0:
373,199,6888,6,0,P|396:237|381:306,2,90,8|8|8,2:3|0:3|2:3,0:0:0:0:
307,261,7861,1,8,2:3:0:0:
217,261,8185,2,0,P|172:254|128:260,1,90,8|8,2:3|0:3,0:0:0:0:
54,207,8834,2,0,L|92:120,1,90,8|8,2:3|0:3,0:0:0:0:
162,69,9483,6,0,P|125:40|57:44,2,90,0|8|0,0:0|0:0|0:0,0:0:0:0:
230,127,10456,1,8,0:0:0:0:
186,205,10780,2,0,P|232:218|280:201,1,90,0|8,0:0|0:0,0:0:0:0:
328,136,11429,2,0,L|385:136,1,45,8|8,0:0|0:0,0:0:0:0:
431,212,12077,6,0,P|436:262|409:295,1,90,4|8,0:0|0:0,0:0:0:0:
324,306,12726,2,0,L|227:283,1,90,0|8,0:0|0:0,0:0:0:0:
163,232,13374,1,0,0:0:0:0:
88,279,13699,2,0,P|88:319|71:376,2,90,8|0|8,0:0|0:0|0:0,0:0:0:0:
40,204,14672,6,0,P|28:160|52:108,1,90,0|8,0:0|0:0,0:0:0:0:
108,59,15320,2,0,L|180:59,1,45,0|8,0:0|0:0,0:0:0:0:
227,109,15807,2,0,B|304:158|380:82|454:135,1,225,2|2,0:0|0:0,0:0:0:0:
502,199,16942,1,8,0:0:0:0:
468,281,17266,5,4,0:0:0:0:
292,242,17915,2,0,P|240:233|188:242,1,90,2|8,0:0|0:3,0:0:0:0:
124,195,18564,2,0,P|110:241|125:282,2,90,2|8|8,0:0|0:3|0:3,0:0:0:0:
112,105,19537,1,8,0:3:0:0:
201,114,19861,6,0,P|253:123|305:114,1,90,2|8,0:0|0:3,0:0:0:0:
371,80,20510,1,0,0:0:0:0:
416,157,20834,1,8,0:3:0:0:
369,234,21158,2,0,L|383:349,1,90,2|8,0:0|0:3,0:0:0:0:
289,320,21807,2,0,L|211:305,1,45,2|8,0:0|0:3,0:0:0:0:
175,361,22293,6,0,B|145:288|177:257|216:219|181:109,1,225,2|0,0:0|0:0,0:0:0:0:
161,56,23429,1,8,0:3:0:0:
250,44,23753,2,0,B|305:32|305:32|374:63|435:67,1,180,2|2,0:0|0:0,0:0:0:0:
504,104,24726,1,2,0:0:0:0:
256,192,25050,12,0,26834,0:0:0:0:
84,327,27969,6,0,L|117:242,1,90,8|0,0:0|0:0,0:0:0:0:
202,275,28618,2,0,B|274:316|304:256|390:283,1,180,10|8,0:0|0:0,0:0:0:0:
445,217,29591,2,0,L|456:117,1,90,0|8,0:0|0:0,0:0:0:0:
375,84,30239,6,0,L|364:184,1,90,0|8,0:0|0:0,0:0:0:0:
283,211,30888,1,0,0:0:0:0:
195,191,31212,2,0,B|154:164|154:164|133:96|158:29,1,180,10|8,0:0|0:0,0:0:0:0:
244,21,32185,2,0,L|372:54,1,90,0|8,0:0|0:0,0:0:0:0:
425,86,32834,6,0,B|440:147|397:210|418:293,1,180,2|0,2:0|2:0,2:0:0:0:
308,305,33807,1,8,2:0:0:0:
206,292,34131,2,0,B|161:265|116:284|116:284|93:317,2,135,0|0|8,0:0|0:0|0:0,0:0:0:0:
308,304,35429,6,0,L|289:212,1,90,0|8,0:0|0:0,0:0:0:0:
308,127,36077,1,0,0:0:0:0:
233,80,36401,2,0,P|306:39|385:84,1,180,10|8,0:0|0:0,0:0:0:0:
445,147,37374,1,0,0:0:0:0:
418,233,37699,1,8,0:0:0:0:
459,312,38023,6,0,P|391:318|335:266,1,135,10|8,0:0|0:0,0:0:0:0:
243,184,38996,2,0,P|174:178|118:230,1,135,10|8,0:0|0:0,0:0:0:0:
67,341,39969,2,0,L|211:320,1,135,8|8,0:0|0:0,0:0:0:0:
313,274,40942,6,0,L|422:287,1,90,12|8,0:0|0:0,0:0:0:0:
390,195,41591,2,0,L|281:182,1,90,12|8,0:0|0:0,0:0:0:0:
212,167,42239,2,0,P|206:100|223:48,2,90,8|8|8,0:3|0:3|0:3,0:0:0:0:
239,252,43212,1,4,0:0:0:0:
36,46,44510,6,0,B|77:38|77:38|126:58|179:58,1,135,2|0,0:0|0:0,0:0:0:0:
296,98,45483,1,2,0:0:0:0:
373,52,45807,6,0,B|396:101|370:150|370:150|393:177,1,135,2|2,0:0|0:0,0:0:0:0:
436,302,46780,2,0,B|356:274|356:274|312:306|249:279,1,180,2|2,0:0|0:0,0:0:0:0:
214,210,47753,2,0,P|185:243|180:315,1,90,2|8,0:0|0:0,0:0:0:0:
106,345,48401,6,0,L|61:250,1,90,2|8,0:0|0:0,0:0:0:0:
57,174,49050,2,0,P|86:141|91:69,1,90,2|8,0:0|0:0,0:0:0:0:
147,22,49699,2,0,L|253:37,1,90,2|8,0:0|0:0,0:0:0:0:
315,75,50347,2,0,B|334:102|334:102|326:176,1,90,2|8,0:0|0:3,0:0:0:0:
248,201,50996,5,4,0:0:0:0:
165,157,51320,2,0,P|154:206|171:254,1,90,8|8,0:0|0:0,0:0:0:0:
219,314,51969,1,8,0:0:0:0:
304,285,52293,2,0,L|401:237,1,90,8|8,0:0|0:0,0:0:0:0:
359,158,52942,1,8,0:0:0:0:
378,70,53266,2,0,L|322:63,1,45,8|4,0:0|0:0,0:0:0:0:
256,192,53591,12,0,56185,0:0:0:0:
397,229,58780,6,0,P|348:227|303:257,1,90,4|8,0:0|0:0,0:0:0:0:
250,310,59429,2,0,P|201:312|156:282,1,90,0|8,0:0|0:0,0:0:0:0:
80,265,60077,2,0,B|101:225|101:225|73:137|73:137|99:91,1,180,2|0,0:0|0:0,0:0:0:0:
165,45,61050,1,8,0:0:0:0:
236,100,61374,6,0,P|286:109|339:100,1,90,2|8,0:0|0:0,0:0:0:0:
405,145,62023,2,0,P|414:195|405:248,1,90,2|8,0:0|0:0,0:0:0:0:
350,301,62672,2,0,B|303:257|303:257|252:310|179:287,1,180,4|0,0:0|0:0,0:0:0:0:
112,264,63645,1,10,0:0:0:0:
80,179,63969,6,4,B|59:30,2,135,6|2|14,0:0|0:0|0:0,0:0:0:0:
168,198,65266,2,0,B|211:220|211:220|264:192,1,90,2|8,0:0|0:0,0:0:0:0:
287,119,65915,1,2,0:0:0:0:
363,71,66239,1,10,0:0:0:0:
431,129,66564,6,0,P|459:187|423:253,1,135,10|8,0:0|0:0,0:0:0:0:
309,305,67537,2,0,P|281:247|317:181,1,135,10|8,0:0|0:0,0:0:0:0:
368,65,68510,2,0,L|273:36,1,90,8|8,0:0|0:0,0:0:0:0:
192,26,69158,6,0,B|168:62|168:62|189:118,1,90,4|8,0:0|0:0,0:0:0:0:
217,189,69807,2,0,B|241:225|241:225|220:281,1,90,0|8,0:0|0:0,0:0:0:0:
147,314,70456,1,0,0:0:0:0:
64,279,70780,2,0,P|79:233|72:171,1,90,8|0,0:0|0:0,0:0:0:0:
26,117,71429,1,8,0:0:0:0:
89,53,71753,6,0,P|133:50|184:69,1,90,6|8,0:0|0:0,0:0:0:0:
259,113,72401,1,0,0:0:0:0:
347,97,72726,1,8,0:0:0:0:
424,51,73050,6,0,P|436:95|426:138,1,90,6|8,0:0|0:0,0:0:0:0:
345,177,73699,1,8,2:3:0:0:
383,258,74023,1,8,2:3:0:0:
333,332,74347,6,0,B|274:345|274:345|197:325,1,135,6|8,0:0|0:3,0:0:0:0:
143,205,75320,2,8,P|205:178|264:209,1,135,8|8,0:3|0:3,0:3:0:0:
378,274,76293,1,8,0:3:0:0:
436,205,76618,1,8,0:3:0:0:
401,122,76942,6,0,B|356:90|356:90|263:90,1,135,6|8,0:0|0:3,0:0:0:0:
153,31,77915,2,8,P|126:93|157:152,1,135,8|8,0:3|0:3,0:3:0:0:
259,234,78888,1,8,0:0:0:0:
341,199,79212,1,8,0:3:0:0:
417,247,79537,6,8,P|428:292|404:339,1,90
322,337,80185,2,0,P|230:324|115:343,2,180,10|8|10,0:0|0:0|0:0,0:0:0:0:
335,247,81807,2,0,L|356:144,1,90,8|12,0:0|0:0,0:0:0:0:
417,40,82618,1,10,0:0:0:0:
481,144,83104,2,0,L|469:215,1,45,8|12,0:0|0:0,0:0:0:0:
28,255,84888,6,0,B|63:278|63:278|112:281|166:242,1,135,6|8,0:0|0:0,0:0:0:0:
217,134,85861,2,0,B|252:111|252:111|301:108|355:147,1,135,2|8,0:0|0:0,0:0:0:0:
400,203,86672,2,0,B|411:250|391:307|406:353,1,135,2|4,0:0|0:0,0:0:0:0:
256,192,87320,12,0,89266,0:0:0:0:
