osu file format v14

[General]
AudioFilename: audio.mp3
AudioLeadIn: 0
PreviewTime:57533
Countdown: 0
SampleSet: Soft
StackLeniency: 0.7
Mode: 0
LetterboxInBreaks: 0
WidescreenStoryboard: 1

[Editor]
Bookmarks: 14753
DistanceSpacing: 2.7
BeatDivisor: 4
GridSize: 32
TimelineZoom: 4.179998

[Metadata]
Title:Resonant Heart (TV Size)
TitleUnicode:Resonant Heart (TV Size)
Artist:Uchida Maaya
ArtistUnicode:内田真礼
Creator:Sotarks
Version:Expert
Source:聖戦ケルベロス 竜刻のファタリテ
Tags:booliix pepekcz kirishima- japanese anime jpop op opening Seisen Cerberus Ryuukoku no Fatalite female vocals vocalist j-pop j pop レゾナント ハート
BeatmapID:3366190
BeatmapSetID:1649178

[Difficulty]
HPDrainRate:5.5
CircleSize:4
OverallDifficulty:9
ApproachRate:9.2
SliderMultiplier:1.82
SliderTickRate:1

[Events]
//Background and Video events
0,0,"BG.jpg",0,0
//Break Periods
//Storyboard Layer 0 (Background)
//Storyboard Layer 1 (Fail)
//Storyboard Layer 2 (Pass)
//Storyboard Layer 3 (Foreground)
//Storyboard Layer 4 (Overlay)
//Storyboard Sound Samples

[TimingPoints]
1182,324.324324324324,4,2,22,55,1,0
1182,-161.290322580645,4,2,22,55,0,0
6371,-121.951219512195,4,2,22,65,0,0
11560,-98.0392156862745,4,2,22,75,0,0
15776,-81.9672131147541,4,2,22,75,0,0
16749,-192.307692307693,4,2,2,45,0,0
17398,-138.888888888889,4,2,2,45,0,0
24371,-138.888888888889,4,2,22,55,0,0
26965,-108.695652173913,4,2,22,65,0,0
37506,-89.2857142857143,4,2,22,65,0,0
37911,-89.2857142857143,4,2,22,5,0,0
37992,-89.2857142857143,4,2,22,65,0,0
38884,-89.2857142857143,4,2,22,5,0,0
38965,-89.2857142857143,4,2,22,65,0,0
40263,-95.0570342205323,4,2,22,65,0,0
40668,-95.0570342205323,4,2,22,5,0,0
40749,-95.0570342205323,4,2,22,65,0,0
42695,-238.095238095238,4,2,22,45,0,0
47073,-138.888888888889,4,2,22,55,0,0
47884,-108.695652173913,4,2,22,65,0,0
52911,-98.0392156862745,4,2,22,65,0,0
55668,-161.290322580645,4,2,22,55,0,0
56965,-98.0392156862745,4,2,22,55,0,0
57614,-121.951219512195,4,2,22,55,0,0
58263,-89.2857142857143,4,2,22,75,0,1
73830,-108.695652173913,4,2,22,75,0,0
74236,-108.695652173913,4,2,22,5,0,0
74317,-108.695652173913,4,2,22,75,0,0
76830,-108.695652173913,4,2,22,5,0,0
76911,-108.695652173913,4,2,22,75,0,0
79019,-108.695652173913,4,2,22,85,0,1
82749,-108.695652173913,4,2,22,75,0,0
84209,-98.0392156862745,4,2,22,75,0,0
86641,-238.095238095238,4,2,22,75,0,0
88749,-238.095238095238,4,2,22,5,0,0

[Colours]
Combo1 : 175,158,220
Combo2 : 255,219,219
Combo3 : 253,155,155
Combo4 : 206,216,240
Combo5 : 102,138,232

[HitObjects]
48,313,1182,6,0,B|140:321|122:276|227:283,1,169.259993284973,2|0,0:0|0:0,0:0:0:0:
340,186,1830,2,0,P|312:191|285:198,1,56.4199977616578
305,268,2154,2,0,P|332:260|359:255,1,56.4199977616578
490,236,2479,2,0,P|511:158|460:90,2,169.259993284973,2|2|2,0:0|0:0|0:0,0:0:0:0:
420,177,3614,1,2,0:0:0:0:
359,254,3776,6,0,P|332:259|305:268,2,56.4199977616578,0|2|0,0:0|0:0|0:0,0:0:0:0:
316,190,4263,1,0,0:0:0:0:
346,328,4587,1,0,0:0:0:0:
188,298,4911,1,0,0:0:0:0:
188,298,4992,1,0,0:0:0:0:
188,298,5073,2,0,P|133:306|57:321,1,112.839995523316,2|2,0:0|0:0,0:0:0:0:
63,236,5560,2,0,P|118:228|194:213,1,112.839995523316,2|0,0:0|0:0,0:0:0:0:
101,152,6046,1,2,0:0:0:0:
101,152,6371,6,0,P|76:104|136:25,1,149.240002277222,0|0,1:2|1:2,0:0:0:0:
260,123,6857,1,0,0:0:0:0:
186,177,7019,2,0,P|180:137|171:88,1,74.6200011386109,0|0,1:2|0:0,0:0:0:0:
407,62,7344,2,0,P|413:102|422:151,1,74.6200011386109,0|0,1:2|0:0,0:0:0:0:
418,135,7587,1,0,0:0:0:0:
418,135,7668,1,0,1:2:0:0:
278,213,7830,1,0,0:0:0:0:
338,134,7992,2,0,P|353:205|364:264,1,111.930001707916,0|0,1:2|0:0,0:0:0:0:
368,275,8317,6,0,P|329:301|280:293,1,74.6200011386109,2|0,1:2|0:0,0:0:0:0:
181,254,8641,2,0,P|110:254|66:291,1,111.930001707916,2|0,1:2|0:0,0:0:0:0:
60,269,8965,1,14,0:0:0:0:
60,269,9290,5,0,1:2:0:0:
244,309,9452,1,0,1:2:0:0:
57,189,9614,1,0,1:2:0:0:
283,227,9776,1,0,1:2:0:0:
51,90,9938,1,0,1:2:0:0:
336,145,10100,1,0,1:2:0:0:
204,15,10263,5,10,1:2:0:0:
141,344,10425,1,8,1:2:0:0:
204,15,10587,1,8,1:2:0:0:
191,211,10749,1,0,1:2:0:0:
185,193,10830,1,0,1:2:0:0:
180,175,10911,1,8,1:2:0:0:
287,257,11073,2,0,P|272:315|260:374,1,111.930001707916,8|0,1:2|0:0,0:0:0:0:
261,365,11398,2,0,P|304:358|316:352,1,37.3100005693054,2|2,0:0|0:0,0:0:0:0:
157,262,11560,6,0,P|105:271|51:282,1,92.8200005665283,6|0,1:2|1:2,0:0:0:0:
4,173,11884,2,0,P|56:164|110:153,1,92.8200005665283,8|0,0:0|0:0,0:0:0:0:
344,88,12209,1,0,1:2:0:0:
191,0,12371,1,2,1:2:0:0:
126,151,12533,1,8,0:0:0:0:
278,263,12695,6,0,P|268:205|251:106,1,139.230000849792,2|0,1:2|0:0,0:0:0:0:
251,111,13019,1,0,1:2:0:0:
125,312,13181,2,0,P|163:340|210:338,1,92.8200005665283,8|0,0:0|1:2,0:0:0:0:
206,339,13425,1,0,1:2:0:0:
206,339,13506,1,0,1:2:0:0:
131,154,13668,1,0,1:2:0:0:
74,225,13830,2,0,P|122:227|174:240,1,92.8200005665283,8|0,0:0|0:0,0:0:0:0:
236,203,14073,1,0,0:0:0:0:
236,203,14154,6,0,B|340:181|320:243|441:214,2,185.640001133057,2|8|0,1:2|0:0|1:2,0:0:0:0:
339,94,14965,1,2,1:2:0:0:
320,313,15127,1,8,0:0:0:0:
339,94,15290,6,0,P|259:102|163:112,1,139.230000849792,2|0,1:2|0:0,0:0:0:0:
182,110,15614,1,0,1:2:0:0:
57,305,15776,2,0,B|37:245|13:179|13:179|25:134|90:136,1,222.039990852234,8|2,0:0|1:2,0:0:0:0:
154,291,16263,1,10,0:0:0:0:
150,318,16344,1,10,0:0:0:0:
147,346,16425,1,10,0:0:0:0:
273,221,16587,1,10,0:0:0:0:
277,248,16668,1,10,0:0:0:0:
280,276,16749,6,0,P|350:299|407:246,1,141.959999133545,6|2,1:2|0:0,0:0:0:0:
438,159,17398,2,0,P|433:120|430:94,1,65.5200015996094,10|2,0:0|0:0,0:0:0:0:
350,105,17722,2,0,P|355:144|358:170,1,65.5200015996094,10|2,0:0|0:0,0:0:0:0:
231,142,18046,2,0,P|176:152|124:116,1,98.2800023994141,8|0,0:0|0:0,0:0:0:0:
119,125,18371,2,0,P|115:92|110:59,1,65.5200015996094,10|0,0:0|0:0,0:0:0:0:
22,202,18695,1,10,0:0:0:0:
74,259,18857,2,0,P|117:272|148:262,1,65.5200015996094,2|8,1:2|0:0,0:0:0:0:
281,334,19181,1,0,1:2:0:0:
225,233,19344,6,0,B|224:309|197:291|196:359,2,131.040003199219,4|8|10,1:2|0:0|0:0,0:0:0:0:
190,163,20154,1,2,0:0:0:0:
237,97,20317,1,10,0:0:0:0:
195,26,20479,1,2,0:0:0:0:
237,97,20641,2,0,P|286:102|357:104,1,98.2800023994141,8|0,0:0|0:0,0:0:0:0:
357,99,20965,2,0,P|374:134|371:168,1,65.5200015996094,10|0,0:0|0:0,0:0:0:0:
284,295,21290,1,10,0:0:0:0:
382,358,21452,2,0,P|376:326|368:281,1,65.5200015996094,2|0,3:2|0:0,0:0:0:0:
250,211,21776,1,2,1:2:0:0:
250,211,21857,1,0,0:0:0:0:
250,211,21938,6,0,P|192:218|125:225,1,98.2800023994141,4|0,1:2|0:0,0:0:0:0:
128,226,22263,2,0,P|112:192|123:157,1,65.5200015996094,8|0,0:0|0:0,0:0:0:0:
195,44,22587,2,0,P|228:50|267:54,1,65.5200015996094,8|0,0:0|0:0,0:0:0:0:
251,128,22911,2,0,P|218:122|179:118,1,65.5200015996094,8|0,0:0|0:0,0:0:0:0:
62,39,23236,2,0,P|21:59|14:146,1,131.040003199219,10|8,0:0|0:0,0:0:0:0:
103,259,23722,1,2,0:0:0:0:
8,320,23884,2,0,P|14:288|22:243,1,65.5200015996094,8|0,0:0|0:0,0:0:0:0:
173,353,24209,1,10,0:0:0:0:
97,173,24371,1,0,1:2:0:0:
94,157,24452,1,0,1:2:0:0:
91,141,24533,1,6,1:2:0:0:
290,257,24857,5,0,1:2:0:0:
223,193,25019,1,0,1:2:0:0:
204,280,25181,1,0,1:2:0:0:
336,158,25344,1,0,1:2:0:0:
119,121,25506,1,0,1:2:0:0:
130,327,25668,1,0,1:2:0:0:
290,257,25830,5,10,0:0:0:0:
123,216,25992,1,10,0:0:0:0:
93,229,26073,1,8,0:0:0:0:
61,235,26154,1,10,0:0:0:0:
246,339,26317,2,0,P|297:346|335:359,1,65.5200015996094,10|0,0:0|0:0,0:0:0:0:
344,62,26641,2,0,P|293:55|255:42,1,65.5200015996094,10|0,0:0|0:0,0:0:0:0:
142,187,26965,6,0,B|227:177|216:210|331:192,1,167.439994379151,6|0,1:2|0:0,0:0:0:0:
159,302,27452,2,0,P|106:306|68:267,1,83.7199971895753,8|2,0:0|0:0,0:0:0:0:
53,75,27776,1,2,1:2:0:0:
142,187,27938,1,2,0:0:0:0:
0,250,28100,1,10,0:0:0:0:
142,187,28263,6,0,P|185:193|246:201,1,83.7199971895753,2|0,0:0|0:0,0:0:0:0:
352,62,28587,1,2,0:0:0:0:
352,62,28668,1,2,0:0:0:0:
352,62,28749,2,0,P|299:58|261:97,1,83.7199971895753,10|0,0:0|0:0,0:0:0:0:
328,200,29073,1,2,1:2:0:0:
210,280,29236,2,0,P|216:242|228:179,1,83.7199971895753,2|8,0:0|0:0,0:0:0:0:
365,307,29560,1,2,0:0:0:0:
375,338,29641,1,2,0:0:0:0:
380,371,29722,5,0,1:2:0:0:
275,336,29884,1,0,0:0:0:0:
449,216,30046,1,8,0:0:0:0:
379,182,30209,1,2,0:0:0:0:
471,302,30371,1,2,1:2:0:0:
373,97,30533,1,2,0:0:0:0:
235,206,30695,1,10,0:0:0:0:
344,308,30857,6,0,P|349:268|357:218,1,83.7199971895753,2|0,0:0|1:2,0:0:0:0:
149,199,31181,1,2,0:0:0:0:
156,218,31262,1,2,0:0:0:0:
162,238,31343,1,10,0:0:0:0:
277,129,31506,1,0,0:0:0:0:
181,67,31668,1,2,1:2:0:0:
277,129,31830,2,0,P|328:129|364:109,1,83.7199971895753,2|8,3:2|0:0,0:0:0:0:
85,108,32154,6,0,P|28:116|-19:132,1,83.7199971895753,2|0,3:2|1:0,0:0:0:0:
3,123,32479,1,0,0:0:0:0:
130,224,32641,2,0,P|151:262|141:313,1,83.7199971895753,8|0,0:0|0:0,0:0:0:0:
33,236,32965,1,0,1:2:0:0:
240,269,33127,1,0,0:0:0:0:
195,120,33290,1,8,0:0:0:0:
240,269,33452,1,0,0:0:0:0:
315,184,33614,6,0,P|398:163|507:196,1,167.439994379151,2|8,1:2|0:0,0:0:0:0:
378,62,34100,2,0,P|332:73|271:78,1,83.7199971895753,2|0,0:0|1:2,0:0:0:0:
141,178,34425,1,0,0:0:0:0:
60,117,34587,2,0,P|37:156|42:207,1,83.7199971895753,10|0,0:0|0:0,0:0:0:0:
170,320,34911,6,0,B|255:327|239:277|341:286,1,167.439994379151,6|8,1:2|0:0,0:0:0:0:
472,338,35398,1,2,0:0:0:0:
472,338,35479,1,2,0:0:0:0:
472,338,35560,2,0,P|475:292|484:240,1,83.7199971895753,2|0,1:2|0:0,0:0:0:0:
353,148,35884,1,10,0:0:0:0:
436,88,36046,6,0,P|429:129|427:171,1,83.7199971895753,2|0,0:0|1:2,0:0:0:0:
330,285,36371,1,2,0:0:0:0:
243,237,36533,2,0,P|227:189|257:149,1,83.7199971895753,10|0,0:0|0:0,0:0:0:0:
324,29,36857,1,0,1:2:0:0:
167,104,37019,1,10,0:0:0:0:
127,91,37100,1,8,0:0:0:0:
85,87,37181,1,10,0:0:0:0:
329,192,37344,1,2,1:2:0:0:
212,0,37506,5,8,0:0:0:0:
188,195,37668,2,0,P|177:260|165:366,1,152.880001866211,0|0,1:2|0:0,0:0:0:0:
241,384,37992,6,0,P|296:343|232:205,1,203.840002488281,12|0,0:0|1:2,0:0:0:0:
273,223,38398,1,0,1:2:0:0:
273,223,38479,1,8,0:0:0:0:
141,98,38641,2,0,P|213:89|329:65,1,152.880001866211,0|0,1:2|0:0,0:0:0:0:
375,118,38965,6,0,P|336:187|213:173,1,203.840002488281,12|0,0:0|1:0,1:2:0:0:
222,182,39371,1,0,1:2:0:0:
222,182,39452,1,8,0:0:0:0:
38,147,39614,1,2,1:2:0:0:
38,147,39695,1,0,1:2:0:0:
38,147,39776,2,0,P|44:186|48:207,1,50.9600006220703,10|8,0:0|0:0,0:0:0:0:
135,248,39938,2,0,P|138:273|143:298,1,50.9600006220703,10|8,0:0|0:0,0:0:0:0:
267,87,40425,6,0,P|318:83|426:58,1,143.597995267156,12|0,1:2|0:0,0:0:0:0:
424,53,40749,5,8,0:0:0:0:
185,92,40911,1,0,1:2:0:0:
458,135,41073,5,8,0:0:0:0:
174,189,41235,1,0,1:2:0:0:
483,207,41398,5,8,0:0:0:0:
161,278,41560,1,0,1:2:0:0:
506,317,41722,6,0,P|436:334|395:355,1,95.7319968447706,8|8,0:0|3:0,0:0:0:0:
310,318,41965,1,8,3:0:0:0:
310,318,42046,2,8,P|299:273|284:235,2,63.8213312298471,8|8|8,3:0|3:0|3:0,3:0:0:0:
292,177,42371,2,4,P|281:132|266:94,2,63.8213312298471,4|4|4,3:0|3:0|3:0,3:0:0:0:
385,237,42695,6,0,B|327:320|232:292|232:292|199:214|125:229,1,305.759990668946,6|2,1:2|0:0,0:0:0:0:
145,319,44479,5,2,0:0:0:0:
292,177,44965,5,2,0:0:0:0:
176,31,45290,6,0,P|142:42|96:46,1,76.4399976672364,2|0,0:0|0:0,0:0:0:0:
4,25,45776,1,2,0:0:0:0:
4,25,46263,6,0,P|22:99|26:177,1,152.879995334473,2|0,0:0|0:0,0:0:0:0:
4,293,47073,5,0,1:2:0:0:
20,293,47154,1,0,1:2:0:0:
36,297,47235,1,10,0:0:0:0:
145,254,47398,1,0,1:2:0:0:
169,247,47479,1,8,0:0:0:0:
198,245,47560,1,10,0:0:0:0:
324,329,47722,2,0,P|362:340|370:345,1,32.7600007998047,0|0,1:0|1:0,0:0:0:0:
459,313,47884,6,0,P|487:273|431:159,1,167.439994379151,6|0,1:2|1:2,0:0:0:0:
300,89,48371,1,0,0:0:0:0:
370,18,48533,2,0,P|379:67|394:122,1,83.7199971895753,2|0,1:2|0:0,0:0:0:0:
228,157,48857,2,0,P|220:115|210:75,1,83.7199971895753,2|0,1:2|1:0,0:0:0:0:
126,36,49100,1,0,1:0:0:0:
126,36,49181,6,0,P|82:76|104:183,1,167.439994379151,2|0,1:2|1:2,0:0:0:0:
177,313,49668,1,0,0:0:0:0:
100,368,49830,2,0,P|79:308|95:272,1,83.7199971895753,2|0,1:2|0:0,0:0:0:0:
303,206,50154,2,0,P|293:266|289:309,1,83.7199971895753,2|0,1:2|0:0,0:0:0:0:
95,175,50479,1,6,1:2:0:0:
413,88,50803,5,8,0:0:0:0:
204,220,50965,1,0,1:2:0:0:
204,220,51046,1,0,1:0:0:0:
204,220,51127,1,8,0:0:0:0:
425,308,51290,1,0,1:2:0:0:
264,120,51452,1,8,0:0:0:0:
417,13,51614,1,0,1:2:0:0:
160,40,51776,6,0,P|95:49|50:62,1,83.7199971895753,10|0,0:0|1:2,0:0:0:0:
264,120,52100,1,10,0:0:0:0:
85,210,52263,1,2,1:2:0:0:
264,120,52425,1,8,0:0:0:0:
117,294,52587,1,2,1:2:0:0:
347,178,52749,1,8,0:0:0:0:
291,303,52911,6,0,P|280:225|260:96,1,185.640001133057,6|0,1:2|0:0,0:0:0:0:
328,37,53398,1,0,1:2:0:0:
185,121,53560,1,0,1:2:0:0:
347,178,53722,1,0,1:2:0:0:
179,38,53884,1,0,1:2:0:0:
112,222,54046,1,0,1:2:0:0:
291,303,54209,1,8,1:2:0:0:
291,303,54290,1,8,0:0:0:0:
291,303,54371,5,8,1:2:0:0:
85,210,54533,1,8,1:2:0:0:
351,153,54695,1,8,1:2:0:0:
45,122,54857,1,8,1:2:0:0:
359,46,55019,1,8,1:2:0:0:
201,8,55181,2,0,P|197:72|194:91,1,46.4100002832642,8|8,0:0|0:0,0:0:0:0:
351,193,55344,2,0,P|331:181|311:168,1,46.4100002832642,8|8,0:0|0:0,0:0:0:0:
97,244,55506,2,0,P|118:232|139:222,1,46.4100002832642,8|8,0:0|0:0,0:0:0:0:
212,147,55668,5,2,1:2:0:0:
212,147,55830,1,2,0:0:0:0:
212,147,55992,1,2,0:0:0:0:
212,147,56154,2,0,P|217:212|222:279,1,112.839995523316,2|2,0:0|0:0,0:0:0:0:
290,175,56641,2,0,P|293:208|296:238,1,56.4199977616578,2|0,0:0|0:0,0:0:0:0:
319,384,56965,5,4,3:0:0:0:
365,287,57127,1,8,0:0:0:0:
321,303,57208,1,8,0:0:0:0:
275,304,57289,1,8,0:0:0:0:
229,305,57371,1,8,3:0:0:0:
185,321,57452,2,0,L|171:282,2,30.9400001888428,8|0|0,3:0|1:0|1:0,0:0:0:0:
91,311,57614,6,0,P|100:250|100:210,1,74.6200011386109,10|0,0:0|0:0,0:0:0:0:
148,134,57938,1,2,0:0:0:0:
105,57,58100,1,2,0:2:0:0:
264,212,58263,6,0,P|329:214|388:224,1,101.920001244141,6|0,1:2|1:2,0:0:0:0:
347,0,58587,2,0,P|319:55|335:113,1,101.920001244141,8|0,0:0|1:2,0:0:0:0:
324,93,58830,1,0,1:2:0:0:
324,93,58911,1,0,1:2:0:0:
228,242,59073,1,0,1:2:0:0:
308,327,59236,2,0,P|357:354|418:335,1,101.920001244141,8|0,0:0|1:2,0:0:0:0:
454,255,59479,1,0,1:2:0:0:
454,255,59560,6,0,P|403:248|352:247,1,101.920001244141,2|0,1:2|1:2,0:0:0:0:
113,199,59884,1,8,0:0:0:0:
211,141,60046,2,0,P|222:197|229:262,1,101.920001244141,2|0,1:2|0:0,0:0:0:0:
21,336,60371,1,0,1:2:0:0:
113,199,60533,1,10,0:0:0:0:
183,364,60695,5,2,1:2:0:0:
157,366,60776,1,0,1:2:0:0:
133,373,60857,1,0,1:2:0:0:
227,241,61019,1,2,1:2:0:0:
308,327,61181,2,0,P|357:354|418:335,1,101.920001244141,8|0,0:0|1:2,0:0:0:0:
400,346,61425,1,0,1:2:0:0:
400,346,61506,1,0,1:2:0:0:
328,172,61668,1,0,1:2:0:0:
412,103,61830,2,0,P|440:157|432:210,1,101.920001244141,8|0,0:0|1:0,0:0:0:0:
358,258,62073,1,0,1:0:0:0:
358,258,62154,6,0,P|307:251|256:250,1,101.920001244141,2|0,1:2|1:2,0:0:0:0:
126,77,62479,1,10,0:0:0:0:
232,38,62641,2,0,P|221:87|215:138,1,101.920001244141,2|0,1:2|0:0,0:0:0:0:
15,202,62965,1,0,1:2:0:0:
126,77,63127,1,10,0:0:0:0:
172,232,63290,5,2,1:2:0:0:
166,256,63371,1,0,1:2:0:0:
165,282,63452,1,4,1:2:0:0:
102,166,63614,1,2,0:0:0:0:
265,276,63776,2,0,P|330:278|365:248,1,101.920001244141,8|0,0:0|1:2,0:0:0:0:
357,257,64019,1,0,1:2:0:0:
357,257,64100,1,0,1:2:0:0:
215,138,64263,1,0,1:2:0:0:
311,53,64425,2,0,P|348:113|337:167,1,101.920001244141,8|0,0:0|1:0,0:0:0:0:
346,142,64668,1,0,1:0:0:0:
346,142,64749,5,2,1:2:0:0:
227,293,64911,1,0,1:2:0:0:
460,221,65073,1,10,0:0:0:0:
227,293,65236,2,0,P|144:283|102:283,1,101.920001244141,0|0,1:2|0:0,0:0:0:0:
339,220,65560,1,0,1:2:0:0:
362,264,65641,1,0,1:0:0:0:
367,315,65722,1,10,0:0:0:0:
227,204,65884,1,0,1:2:0:0:
396,127,66046,6,0,P|452:134|513:150,1,101.920001244141,14|0,0:0|1:2,0:0:0:0:
426,36,66371,1,0,1:2:0:0:
457,227,66533,1,14,0:0:0:0:
290,138,66695,1,0,1:2:0:0:
290,138,66857,1,0,1:2:0:0:
142,186,67019,6,0,P|86:193|25:209,1,101.920001244141,14|0,0:0|1:2,0:0:0:0:
112,95,67344,1,0,1:2:0:0:
81,286,67506,1,14,0:0:0:0:
300,219,67668,1,0,1:2:0:0:
213,93,67830,1,0,1:2:0:0:
301,332,67992,1,8,0:0:0:0:
199,197,68154,5,8,0:0:0:0:
174,198,68235,1,8,0:0:0:0:
149,201,68316,1,10,0:0:0:0:
124,205,68397,1,8,0:0:0:0:
99,210,68478,1,8,0:0:0:0:
74,216,68559,1,8,0:0:0:0:
50,224,68641,6,0,P|43:295|45:339,1,101.920001244141,6|0,1:2|1:2,0:0:0:0:
299,230,68965,2,0,P|292:158|252:125,1,101.920001244141,10|2,0:0|1:2,0:0:0:0:
274,137,69209,1,0,1:2:0:0:
274,137,69290,1,0,1:2:0:0:
179,260,69452,1,0,1:2:0:0:
375,301,69614,1,10,0:0:0:0:
236,346,69776,5,2,1:2:0:0:
210,345,69857,1,0,1:2:0:0:
186,353,69938,1,0,1:2:0:0:
299,230,70100,1,0,1:2:0:0:
150,117,70263,1,8,0:0:0:0:
316,17,70425,2,0,B|429:56|429:56|416:137|338:129,1,203.840002488281,0|0,1:2|1:2,0:0:0:0:
150,117,70911,2,0,P|86:116|41:163,1,101.920001244141,10|0,0:0|1:2,0:0:0:0:
28,214,71154,1,0,1:2:0:0:
28,214,71236,6,0,P|82:214|139:223,1,101.920001244141,2|0,1:2|1:2,0:0:0:0:
325,248,71560,1,10,0:0:0:0:
228,177,71722,2,0,P|237:232|246:309,1,101.920001244141,2|0,0:0|1:2,0:0:0:0:
371,148,72046,1,0,1:2:0:0:
220,57,72209,1,10,0:0:0:0:
325,248,72371,1,2,0:0:0:0:
449,82,72533,5,0,1:2:0:0:
449,82,72695,1,0,1:2:0:0:
228,177,72857,1,8,0:0:0:0:
341,18,73019,1,2,0:0:0:0:
422,195,73181,6,0,P|410:272|412:295,1,67.9466674960938,2|8,1:2|0:0,0:0:0:0:
312,337,73398,5,8,0:0:0:0:
261,281,73506,2,0,P|257:247|248:214,1,67.9466674960938,10|8,0:0|0:0,0:0:0:0:
356,147,73722,5,8,0:0:0:0:
340,222,73830,2,0,B|227:212|249:289|117:269,1,209.299992973938,6|0,1:2|0:0,0:0:0:0:
121,267,74317,1,2,1:2:0:0:
265,93,74479,1,8,0:0:0:0:
265,93,74803,5,6,1:2:0:0:
135,111,74965,2,0,P|64:126|26:140,1,83.7199971895753,0|0,1:2|0:0,0:0:0:0:
364,74,75290,2,0,P|435:59|473:45,1,83.7199971895753,10|2,0:0|0:0,0:0:0:0:
250,200,75614,1,2,1:2:0:0:
417,287,75776,1,10,0:0:0:0:
363,363,75938,2,0,P|316:291|361:210,1,167.439994379151,0|0,1:2|1:2,0:0:0:0:
403,153,76344,1,0,1:0:0:0:
403,153,76425,6,0,P|311:191|191:170,1,209.299992973938,6|0,1:2|0:0,0:0:0:0:
187,167,76911,1,2,1:2:0:0:
104,334,77073,1,8,0:0:0:0:
104,334,77398,5,2,1:2:0:0:
220,320,77560,2,0,P|280:312|333:308,1,83.7199971895753,0|0,1:2|0:0,0:0:0:0:
464,246,77884,1,10,0:0:0:0:
435,320,78046,1,2,0:0:0:0:
327,229,78209,1,2,1:2:0:0:
327,229,78290,1,0,1:0:0:0:
327,229,78371,1,10,0:0:0:0:
408,180,78533,1,2,1:2:0:0:
303,309,78695,1,4,3:0:0:0:
282,311,78776,1,4,3:0:0:0:
261,314,78857,1,2,1:2:0:0:
240,316,78938,1,0,1:2:0:0:
219,320,79019,1,8,0:0:0:0:
144,292,79344,5,0,1:2:0:0:
203,373,79506,1,0,1:2:0:0:
232,226,79668,1,2,1:2:0:0:
57,300,79830,1,0,1:2:0:0:
88,188,79992,1,0,1:2:0:0:
289,309,80154,1,0,1:2:0:0:
216,121,80317,5,10,1:2:0:0:
144,292,80479,1,8,1:2:0:0:
401,192,80641,1,8,1:2:0:0:
212,8,80803,1,8,1:2:0:0:
88,188,80965,1,10,1:2:0:0:
216,121,81127,1,8,1:2:0:0:
257,124,81208,1,8,0:0:0:0:
293,127,81290,1,8,0:0:0:0:
143,70,81452,1,0,1:2:0:0:
268,313,81614,5,14,0:0:0:0:
293,127,81776,2,0,P|303:48|313:15,1,83.7199971895753,0|0,1:2|1:2,0:0:0:0:
429,113,82100,1,12,0:0:0:0:
143,70,82263,2,0,P|90:60|33:59,1,83.7199971895753,0|0,1:2|1:2,0:0:0:0:
199,259,82587,1,14,1:2:0:0:
303,44,82749,1,10,1:2:0:0:
417,316,84371,5,10,0:0:0:0:
158,260,84533,2,0,P|169:313|177:360,1,92.8200005665283,10|0,0:0|1:2,0:0:0:0:
175,351,84776,1,0,1:2:0:0:
175,351,84857,1,10,0:0:0:0:
333,184,85019,1,10,0:0:0:0:
212,140,85181,2,0,P|182:128|159:123,2,46.4100002832642,0|0|10,1:2|1:2|0:0,1:2:0:0:
313,320,85506,1,10,0:0:0:0:
333,184,85668,1,0,1:2:0:0:
336,160,85749,1,0,1:2:0:0:
339,137,85830,1,10,0:0:0:0:
163,282,85992,1,10,0:0:0:0:
58,183,86154,6,0,P|50:127|48:120,1,46.4100002832642,2|0,1:2|1:2,0:0:0:0:
57,49,86317,2,0,P|78:59|100:68,1,46.4100002832642,8|8,1:2|1:2,1:2:0:0:
177,113,86479,2,8,P|157:126|139:141,1,46.4100002832642,8|8,1:2|1:2,0:0:0:0:
0,234,86641,6,0,B|261:162|175:395|465:338,1,496.859984837037,6|0,1:2|0:0,0:0:0:0:
