osu file format v14

[General]
AudioFilename: audio.mp3
AudioLeadIn: 0
PreviewTime: 61519
Countdown: 0
SampleSet: Normal
StackLeniency: 0
Mode: 1
LetterboxInBreaks: 0
WidescreenStoryboard: 1

[Editor]
Bookmarks: 13058,19211,23826,25365,36134,37673,62288,74596,85365,86903,99211
DistanceSpacing: 0.5
BeatDivisor: 4
GridSize: 32
TimelineZoom: 1.3

[Metadata]
Title:Oosanbashi (Irohachou)
TitleUnicode:大桟橋 (伊呂波調)
Artist:Uchida Brothers
ArtistUnicode:内田兄弟
Creator:[Akito]
Version:Oni
Source:ポップンミュージック 12 いろは
Tags:Pop'n Music 12 Maimaing Iroha pop japanese traditional shamisen large pier butterfly ichimon Jpop J-Pop 三味線 内田智之 Tomoyuki Uchida 内田裕之 Hiroyuki Uchida 三味線ブラザーズ PS2 PlayStation 2 CS Console OST Original Soundtrack Video Game
BeatmapID:3973468
BeatmapSetID:1924665

[Difficulty]
HPDrainRate:6
CircleSize:3
OverallDifficulty:5.5
ApproachRate:2
SliderMultiplier:1.4
SliderTickRate:1

[Events]
//Background and Video events
0,0,"bg_a.jpg",0,0
//Break Periods
//Storyboard Layer 0 (Background)
//Storyboard Layer 1 (Fail)
//Storyboard Layer 2 (Pass)
//Storyboard Layer 3 (Foreground)
//Storyboard Layer 4 (Overlay)
//Storyboard Sound Samples

[TimingPoints]
750,384.615384615385,4,1,0,50,1,0
10365,-100,4,1,0,45,0,0
11134,-100,4,1,0,50,0,0
11519,-100,4,1,0,60,0,0
12673,-90.9090909090909,4,1,0,60,0,0
13057,-100,4,1,0,60,0,0
17673,-100,4,1,0,65,0,0
19211,-90.9090909090909,4,1,0,80,0,0
24019,-100,4,1,0,50,0,0
25365,-100,4,1,0,80,0,0
36326,-100,4,1,0,70,0,0
36711,-100,4,1,0,65,0,0
37096,-100,4,1,0,60,0,0
37480,-100,4,1,0,55,0,0
37673,-100,4,1,0,60,0,0
60750,-100,4,1,0,65,0,0
61519,-100,4,1,0,70,0,0
62288,-86.9565217391304,4,1,0,90,0,1
85173,-86.9565217391304,4,1,0,90,0,0
85365,-100,4,1,0,80,0,0
85750,-100,4,1,0,70,0,0
86134,-100,4,1,0,60,0,0
86326,-100,4,1,0,70,0,0
86903,-90.9090909090909,4,1,0,85,0,0
97673,-90.9090909090909,4,1,0,90,0,0
98442,-90.9090909090909,4,1,0,95,0,0
99211,-90.9090909090909,4,1,0,70,0,0

[HitObjects]
256,192,750,5,2,0:0:0:0:
256,192,1519,1,2,0:0:0:0:
256,192,1903,1,0,0:0:0:0:
256,192,2288,1,2,0:0:0:0:
256,192,3057,1,2,0:0:0:0:
256,192,3826,1,2,0:0:0:0:
256,192,4595,1,2,0:0:0:0:
256,192,4979,1,0,0:0:0:0:
256,192,5365,1,2,0:0:0:0:
256,192,5750,1,0,0:0:0:0:
256,192,6134,1,2,0:0:0:0:
256,192,6903,1,2,0:0:0:0:
256,192,7096,1,2,0:0:0:0:
256,192,7288,1,0,0:0:0:0:
256,192,7673,1,2,0:0:0:0:
256,192,7865,1,2,0:0:0:0:
256,192,8057,1,0,0:0:0:0:
256,192,8442,1,2,0:0:0:0:
251,185,8634,1,2,0:0:0:0:
256,192,8826,1,0,0:0:0:0:
251,185,9211,1,2,0:0:0:0:
251,185,9403,1,2,0:0:0:0:
258,192,9596,1,0,0:0:0:0:
256,192,9980,12,0,11519,0:0:0:0:
256,192,12673,5,4,0:0:0:0:
256,192,13057,5,12,0:0:0:0:
256,192,13442,1,0,0:0:0:0:
261,191,13826,1,0,0:0:0:0:
261,191,14019,1,0,0:0:0:0:
256,192,14403,1,8,0:0:0:0:
261,191,14788,1,0,0:0:0:0:
256,192,14980,1,0,0:0:0:0:
256,192,15365,1,0,0:0:0:0:
256,192,15557,1,2,0:0:0:0:
256,192,15750,1,0,0:0:0:0:
256,192,16134,1,12,0:0:0:0:
256,192,16519,1,0,0:0:0:0:
261,191,16903,1,0,0:0:0:0:
261,191,17096,1,0,0:0:0:0:
256,192,17288,1,8,0:0:0:0:
256,192,17480,1,8,0:0:0:0:
254,194,17865,1,0,0:0:0:0:
256,192,18057,1,0,0:0:0:0:
256,192,18442,1,0,0:0:0:0:
256,192,18634,1,8,0:0:0:0:
254,194,18730,1,8,0:0:0:0:
256,192,18826,1,8,0:0:0:0:
256,192,19211,5,12,0:0:0:0:
256,192,19403,1,0,0:0:0:0:
256,192,19596,1,0,0:0:0:0:
254,194,19692,1,0,0:0:0:0:
256,192,19788,1,8,0:0:0:0:
256,192,19980,1,8,0:0:0:0:
256,192,20173,1,8,0:0:0:0:
256,192,20269,1,8,0:0:0:0:
256,192,20365,1,0,0:0:0:0:
246,199,20557,1,0,0:0:0:0:
256,192,20750,1,8,0:0:0:0:
256,192,20942,1,0,0:0:0:0:
248,197,21134,1,0,0:0:0:0:
249,199,21230,1,8,0:0:0:0:
256,192,21326,1,8,0:0:0:0:
246,199,21519,1,8,0:0:0:0:
249,195,21711,1,0,0:0:0:0:
249,195,21807,1,8,0:0:0:0:
248,197,21903,1,0,0:0:0:0:
248,197,22288,1,12,0:0:0:0:
234,192,22480,1,0,0:0:0:0:
248,197,22673,1,8,0:0:0:0:
234,192,22865,1,0,0:0:0:0:
248,197,23057,5,0,0:0:0:0:
248,197,23153,1,0,0:0:0:0:
248,197,23250,1,0,0:0:0:0:
248,197,23346,1,0,0:0:0:0:
245,195,23442,1,0,0:0:0:0:
248,197,23634,1,12,0:0:0:0:
256,192,25365,5,12,0:0:0:0:
256,192,25557,1,0,0:0:0:0:
256,192,25750,1,0,0:0:0:0:
259,186,25846,1,0,0:0:0:0:
256,192,26038,1,8,0:0:0:0:
256,192,26134,1,8,0:0:0:0:
256,192,26326,1,0,0:0:0:0:
263,186,26423,1,0,0:0:0:0:
256,192,26519,1,8,0:0:0:0:
256,192,26615,1,8,0:0:0:0:
256,192,26711,1,8,0:0:0:0:
256,192,26903,1,8,0:0:0:0:
256,192,27096,1,0,0:0:0:0:
256,192,27288,1,0,0:0:0:0:
251,200,27384,1,0,0:0:0:0:
256,192,27576,1,8,0:0:0:0:
256,192,27673,1,8,0:0:0:0:
256,192,27865,1,0,0:0:0:0:
256,192,27961,1,0,0:0:0:0:
256,192,28057,1,8,0:0:0:0:
256,192,28153,1,0,0:0:0:0:
256,192,28250,1,8,0:0:0:0:
256,192,28442,1,8,0:0:0:0:
256,192,28634,1,0,0:0:0:0:
256,192,28826,1,0,0:0:0:0:
256,192,28923,1,8,0:0:0:0:
256,192,29115,1,8,0:0:0:0:
256,192,29211,1,0,0:0:0:0:
256,192,29403,1,8,0:0:0:0:
256,192,29500,1,8,0:0:0:0:
256,192,29595,1,0,0:0:0:0:
256,192,29692,1,8,0:0:0:0:
256,192,29788,1,8,0:0:0:0:
256,192,29979,1,8,0:0:0:0:
256,192,30173,1,0,0:0:0:0:
256,192,30269,1,0,0:0:0:0:
256,192,30365,1,8,0:0:0:0:
256,192,30557,1,8,0:0:0:0:
256,192,30653,1,8,0:0:0:0:
256,192,30750,1,8,0:0:0:0:
256,192,30942,1,0,0:0:0:0:
256,192,31038,1,0,0:0:0:0:
256,192,31133,1,0,0:0:0:0:
256,192,31518,1,8,0:0:0:0:
256,192,31711,1,0,0:0:0:0:
256,192,31903,1,8,0:0:0:0:
256,192,32000,1,8,0:0:0:0:
256,192,32192,1,0,0:0:0:0:
256,192,32287,1,8,0:0:0:0:
256,192,32480,1,0,0:0:0:0:
256,192,32576,1,8,0:0:0:0:
256,192,32673,1,0,0:0:0:0:
256,192,32769,1,8,0:0:0:0:
256,192,32865,1,0,0:0:0:0:
256,192,33057,1,8,0:0:0:0:
256,192,33250,1,0,0:0:0:0:
256,192,33441,1,8,0:0:0:0:
256,192,33538,1,0,0:0:0:0:
256,192,33730,1,8,0:0:0:0:
256,192,33826,1,0,0:0:0:0:
256,192,34019,1,0,0:0:0:0:
256,192,34115,1,8,0:0:0:0:
256,192,34210,1,0,0:0:0:0:
256,192,34307,1,8,0:0:0:0:
256,192,34403,1,8,0:0:0:0:
256,192,34595,1,8,0:0:0:0:
256,192,34788,1,8,0:0:0:0:
256,192,34980,1,0,0:0:0:0:
256,192,35173,1,0,0:0:0:0:
252,199,35365,1,0,0:0:0:0:
252,199,35461,1,0,0:0:0:0:
252,199,35557,1,0,0:0:0:0:
252,199,35653,1,0,0:0:0:0:
256,192,35750,1,0,0:0:0:0:
252,199,35942,1,8,0:0:0:0:
252,199,36038,1,8,0:0:0:0:
252,199,36134,1,8,0:0:0:0:
256,192,36326,12,0,37288,0:0:0:0:
256,192,37673,5,12,0:0:0:0:
256,192,38057,1,0,0:0:0:0:
249,192,38634,1,8,0:0:0:0:
256,192,38826,1,0,0:0:0:0:
249,192,39019,1,0,0:0:0:0:
249,192,39211,1,8,0:0:0:0:
249,192,39403,1,8,0:0:0:0:
249,192,39500,1,0,0:0:0:0:
249,192,39596,1,0,0:0:0:0:
249,192,39788,1,0,0:0:0:0:
249,192,39980,1,0,0:0:0:0:
249,192,40173,1,8,0:0:0:0:
249,192,40365,1,0,0:0:0:0:
249,192,40750,1,8,0:0:0:0:
249,192,41134,1,0,0:0:0:0:
249,192,41711,1,8,0:0:0:0:
249,192,41903,1,0,0:0:0:0:
249,192,42096,1,0,0:0:0:0:
249,192,42288,1,8,0:0:0:0:
249,192,42480,1,8,0:0:0:0:
249,192,42576,1,0,0:0:0:0:
249,192,42673,1,0,0:0:0:0:
249,192,42865,1,8,0:0:0:0:
249,192,43057,1,0,0:0:0:0:
249,192,43250,1,8,0:0:0:0:
249,192,43442,1,0,0:0:0:0:
249,192,43827,1,8,0:0:0:0:
249,192,44211,1,0,0:0:0:0:
249,192,44788,1,8,0:0:0:0:
249,192,44980,1,0,0:0:0:0:
249,192,45173,1,0,0:0:0:0:
249,192,45365,1,8,0:0:0:0:
249,192,45557,1,8,0:0:0:0:
249,192,45653,1,8,0:0:0:0:
249,192,45750,1,8,0:0:0:0:
249,192,45942,1,0,0:0:0:0:
249,192,46038,1,0,0:0:0:0:
249,192,46134,1,0,0:0:0:0:
249,192,46327,1,8,0:0:0:0:
249,192,46423,1,0,0:0:0:0:
249,192,46519,1,0,0:0:0:0:
249,192,46711,1,0,0:0:0:0:
249,192,46904,1,8,0:0:0:0:
249,192,47288,1,0,0:0:0:0:
249,192,47865,1,8,0:0:0:0:
249,192,48057,1,0,0:0:0:0:
251,201,48250,1,0,0:0:0:0:
249,192,48442,1,8,0:0:0:0:
249,192,48634,1,8,0:0:0:0:
251,201,48730,1,0,0:0:0:0:
249,192,48826,1,0,0:0:0:0:
249,192,49019,1,0,0:0:0:0:
250,192,49115,1,0,0:0:0:0:
250,192,49211,1,8,0:0:0:0:
249,192,49404,1,8,0:0:0:0:
249,192,49500,1,8,0:0:0:0:
249,192,49596,1,8,0:0:0:0:
249,192,49788,1,8,0:0:0:0:
249,192,49981,1,8,0:0:0:0:
249,192,50365,1,0,0:0:0:0:
249,192,50942,1,8,0:0:0:0:
249,192,51134,1,0,0:0:0:0:
249,192,51326,1,0,0:0:0:0:
249,192,51519,1,8,0:0:0:0:
249,192,51711,1,8,0:0:0:0:
249,192,51807,1,0,0:0:0:0:
249,192,51903,1,0,0:0:0:0:
249,192,52096,1,0,0:0:0:0:
249,192,52288,1,0,0:0:0:0:
249,192,52481,1,8,0:0:0:0:
249,192,52673,1,0,0:0:0:0:
249,192,53058,1,8,0:0:0:0:
249,192,53442,1,0,0:0:0:0:
249,192,54019,1,8,0:0:0:0:
249,192,54211,1,0,0:0:0:0:
249,192,54403,1,0,0:0:0:0:
249,192,54596,1,8,0:0:0:0:
249,192,54788,1,0,0:0:0:0:
249,192,54884,1,0,0:0:0:0:
249,192,54980,1,8,0:0:0:0:
249,192,55173,1,8,0:0:0:0:
249,192,55365,1,0,0:0:0:0:
249,192,55558,1,8,0:0:0:0:
249,192,55750,1,0,0:0:0:0:
249,192,56135,1,8,0:0:0:0:
249,192,56519,1,0,0:0:0:0:
249,192,57096,1,8,0:0:0:0:
249,192,57288,1,0,0:0:0:0:
249,192,57480,1,0,0:0:0:0:
249,192,57673,1,8,0:0:0:0:
249,192,57865,1,8,0:0:0:0:
249,192,57961,1,0,0:0:0:0:
249,192,58057,1,0,0:0:0:0:
249,192,58250,1,8,0:0:0:0:
249,192,58346,1,8,0:0:0:0:
249,192,58442,1,8,0:0:0:0:
249,192,58635,1,8,0:0:0:0:
249,192,58826,1,0,0:0:0:0:
249,192,59212,1,8,0:0:0:0:
249,192,59403,1,8,0:0:0:0:
249,192,59596,1,0,0:0:0:0:
249,192,59788,1,0,0:0:0:0:
249,192,59884,1,0,0:0:0:0:
249,192,59980,1,8,0:0:0:0:
249,192,60173,1,0,0:0:0:0:
237,199,60269,1,0,0:0:0:0:
240,199,60365,1,8,0:0:0:0:
249,192,60557,1,0,0:0:0:0:
249,192,60750,1,8,0:0:0:0:
249,192,60942,1,0,0:0:0:0:
249,192,61135,1,8,0:0:0:0:
247,193,61326,1,0,0:0:0:0:
249,192,61519,1,8,0:0:0:0:
249,192,61711,1,8,0:0:0:0:
249,192,61903,1,0,0:0:0:0:
247,193,62288,5,12,0:0:0:0:
249,192,62480,1,0,0:0:0:0:
249,192,62576,1,0,0:0:0:0:
249,192,62673,1,8,0:0:0:0:
249,192,62865,1,0,0:0:0:0:
249,192,63057,1,8,0:0:0:0:
247,193,63250,1,0,0:0:0:0:
249,192,63442,1,8,0:0:0:0:
249,192,63634,1,0,0:0:0:0:
249,192,63826,1,8,0:0:0:0:
249,192,64019,1,0,0:0:0:0:
247,193,64211,1,0,0:0:0:0:
249,192,64307,1,0,0:0:0:0:
249,192,64403,1,8,0:0:0:0:
249,192,64596,1,8,0:0:0:0:
249,192,64788,1,8,0:0:0:0:
249,192,64884,1,8,0:0:0:0:
249,192,64980,1,8,0:0:0:0:
247,193,65173,1,0,0:0:0:0:
249,192,65365,1,8,0:0:0:0:
249,192,65557,1,0,0:0:0:0:
249,192,65653,1,0,0:0:0:0:
249,192,65750,1,8,0:0:0:0:
249,192,65942,1,0,0:0:0:0:
247,193,66134,1,8,0:0:0:0:
249,192,66326,1,0,0:0:0:0:
249,192,66519,1,8,0:0:0:0:
249,192,66903,1,8,0:0:0:0:
247,193,67096,1,0,0:0:0:0:
249,192,67288,1,8,0:0:0:0:
249,192,67384,1,8,0:0:0:0:
249,192,67480,1,8,0:0:0:0:
249,192,67673,1,0,0:0:0:0:
249,192,67865,1,8,0:0:0:0:
247,193,67961,1,0,0:0:0:0:
247,193,68057,1,8,0:0:0:0:
249,192,68250,1,8,0:0:0:0:
249,192,68442,1,8,0:0:0:0:
249,192,68634,1,0,0:0:0:0:
249,192,68730,1,0,0:0:0:0:
249,192,68826,1,8,0:0:0:0:
247,193,69019,1,0,0:0:0:0:
249,192,69211,1,8,0:0:0:0:
249,192,69403,1,0,0:0:0:0:
249,192,69596,1,8,0:0:0:0:
247,193,69980,1,8,0:0:0:0:
249,192,70173,1,8,0:0:0:0:
249,192,70269,1,0,0:0:0:0:
249,192,70365,1,8,0:0:0:0:
249,192,70557,1,0,0:0:0:0:
247,193,70750,1,8,0:0:0:0:
247,193,70942,1,0,0:0:0:0:
249,192,71134,1,8,0:0:0:0:
249,192,71326,1,8,0:0:0:0:
249,192,71519,1,8,0:0:0:0:
247,193,71711,1,0,0:0:0:0:
247,193,71807,1,0,0:0:0:0:
247,193,71903,1,8,0:0:0:0:
249,192,72096,1,0,0:0:0:0:
249,192,72288,1,8,0:0:0:0:
249,192,72480,1,0,0:0:0:0:
247,193,72673,1,8,0:0:0:0:
249,192,73057,1,8,0:0:0:0:
249,192,73250,1,0,0:0:0:0:
249,192,73442,1,8,0:0:0:0:
247,193,73634,1,0,0:0:0:0:
247,193,73826,1,8,0:0:0:0:
249,192,74019,1,0,0:0:0:0:
249,192,74211,1,0,0:0:0:0:
249,192,74403,1,8,0:0:0:0:
247,193,74596,5,8,0:0:0:0:
247,193,74788,1,0,0:0:0:0:
249,192,74980,1,8,0:0:0:0:
249,192,75076,1,0,0:0:0:0:
249,192,75269,1,0,0:0:0:0:
249,192,75365,1,8,0:0:0:0:
247,193,75557,1,0,0:0:0:0:
247,193,75653,1,0,0:0:0:0:
247,193,75750,1,8,0:0:0:0:
249,192,75846,1,8,0:0:0:0:
249,192,75942,1,8,0:0:0:0:
249,192,76134,1,8,0:0:0:0:
249,192,76326,1,0,0:0:0:0:
247,193,76519,1,8,0:0:0:0:
247,193,76615,1,0,0:0:0:0:
249,192,76807,1,0,0:0:0:0:
249,192,76903,1,8,0:0:0:0:
249,192,77096,1,0,0:0:0:0:
249,192,77192,1,0,0:0:0:0:
249,192,77288,1,8,0:0:0:0:
247,193,77384,1,0,0:0:0:0:
247,193,77480,1,8,0:0:0:0:
249,192,77673,1,8,0:0:0:0:
249,192,77865,1,0,0:0:0:0:
249,192,78057,1,8,0:0:0:0:
249,192,78153,1,0,0:0:0:0:
247,193,78346,1,0,0:0:0:0:
247,193,78442,1,8,0:0:0:0:
249,192,78634,1,8,0:0:0:0:
249,192,78730,1,8,0:0:0:0:
249,192,78826,1,8,0:0:0:0:
249,192,78923,1,8,0:0:0:0:
249,192,79019,1,8,0:0:0:0:
247,193,79211,1,8,0:0:0:0:
247,193,79403,1,0,0:0:0:0:
249,192,79500,1,0,0:0:0:0:
249,192,79596,1,8,0:0:0:0:
249,192,79788,1,0,0:0:0:0:
249,192,79884,1,0,0:0:0:0:
249,192,79980,1,8,0:0:0:0:
247,193,80076,1,8,0:0:0:0:
247,193,80173,1,0,0:0:0:0:
247,193,80269,1,0,0:0:0:0:
247,193,80365,1,8,0:0:0:0:
249,192,80750,1,8,0:0:0:0:
249,192,80942,1,0,0:0:0:0:
247,193,81038,1,0,0:0:0:0:
247,193,81134,1,8,0:0:0:0:
247,193,81326,1,0,0:0:0:0:
249,192,81519,1,8,0:0:0:0:
249,192,81711,1,0,0:0:0:0:
249,192,81903,1,8,0:0:0:0:
247,193,82288,1,8,0:0:0:0:
249,192,82480,1,8,0:0:0:0:
249,192,82576,1,8,0:0:0:0:
249,192,82673,1,8,0:0:0:0:
249,192,82865,1,0,0:0:0:0:
247,193,83057,1,8,0:0:0:0:
247,193,83250,1,0,0:0:0:0:
249,192,83442,1,8,0:0:0:0:
249,192,83634,1,8,0:0:0:0:
249,192,83826,1,8,0:0:0:0:
247,193,84019,1,0,0:0:0:0:
247,193,84211,1,8,0:0:0:0:
249,192,84403,1,0,0:0:0:0:
249,192,84596,1,0,0:0:0:0:
249,192,84692,1,0,0:0:0:0:
249,192,84788,1,0,0:0:0:0:
247,193,84884,1,0,0:0:0:0:
247,193,84980,1,0,0:0:0:0:
247,193,85173,1,12,0:0:0:0:
247,196,86326,5,0,0:0:0:0:
247,196,86423,1,0,0:0:0:0:
247,196,86519,1,0,0:0:0:0:
256,192,86903,5,12,0:0:0:0:
256,192,87095,1,0,0:0:0:0:
256,192,87288,1,0,0:0:0:0:
259,186,87384,1,8,0:0:0:0:
256,192,87576,1,8,0:0:0:0:
256,192,87672,1,0,0:0:0:0:
256,192,87864,1,0,0:0:0:0:
263,186,87961,1,0,0:0:0:0:
256,192,88057,1,8,0:0:0:0:
256,192,88153,1,8,0:0:0:0:
256,192,88249,1,8,0:0:0:0:
256,192,88441,1,8,0:0:0:0:
256,192,88634,1,0,0:0:0:0:
256,192,88826,1,8,0:0:0:0:
251,200,88922,1,0,0:0:0:0:
256,192,89114,1,0,0:0:0:0:
256,192,89211,1,8,0:0:0:0:
256,192,89403,1,0,0:0:0:0:
256,192,89499,1,0,0:0:0:0:
256,192,89595,1,8,0:0:0:0:
256,192,89691,1,8,0:0:0:0:
256,192,89788,1,8,0:0:0:0:
256,192,89980,1,8,0:0:0:0:
256,192,90172,1,0,0:0:0:0:
256,192,90364,1,8,0:0:0:0:
256,192,90461,1,0,0:0:0:0:
256,192,90653,1,8,0:0:0:0:
256,192,90750,1,8,0:0:0:0:
256,192,90941,1,0,0:0:0:0:
256,192,91038,1,0,0:0:0:0:
256,192,91133,1,8,0:0:0:0:
256,192,91230,1,0,0:0:0:0:
256,192,91326,1,0,0:0:0:0:
256,192,91519,1,8,0:0:0:0:
256,192,91711,1,0,0:0:0:0:
256,192,91807,1,0,0:0:0:0:
256,192,91903,1,8,0:0:0:0:
256,192,92095,1,8,0:0:0:0:
256,192,92191,1,8,0:0:0:0:
256,192,92288,1,8,0:0:0:0:
256,192,92480,1,0,0:0:0:0:
256,192,92576,1,0,0:0:0:0:
256,192,92673,1,8,0:0:0:0:
256,192,93056,1,12,0:0:0:0:
256,192,93249,1,0,0:0:0:0:
256,192,93441,1,8,0:0:0:0:
256,192,93538,1,8,0:0:0:0:
256,192,93730,1,0,0:0:0:0:
256,192,93825,1,8,0:0:0:0:
256,192,94018,1,8,0:0:0:0:
256,192,94114,1,0,0:0:0:0:
256,192,94211,1,8,0:0:0:0:
256,192,94307,1,0,0:0:0:0:
256,192,94403,1,8,0:0:0:0:
256,192,94596,1,8,0:0:0:0:
256,192,94788,1,0,0:0:0:0:
256,192,94979,1,8,0:0:0:0:
256,192,95076,1,0,0:0:0:0:
256,192,95268,1,8,0:0:0:0:
256,192,95364,1,0,0:0:0:0:
256,192,95557,1,0,0:0:0:0:
256,192,95653,1,0,0:0:0:0:
256,192,95750,1,8,0:0:0:0:
256,192,95845,1,8,0:0:0:0:
256,192,95941,1,8,0:0:0:0:
256,192,96133,1,8,0:0:0:0:
256,192,96326,1,2,0:0:0:0:
256,192,96518,1,0,0:0:0:0:
256,192,96711,1,0,0:0:0:0:
256,192,96903,1,8,0:0:0:0:
256,192,97096,1,2,0:0:0:0:
256,192,97288,1,0,0:0:0:0:
256,192,97481,1,0,0:0:0:0:
96,96,97673,2,4,B|409:96|409:96|96:96,1,616.000018798829
