osu file format v14

[General]
AudioFilename: 04. Snow halationKOTORI MIX.mp3
AudioLeadIn: 0
PreviewTime: 51670
Countdown: 0
SampleSet: Soft
StackLeniency: 0.3
Mode: 0
LetterboxInBreaks: 0
WidescreenStoryboard: 0

[Editor]
Bookmarks: 23577,51670,73867,96063,118606,134213,157104,179300,201497,232017
DistanceSpacing: 1
BeatDivisor: 2
GridSize: 32
TimelineZoom: 2.900005

[Metadata]
Title:Snow halation
TitleUnicode:Snow halation
Artist:Uchida Aya
ArtistUnicode:南ことり
Creator:Misaka 10032
Version:Normal
Source:ラブライブ! School idol project
Tags:muse kotori sonoda Uchida Aya sunrise best album collection ラブライブ solo kotorimix
BeatmapID:860024
BeatmapSetID:375610

[Difficulty]
HPDrainRate:4
CircleSize:3
OverallDifficulty:4
ApproachRate:5
SliderMultiplier:1.1
SliderTickRate:1

[Events]
//Background and Video events
0,0,"kotori+wao.jpg",0,0
//Break Periods
2,87939,93476
2,168402,178100
//Storyboard Layer 0 (Background)
//Storyboard Layer 1 (Fail)
//Storyboard Layer 2 (Pass)
//Storyboard Layer 3 (Foreground)
//Storyboard Sound Samples

[TimingPoints]
341,346.820809248555,4,2,1,40,1,0
15601,-133.333333333333,4,2,1,40,0,0
17161,-100,4,2,1,40,0,0
22537,-100,4,2,1,80,0,0
23577,-100,4,2,1,70,0,0
35023,-100,4,2,5,70,0,0
40572,-100,4,2,1,70,0,0
50803,-100,4,2,2,70,0,0
51670,-100,4,2,4,80,0,1
55832,-100,4,2,2,80,0,1
57219,-100,4,2,4,80,0,1
66930,-100,4,2,2,80,0,1
68317,-100,4,2,4,80,0,1
73867,-100,4,2,5,80,0,0
82017,-133.333333333333,4,2,1,80,0,0
82364,-133.333333333333,4,2,1,65,0,0
82537,-133.333333333333,4,2,1,60,0,0
82710,-133.333333333333,4,2,1,55,0,0
82884,-133.333333333333,4,2,1,50,0,0
83057,-133.333333333333,4,2,1,45,0,0
83231,-133.333333333333,4,2,1,40,0,0
83404,-133.333333333333,4,2,1,35,0,0
83577,-133.333333333333,4,2,1,30,0,0
83751,-133.333333333333,4,2,1,25,0,0
83924,-133.333333333333,4,2,1,20,0,0
84098,-133.333333333333,4,2,1,15,0,0
84271,-100,4,2,1,80,0,0
84965,-100,4,2,1,70,0,0
94676,-100,4,2,1,80,0,0
96063,-100,4,2,2,80,0,0
96236,-100,4,2,1,80,0,0
107161,-100,4,2,1,70,0,0
118260,-100,4,2,5,70,0,0
123809,-100,4,2,1,70,0,0
134213,-100,4,2,2,70,0,0
134300,-100,4,2,1,70,0,0
134907,-100,4,2,4,80,0,1
139069,-100,4,2,2,80,0,1
140456,-100,4,2,4,80,0,1
150167,-100,4,2,2,80,0,1
151554,-100,4,2,4,80,0,1
157450,-100,4,2,5,80,0,1
167508,-100,4,2,1,80,0,0
168202,-100,4,2,10,70,0,0
179300,-100,4,2,1,60,0,0
187624,-100,4,2,3,60,0,0
187971,-100,4,2,3,50,0,0
188317,-100,4,2,3,40,0,0
188664,-100,4,2,3,30,0,0
189011,-100,4,2,3,20,0,0
189358,-100,4,2,3,10,0,0
189705,-100,4,2,3,5,0,0
190051,-100,4,2,1,80,0,0
190312,-100,4,2,1,80,0,0
190398,-100,4,2,1,70,0,1
190485,-100,4,2,1,70,0,0
198722,-100,4,2,1,30,0,0
199069,-100,4,2,1,40,0,0
199242,-100,4,2,1,45,0,0
199416,-100,4,2,1,50,0,0
199589,-100,4,2,1,55,0,0
199762,-100,4,2,1,60,0,0
199936,-100,4,2,1,65,0,0
200109,-100,4,2,1,80,0,0
201150,-100,4,2,2,85,0,0
201236,-100,4,2,2,50,0,0
201497,-100,4,2,4,80,0,1
212595,-100,4,2,5,70,0,0
219358,-100,4,2,1,80,0,0
220398,-100,4,2,1,70,0,0
220572,-100,4,2,2,70,0,0
220658,-100,4,2,1,70,0,0
220919,-100,4,2,4,80,0,1
231930,-100,4,2,1,70,0,0
232017,-100,4,2,4,85,0,1
241728,-100,4,2,1,70,0,0
243549,-100,4,2,1,5,0,0

[Colours]
Combo1 : 0,255,255
Combo2 : 192,192,192
Combo3 : 255,255,128

[HitObjects]
55,307,341,6,0,P|106:317|183:299,1,110,2|0,0:0|0:0,0:0:0:0:
261,258,1034,2,0,P|317:250|389:266,1,110,2|0,0:0|0:0,0:0:0:0:
421,240,1554,1,2,0:0:0:0:
410,130,1901,2,0,L|399:56,2,55,0|0|2,0:0|0:0|0:0,0:0:0:0:
301,149,2595,6,0,P|230:107|199:68,1,110
164,60,3115,2,0,B|108:92|60:76|60:76|20:140,1,165,2|0,0:0|0:0,0:0:0:0:
230,311,4502,2,0,P|270:346|324:356,1,110,2|0,0:0|0:0,0:0:0:0:
413,290,5196,2,0,P|466:279|507:244,1,110,2|0,0:0|0:0,0:0:0:0:
410,163,5890,6,0,L|282:139,1,110,2|0,0:0|0:0,0:0:0:0:
246,148,6410,1,0,0:0:0:0:
162,219,6757,2,0,P|218:259|338:243,1,165,2|0,0:0|0:0,0:0:0:0:
407,204,7624,1,0,0:0:0:0:
407,204,7797,2,0,P|447:148|447:100,1,110,2|0,0:0|0:0,0:0:0:0:
290,59,8664,5,2,0:0:0:0:
290,59,9358,2,0,L|306:171,2,110
256,192,10225,12,2,11439,0:0:0:0:
156,97,12826,6,0,P|75:104|11:155,2,165,2|0|0,0:0|0:0|0:0,0:0:0:0:
230,178,14213,2,0,L|244:299,1,110,2|0,0:0|0:0,0:0:0:0:
347,244,14907,2,0,L|333:123,1,110,2|0,0:0|0:0,0:0:0:0:
324,52,15601,6,0,B|286:6|180:55|180:55|103:92|47:51,1,288.750011014939
51,164,17161,6,0,L|97:358,1,165,2|0,0:0|0:0,0:0:0:0:
198,334,18028,1,0,0:0:0:0:
308,331,18375,2,0,P|365:330|428:280,1,110
406,193,19069,2,0,P|337:185|283:204,1,110
188,211,19762,1,2,0:0:0:0:
307,324,20283,2,0,L|431:316,1,110,2|2,0:0|0:0,0:0:0:0:
428,152,21150,6,0,P|287:76|115:115,1,330,2|0,0:0|0:0,0:0:0:0:
131,217,22537,1,12,0:0:0:0:
131,217,22710,1,12,0:0:0:0:
265,313,23231,2,0,L|330:359,2,55,12|12|0,0:0|0:0|0:0,0:0:0:0:
222,211,23924,5,4,0:0:0:0:
222,211,24271,2,0,B|139:196|139:196|102:171,1,110,8|0,0:0|0:0,0:0:0:0:
194,102,24965,2,0,B|277:117|277:117|314:142,2,110,8|0|8,0:0|0:0|0:0,0:0:0:0:
84,90,26005,2,0,P|39:142|26:195,1,110,2|8,0:0|0:0,0:0:0:0:
120,239,26699,6,0,L|239:250,1,110,0|8,0:0|0:0,0:0:0:0:
325,304,27393,2,0,L|434:314,1,110,0|8,0:0|0:0,0:0:0:0:
454,205,28086,2,0,B|443:122|414:86|414:86|312:36,1,220
224,75,29127,2,0,L|173:97,2,55,0|8|0,0:0|0:0|0:0,0:0:0:0:
212,184,29820,6,0,B|222:227|222:227|293:285,1,110,8|0,0:0|0:0,0:0:0:0:
379,298,30514,1,8,0:0:0:0:
426,198,30861,2,0,L|310:191,1,110,0|8,0:0|0:0,0:0:0:0:
212,184,31554,2,0,L|96:177,1,110,0|8,0:0|0:0,0:0:0:0:
69,72,32248,2,0,P|189:36|306:69,1,220,0|4,0:0|0:0,0:0:0:0:
292,164,33288,1,4,0:0:0:0:
319,270,33635,6,0,L|372:375,1,110,8|0,0:0|0:0,0:0:0:0:
458,306,34329,2,0,L|518:281,2,55,0|8|0,0:0|0:0|0:0,0:0:0:0:
409,207,35023,1,4,0:0:0:0:
358,109,35369,6,0,L|242:135,1,110,0|8,0:0|0:0,0:0:0:0:
169,207,36063,2,0,P|171:261|195:323,2,110
197,100,37104,1,8,0:0:0:0:
302,130,37450,1,4,0:0:0:0:
385,201,37797,6,0,P|441:196|502:158,1,110,4|0,0:0|0:0,0:0:0:0:
404,100,38491,2,0,P|348:105|287:143,1,110,8|0,0:0|0:0,0:0:0:0:
226,210,39184,2,0,L|159:244,2,55,0|2|0,0:0|0:0|0:0,0:0:0:0:
154,126,39878,2,0,L|221:92,2,55,8|0|0,0:0|0:3|0:0,0:0:0:0:
62,187,40572,6,0,P|18:297|114:355,1,220,4|0,0:0|0:0,0:0:0:0:
193,345,41612,1,8,0:0:0:0:
301,326,41959,2,0,B|365:299|365:299|413:258,1,110,0|8,0:0|0:0,0:0:0:0:
423,224,42479,2,0,L|368:60,1,165,0|8,0:0|0:0,0:0:0:0:
263,40,43346,6,0,P|208:39|155:24,2,110,4|8|0,0:0|0:0|0:0,0:0:0:0:
260,150,44387,1,8,0:0:0:0:
206,245,44734,2,0,B|198:301|198:301|212:357,1,110,0|8,0:0|0:0,0:0:0:0:
264,340,45254,2,0,B|313:324|313:324|373:330|373:330|448:309,1,165,0|8,0:0|0:0,0:0:0:0:
407,206,46121,6,0,L|410:89,2,110,4|8|0,0:0|0:0|0:0,0:0:0:0:
301,238,47161,1,8,0:0:0:0:
245,242,47335,2,0,P|184:250|132:242,1,110,0|0,0:0|0:0,0:0:0:0:
126,188,47855,2,0,L|101:73,1,110,8|0,0:0|0:0,0:0:0:0:
207,47,48549,1,8,0:0:0:0:
316,50,48895,6,0,B|373:54|373:54|442:74,1,110,12|12,0:0|0:0,0:0:0:0:
403,177,49589,1,12,0:0:0:0:
426,284,49936,1,12,0:0:0:0:
318,305,50283,2,0,L|243:308,1,55,4|4,0:0|0:0,0:0:0:0:
167,253,50803,6,0,P|142:198|160:132,1,110,4|0,0:0|0:0,0:0:0:0:
187,110,51323,2,0,L|310:74,1,110,2|4,0:0|0:0,0:0:0:0:
394,120,52017,6,0,B|409:192|409:192|401:256,1,110,8|0,0:0|0:0,0:0:0:0:
307,280,52710,1,8,0:0:0:0:
307,280,52884,2,0,L|138:319,1,165,0|8,0:0|0:0,0:0:0:0:
144,207,53751,1,0,0:0:0:0:
72,123,54098,1,8,0:0:0:0:
159,56,54445,6,0,B|237:47|237:47|280:53,1,110,0|8,0:0|0:0,0:0:0:0:
304,92,54965,2,0,B|335:96|335:96|413:87,1,110,0|0,0:0|0:0,0:0:0:0:
461,60,55485,1,8,0:0:0:0:
457,170,55832,2,0,L|232:197,1,220,2|10,0:0|0:0,0:0:0:0:
133,163,56872,2,0,L|71:144,2,55,2|8|4,0:0|0:0|0:0,0:0:0:0:
139,273,57566,5,8,0:0:0:0:
236,324,57913,1,0,0:0:0:0:
342,296,58260,1,8,0:0:0:0:
451,297,58606,2,0,P|449:239|422:191,1,110,0|8,0:0|0:0,0:0:0:0:
324,146,59300,2,0,L|175:148,1,110,0|8,0:0|0:0,0:0:0:0:
168,178,59820,1,0,0:0:0:0:
168,178,59994,2,0,P|171:234|195:285,1,110,4|8,0:0|0:0,0:0:0:0:
302,274,60687,2,0,L|439:266,1,110,0|8,0:0|0:0,0:0:0:0:
415,157,61381,6,12,L|440:91,1,55,12|12,0:0|0:0,0:0:0:0:
301,86,62075,2,12,L|283:13,1,55,12|12,0:0|0:0,0:0:0:0:
137,101,62768,6,0,P|139:172|179:239,1,110,4|8,0:0|0:0,0:0:0:0:
214,299,63462,1,0,0:0:0:0:
321,274,63809,1,8,0:0:0:0:
321,274,63982,2,0,P|401:266|475:345,1,165,0|8,0:0|0:0,0:0:0:0:
464,206,64849,2,0,L|455:94,1,110,0|8,0:0|0:0,0:0:0:0:
345,87,65543,6,0,P|291:87|235:40,1,110,0|8,0:0|0:0,0:0:0:0:
136,47,66236,2,0,L|68:50,2,55,0|0|8,0:0|0:0|0:0,0:0:0:0:
197,138,66930,2,0,L|225:258,1,110,2|10,0:0|0:0,0:0:0:0:
312,307,67624,2,0,L|380:304,2,55,2|8|10,0:0|0:0|0:0,0:0:0:0:
213,355,68317,1,4,0:0:0:0:
117,300,68664,6,0,P|90:257|62:184,2,110,8|0|8,0:0|0:0|0:0,0:0:0:0:
163,270,69531,2,0,L|333:244,1,165,0|8,0:0|0:0,0:0:0:0:
433,268,70398,2,0,P|479:239|503:191,1,110,0|8,0:0|0:0,0:0:0:0:
407,136,71092,6,0,B|322:125|322:125|280:89|280:89|177:80,1,220,4|0,0:0|0:0,0:0:0:0:
139,173,72132,1,8,0:0:0:0:
226,239,72479,2,0,L|355:260,1,110,4|8,0:0|0:0,0:0:0:0:
389,248,72999,2,0,B|441:202|441:202|479:143,1,110,4|0,0:0|0:0,0:0:0:0:
471,114,73520,1,8,0:0:0:0:
371,65,73867,6,0,L|239:79,2,110,4|0|8,0:0|0:0|0:0,0:0:0:0:
324,164,74907,1,0,0:0:0:0:
329,273,75254,2,0,L|485:256,2,110,2|0|8,0:0|0:0|0:0,0:0:0:0:
229,229,76294,1,4,0:0:0:0:
229,229,76641,6,0,B|133:240|133:240|72:297|-11:257,1,220,4|8,0:0|0:0,0:0:0:0:
53,161,77682,1,0,0:0:0:0:
155,122,78028,2,0,L|228:134,2,55,2|0|0,0:0|0:0|0:0,0:0:0:0:
237,48,78722,2,0,L|310:60,1,55,8|0,0:0|0:0,0:0:0:0:
336,88,79069,2,0,L|481:101,1,110,4|4,0:0|0:0,0:0:0:0:
450,207,79762,5,0,0:0:0:0:
348,249,80109,1,8,0:0:0:0:
242,218,80456,2,0,L|109:200,1,110,0|2,0:0|0:0,0:0:0:0:
31,247,81150,2,0,L|20:388,2,110,0|8|4,0:0|0:0|0:0,0:0:0:0:
132,297,82190,6,0,P|206:331|309:293,2,165.000006294251
304,160,84271,6,4,L|359:196,1,55,4|4,0:0|0:0,0:0:0:0:
213,97,84965,1,4,0:0:0:0:
256,192,85138,12,2,87739,0:0:0:0:
299,55,94676,6,12,L|228:92,1,55
339,177,95369,2,12,L|387:151,1,55,12|12,0:0|0:0,0:0:0:0:
305,305,96063,6,0,B|256:229|166:229|166:229|74:234|20:142,1,330,4|2,0:0|0:0,0:0:0:0:
96,68,97450,2,0,P|168:60|240:73,1,110
301,118,98144,2,0,P|355:121|410:113,1,110,2|0,0:0|0:0,0:0:0:0:
446,218,98838,2,0,L|393:316,1,110
339,327,99358,2,0,B|294:341|294:341|245:332|245:332|182:359,1,165,2|0,0:0|0:0,0:0:0:0:
88,301,100225,2,0,L|29:307,2,55,0|2|0,0:0|0:0|0:0,0:0:0:0:
135,201,100919,2,0,L|66:172,2,55,2|0|0,0:0|0:0|0:0,0:0:0:0:
224,137,101612,6,0,L|336:60,1,110,2|0,0:0|0:0,0:0:0:0:
422,96,102306,1,0,0:0:0:0:
407,205,102653,1,2,0:0:0:0:
337,290,102999,2,0,P|261:310|198:283,1,110
195,261,103520,2,0,L|195:138,2,110,0|2|0,0:0|0:0|0:0,0:0:0:0:
256,192,104387,12,0,105427,0:0:0:0:
256,192,105774,12,4,107161,0:0:0:0:
153,121,107855,6,0,P|115:163|105:240,1,110,0|8,0:0|0:0,0:0:0:0:
201,263,108549,2,0,L|315:278,2,110,0|8|0,0:0|0:0|0:0,0:0:0:0:
100,308,109589,1,8,0:0:0:0:
108,198,109936,2,0,P|147:161|215:152,1,110,0|8,0:0|0:0,0:0:0:0:
309,176,110630,2,0,P|371:160|410:123,1,110,2|8,0:0|0:0,0:0:0:0:
338,42,111323,6,0,L|273:38,1,55,0|2,0:0|0:0,0:0:0:0:
173,32,111843,1,0,0:0:0:0:
84,97,112190,2,0,L|24:132,2,55,0|2|8,0:0|0:0|0:0,0:0:0:0:
134,119,112710,6,0,B|139:175|139:175|120:230,1,110,0|8,0:0|0:0,0:0:0:0:
105,278,113231,2,0,L|224:267,1,110,2|0,0:0|0:0,0:0:0:0:
322,290,113924,1,0,0:0:0:0:
322,290,114098,2,0,L|339:176,1,110,2|8,0:0|0:0,0:0:0:0:
278,88,114791,2,0,P|225:80|154:108,1,110,2|8,0:0|0:0,0:0:0:0:
141,207,115485,6,0,B|217:183|217:183|274:184|274:184|371:151,1,220,0|4,0:0|0:0,0:0:0:0:
462,147,116525,1,4,0:0:0:0:
462,147,116872,2,0,L|489:267,1,110,0|0,0:0|0:0,0:0:0:0:
381,290,117566,2,0,L|394:354,2,55,0|8|2,0:0|0:0|0:0,0:0:0:0:
271,304,118260,6,0,P|185:271|180:153,1,220,4|8,0:0|0:0,0:0:0:0:
262,85,119300,2,0,P|323:110|375:111,1,110
443,190,119994,2,0,P|382:215|330:216,1,110,0|8,0:0|0:0,0:0:0:0:
238,170,120687,1,4,0:0:0:0:
128,179,121034,1,4,0:0:0:0:
108,287,121381,6,0,P|167:299|220:283,2,110,0|8|0,0:0|0:0|0:0,0:0:0:0:
76,241,122248,2,0,L|61:126,1,110
83,81,122768,1,0,0:0:0:0:
187,45,123115,2,0,L|310:37,2,110,8|4|4,0:0|0:0|0:0,0:0:0:0:
171,154,124156,6,0,P|188:212|219:251,1,110,8|0,0:0|0:0,0:0:0:0:
328,258,124849,1,8,0:0:0:0:
251,337,125196,2,0,P|196:337|144:307,1,110,0|8,0:0|0:0,0:0:0:0:
140,256,125716,2,0,P|182:221|200:145,1,110
196,115,126236,1,8,0:0:0:0:
300,80,126583,6,0,L|429:68,2,110,4|8|0,0:0|0:0|0:0,0:0:0:0:
190,68,127624,1,8,0:0:0:0:
89,112,127971,2,0,P|79:163|92:225,1,110,0|8,0:0|0:0,0:0:0:0:
133,252,128491,1,0,0:0:0:0:
181,278,128664,2,0,L|237:304,2,55,0|0|8,0:0|0:0|0:0,0:0:0:0:
223,176,129358,6,0,B|293:161|293:161|334:162,1,110,4|8,0:0|0:0,0:0:0:0:
361,267,130051,2,0,B|399:267|399:267|469:252,1,110,0|8,0:0|0:0,0:0:0:0:
500,206,130572,2,0,L|452:97,1,110
404,84,131092,1,8,0:0:0:0:
298,51,131439,2,0,P|244:46|177:66,1,110,0|8,0:0|0:0,0:0:0:0:
114,138,132132,5,4,0:0:0:0:
128,247,132479,1,4,0:0:0:0:
234,217,132826,1,4,0:0:0:0:
291,310,133173,1,4,0:0:0:0:
395,274,133520,2,0,L|470:255,1,55,4|4,0:0|0:0,0:0:0:0:
322,153,134213,6,0,P|217:154|164:264,1,220,6|4,0:0|0:0,0:0:0:0:
248,313,135254,2,0,P|301:324|379:313,1,110,8|0,0:0|0:0,0:0:0:0:
435,247,135947,1,8,0:0:0:0:
435,247,136121,2,0,L|439:120,1,110
406,92,136641,2,0,P|353:76|276:90,2,110,8|0|8,0:0|0:0|0:0,0:0:0:0:
340,180,137682,6,0,P|285:192|230:166,1,110,0|8,0:0|0:0,0:0:0:0:
141,118,138375,2,0,L|63:109,2,55,0|0|8,0:0|0:0|0:0,0:0:0:0:
139,228,139069,2,0,B|157:283|157:283|202:327,1,110,2|10,0:0|0:0,0:0:0:0:
303,307,139762,2,0,L|372:286,2,55,2|8|10,0:0|0:0|0:0,0:0:0:0:
245,212,140456,1,4,0:0:0:0:
317,128,140803,6,0,P|372:133|424:162,1,110,8|0,0:0|0:0,0:0:0:0:
381,261,141497,1,8,0:0:0:0:
381,261,141670,2,0,L|264:300,1,110
221,296,142190,2,0,L|104:257,1,110,8|0,0:0|0:0,0:0:0:0:
128,151,142884,2,0,L|195:129,1,55,8|0,0:0|0:0,0:0:0:0:
225,102,143231,6,0,P|200:54|159:8,2,110,4|8|0,0:0|0:0|0:0,0:0:0:0:
262,205,144271,1,8,0:0:0:0:
345,277,144618,2,12,L|403:324,1,55,12|12,0:0|0:0,0:0:0:0:
222,320,145312,2,12,L|264:354,1,55,12|12,0:0|0:0,0:0:0:0:
132,256,146005,6,0,P|84:228|58:166,2,110,4|8|0,0:0|0:0|0:0,0:0:0:0:
233,212,147046,1,8,0:0:0:0:
284,212,147219,2,0,L|386:160,1,110
429,133,147739,2,0,P|430:77|404:18,2,110,8|0|8,0:0|0:0|0:0,0:0:0:0:
321,108,148780,5,0,0:0:0:0:
211,103,149127,1,8,0:0:0:0:
104,75,149473,2,0,L|43:55,2,55,0|0|8,0:0|0:0|0:0,0:0:0:0:
136,180,150167,2,0,L|155:298,1,110,2|10,0:0|0:0,0:0:0:0:
260,315,150861,2,0,L|321:335,2,55,2|8|8,0:0|0:0|0:0,0:0:0:0:
262,204,151554,6,0,B|283:186|283:186|367:186,1,110,4|8,0:0|0:0,0:0:0:0:
459,129,152248,2,0,P|418:90|348:66,1,110,0|8,0:0|0:0,0:0:0:0:
314,66,152768,2,0,L|201:81,1,110
149,83,153288,2,0,P|94:65|42:25,2,110,8|0|8,0:0|0:0|0:0,0:0:0:0:
196,182,154329,6,0,B|249:200|249:200|289:237|349:232|349:232|417:258,1,220,4|0,0:0|0:0,0:0:0:0:
484,179,155369,1,8,0:0:0:0:
405,101,155716,2,0,P|351:77|275:68,1,110,4|8,0:0|0:0,0:0:0:0:
254,97,156236,2,0,P|200:86|150:64,1,110,4|0,0:0|0:0,0:0:0:0:
102,34,156757,1,8,0:0:0:0:
108,143,157104,1,4,0:0:0:0:
108,143,157450,6,0,B|137:171|137:171|221:196,1,110,0|8,0:0|0:0,0:0:0:0:
293,255,158144,1,0,0:0:0:0:
397,221,158491,2,0,L|403:100,1,110,2|0,0:0|0:0,0:0:0:0:
349,95,159011,1,0,0:0:0:0:
294,90,159184,2,0,P|239:82|197:25,1,110,8|4,0:0|0:0,0:0:0:0:
95,69,159878,1,4,0:0:0:0:
122,184,160225,6,0,L|143:244,1,55
164,285,160572,2,0,L|308:278,1,110,8|0,0:0|0:0,0:0:0:0:
381,255,161265,2,0,L|443:243,2,55,2|0|0,0:0|0:0|0:0,0:0:0:0:
356,147,161959,2,0,L|418:135,2,55,8|0|4,0:0|0:0|0:0,0:0:0:0:
249,175,162653,6,0,P|196:184|127:146,1,110,4|0,0:0|0:0,0:0:0:0:
71,81,163346,2,0,P|38:137|39:201,1,110,8|0,0:0|0:0,0:0:0:0:
66,226,163867,2,0,L|174:289,1,110,2|0,0:0|0:0,0:0:0:0:
215,290,164387,2,0,P|270:279|317:240,2,110,0|8|4,0:0|0:0|0:0,0:0:0:0:
256,192,165427,12,0,166814,0:0:0:0:
303,96,167508,6,4,L|255:139,1,55,4|4,0:0|0:0,0:0:0:0:
143,247,168202,1,0,3:0:0:0:
104,126,179300,6,0,P|149:90|206:79,1,110,4|0,0:0|0:0,0:0:0:0:
254,76,179820,1,0,0:0:0:0:
254,76,179994,2,0,L|233:199,1,110,2|0,0:0|0:0,0:0:0:0:
261,233,180514,2,0,P|313:248|377:229,1,110,2|0,0:0|0:0,0:0:0:0:
470,272,181208,2,0,B|437:333|437:333|321:355,1,165,2|0,0:0|0:0,0:0:0:0:
234,333,182075,6,0,B|176:323|176:323|127:270,1,110,2|0,0:0|0:0,0:0:0:0:
108,240,182595,1,0,0:0:0:0:
110,185,182768,2,0,P|152:151|210:139,1,110,2|0,0:0|0:0,0:0:0:0:
260,129,183288,2,0,P|313:117|355:82,2,110,2|2|0,0:0|0:0|0:0,0:0:0:0:
249,238,184329,2,0,L|258:296,2,55
193,238,184849,6,0,L|61:260,1,110,2|0,0:0|0:0,0:0:0:0:
110,148,185543,2,0,L|218:129,1,110,2|0,0:0|0:0,0:0:0:0:
326,109,186236,1,0,0:0:0:0:
420,166,186583,1,0,0:0:0:0:
339,241,186930,1,2,0:0:0:0:
424,310,187277,6,0,L|495:296,2,55
98,103,189011,1,4,0:0:0:0:
119,113,190051,6,0,P|161:77|230:58,1,110,0|4,0:0|0:0,0:0:0:0:
384,288,191612,1,0,0:0:0:0:
384,288,192132,2,0,P|438:278|493:277,2,110,0|8|8,0:0|0:3|0:3,0:0:0:0:
288,288,193173,6,4,P|268:203|330:134,1,165
96,32,194560,2,8,L|28:25,2,55,0|8|8,0:0|0:0|0:0,0:0:0:0:
192,64,195254,2,0,P|245:77|316:60,2,110,8|4|4,0:3|0:3|0:0,0:0:0:0:
175,310,197335,1,4,0:0:0:0:
243,113,198375,2,0,L|309:114,1,55
353,113,198722,6,0,P|407:95|471:112,1,110,8|8,0:0|0:0,0:0:0:0:
414,206,199416,2,0,P|360:224|296:207,1,110,8|8,0:0|0:0,0:0:0:0:
206,253,200109,2,12,L|158:315,1,55,12|12,0:0|0:0,0:0:0:0:
30,219,200803,2,12,L|78:157,1,55,12|12,0:0|0:0,0:0:0:0:
101,135,201150,2,0,P|139:93|195:80,1,110,4|4,0:0|0:0,0:0:0:0:
298,69,201843,5,8,0:0:0:0:
376,145,202190,2,0,P|361:199|323:242,1,110,0|8,0:0|0:0,0:0:0:0:
283,274,202710,2,0,P|226:263|159:275,1,110,0|0,0:0|0:0,0:0:0:0:
121,255,203231,2,0,P|99:199|115:141,2,110,8|0|8,0:0|0:0|0:0,0:0:0:0:
204,182,204271,6,0,L|273:76,1,110,0|8,0:0|0:0,0:0:0:0:
374,85,204965,2,0,L|463:80,2,55,0|0|8,0:0|0:0|0:0,0:0:0:0:
264,89,205658,2,0,P|208:89|131:87,1,110,0|8,0:0|0:0,0:0:0:0:
70,159,206352,1,0,0:0:0:0:
46,208,206525,1,8,0:0:0:0:
53,262,206699,1,8,0:0:0:0:
157,297,207046,6,0,P|212:313|284:305,1,110,4|8,0:0|0:0,0:0:0:0:
360,257,207739,1,0,0:0:0:0:
303,162,208086,1,8,0:0:0:0:
303,162,208260,2,0,P|214:102|242:204,1,275,0|0,0:0|0:0,0:0:0:0:
303,293,209473,2,0,L|226:324,1,55,8|0,0:0|0:0,0:0:0:0:
208,347,209820,2,0,L|86:344,1,110,4|8,0:0|0:0,0:0:0:0:
56,240,210514,2,0,P|44:172|69:110,1,110,0|8,0:0|0:0,0:0:0:0:
157,92,211208,6,0,B|208:68|208:68|266:70,1,110,4|0,0:0|0:0,0:0:0:0:
301,108,211728,2,0,B|354:109|354:109|405:85,1,110,4|0,0:0|0:0,0:0:0:0:
454,60,212248,2,0,L|480:180,1,110,8|4,0:0|0:0,0:0:0:0:
429,266,212942,6,0,P|371:260|315:210,2,110,0|8|0,0:0|0:0|0:0,0:0:0:0:
415,156,213982,1,0,0:0:0:0:
326,89,214329,1,0,0:0:0:0:
221,124,214676,1,8,0:0:0:0:
125,179,215023,2,0,L|65:215,2,55,4|0|4,0:0|0:0|0:0,0:0:0:0:
214,243,215716,6,0,P|276:243|329:215,1,110,0|8,0:0|0:0,0:0:0:0:
372,126,216410,2,0,B|333:106|333:106|256:108,1,110,0|2,0:0|0:0,0:0:0:0:
215,103,216930,1,0,0:0:0:0:
215,103,217104,2,0,P|191:51|202:-11,2,110,0|8|4,0:0|0:0|0:0,0:0:0:0:
248,207,218144,6,0,B|286:229|286:229|361:217,1,110,4|0,0:0|0:0,0:0:0:0:
423,135,218838,2,0,P|382:86|321:78,1,110,8|0,0:0|0:0,0:0:0:0:
235,38,219531,1,12,0:0:0:0:
235,38,219705,1,12,0:0:0:0:
132,212,220398,1,0,0:0:0:0:
132,212,220572,2,0,P|177:243|255:245,1,110,12|4,0:0|0:0,0:0:0:0:
331,294,221265,6,0,P|401:280|455:270,1,110,8|0,0:0|0:0,0:0:0:0:
461,164,221959,1,8,0:0:0:0:
461,164,222306,2,0,B|439:120|439:120|372:70,1,110,0|8,0:0|0:0,0:0:0:0:
280,89,222999,2,0,L|210:107,2,55,0|0|8,0:0|0:0|0:0,0:0:0:0:
330,187,223693,6,0,B|314:241|314:241|266:281,1,110,0|8,0:0|0:0,0:0:0:0:
161,250,224387,2,0,B|119:284|119:284|103:338,1,110,0|8,0:0|0:0,0:0:0:0:
212,351,225080,1,0,0:0:0:0:
321,355,225427,1,8,0:0:0:0:
423,314,225774,2,8,L|486:328,2,55,0|8|8,0:0|0:0|0:0,0:0:0:0:
371,216,226468,6,0,P|379:149|366:94,2,110,4|8|0,0:0|0:0|0:0,0:0:0:0:
260,219,227508,1,8,0:0:0:0:
150,223,227855,2,0,P|96:203|24:201,2,110,0|8|0,0:0|0:0|0:0,0:0:0:0:
213,312,228895,1,8,0:0:0:0:
306,254,229242,6,0,L|372:157,1,110,0|8,0:0|0:0,0:0:0:0:
340,56,229936,1,0,0:0:0:0:
285,50,230109,1,0,0:0:0:0:
229,50,230283,1,8,0:0:0:0:
124,83,230630,2,0,L|67:97,2,55,0|0|8,0:0|0:0|0:0,0:0:0:0:
203,158,231323,2,0,L|256:145,1,55
311,141,231670,2,0,P|362:147|400:203,1,110,8|12,0:0|0:0,0:0:0:0:
337,286,232364,5,12,0:0:0:0:
229,308,232710,2,0,L|98:277,1,110,12|12,0:0|0:0,0:0:0:0:
90,176,233404,2,4,B|119:127|119:127|186:74,2,110,12|12|12,0:0|0:0|0:0,0:0:0:0:
192,215,234445,1,12,0:0:0:0:
300,227,234791,6,4,L|444:239,1,110,12|12,0:0|0:0,0:0:0:0:
475,147,235485,2,4,L|485:37,1,110,12|12,0:0|0:0,0:0:0:0:
374,42,236179,1,12,0:0:0:0:
275,90,236525,1,12,0:0:0:0:
174,44,236872,1,12,0:0:0:0:
100,126,237219,2,4,L|90:236,1,110,12|12,0:0|0:0,0:0:0:0:
177,302,237913,5,0,0:0:0:0:
286,286,238260,2,0,B|331:259|331:259|373:204,1,110,8|0,0:0|0:0,0:0:0:0:
269,159,238953,2,0,L|164:124,2,110,8|0|8,0:0|0:0|0:0,0:0:0:0:
364,103,239994,1,0,0:0:0:0:
364,103,240341,6,0,B|410:135|410:135|450:195,1,110,8|0,0:0|0:0,0:0:0:0:
344,235,241034,2,0,B|298:203|298:203|258:143,1,110,8|0,0:0|0:0,0:0:0:0:
189,80,241728,2,12,L|119:24,1,55
139,210,242421,2,0,B|174:241|174:241|199:299|299:316,1,165,8|8,0:0|0:0,0:0:0:0:
256,192,243462,12,0,247017,0:0:0:0:
