osu file format v14

[General]
AudioFilename: 04. Snow halationKOTORI MIX.mp3
AudioLeadIn: 0
PreviewTime: 51670
Countdown: 0
SampleSet: Soft
StackLeniency: 0.3
Mode: 0
LetterboxInBreaks: 0
WidescreenStoryboard: 0

[Editor]
Bookmarks: 23577,51670,73867,96063,118606,134213,157104,179300,201497,232017,232364
DistanceSpacing: 1.2
BeatDivisor: 4
GridSize: 8
TimelineZoom: 7.5

[Metadata]
Title:Snow halation
TitleUnicode:Snow halation
Artist:Uchida Aya
ArtistUnicode:南ことり
Creator:Misaka 10032
Version:Hard
Source:ラブライブ! School idol project
Tags:muse kotori sonoda Uchida Aya sunrise best album collection ラブライブ solo kotorimix
BeatmapID:858124
BeatmapSetID:375610

[Difficulty]
HPDrainRate:5
CircleSize:3.7
OverallDifficulty:6.6
ApproachRate:7.6
SliderMultiplier:1.6
SliderTickRate:1

[Events]
//Background and Video events
0,0,"kotori+wao.jpg",0,0
//Break Periods
2,96263,103562
2,168402,186799
//Storyboard Layer 0 (Background)
//Storyboard Layer 1 (Fail)
//Storyboard Layer 2 (Pass)
//Storyboard Layer 3 (Foreground)
//Storyboard Sound Samples

[TimingPoints]
341,346.820809248555,4,2,1,40,1,0
341,-133.333333333333,4,2,1,40,0,0
21150,-200,4,2,1,40,0,0
21843,-133.333333333333,4,2,2,40,0,0
21930,-133.333333333333,4,2,1,40,0,0
22537,-100,4,2,1,80,0,0
23577,-100,4,2,1,70,0,0
35369,-133.333333333333,4,2,5,70,0,0
40572,-100,4,2,1,70,0,0
50803,-100,4,2,2,70,0,0
50890,-100,4,2,1,70,0,0
51236,-100,4,2,1,70,0,0
51670,-100,4,2,4,80,0,1
55832,-100,4,2,2,80,0,1
57219,-100,4,2,4,80,0,1
66930,-100,4,2,2,80,0,1
68317,-100,4,2,4,80,0,1
73693,-133.333333333333,4,2,5,70,0,0
82364,-133.333333333333,4,2,1,65,0,0
82537,-133.333333333333,4,2,1,60,0,0
82710,-133.333333333333,4,2,1,55,0,0
82884,-133.333333333333,4,2,1,50,0,0
83057,-133.333333333333,4,2,1,45,0,0
83231,-133.333333333333,4,2,1,40,0,0
83404,-133.333333333333,4,2,1,35,0,0
83577,-133.333333333333,4,2,1,30,0,0
83751,-133.333333333333,4,2,1,25,0,0
83924,-133.333333333333,4,2,1,20,0,0
84098,-133.333333333333,4,2,1,15,0,0
84271,-100,4,2,1,80,0,0
84965,-100,4,2,1,70,0,0
94676,-100,4,2,1,80,0,0
96063,-133.333333333333,4,2,2,40,0,0
96150,-133.333333333333,4,2,1,40,0,0
105774,-133.333333333333,4,2,1,5,0,0
107161,-100,4,2,1,70,0,0
118260,-133.333333333333,4,2,5,70,0,0
123809,-100,4,2,1,70,0,0
134040,-100,4,2,2,70,0,0
134213,-100,4,2,2,70,0,0
134300,-100,4,2,1,70,0,0
134907,-100,4,2,4,80,0,1
139069,-100,4,2,2,80,0,1
140456,-100,4,2,4,80,0,1
150167,-100,4,2,2,80,0,1
151554,-100,4,2,4,80,0,1
157104,-133.333333333333,4,2,5,70,0,0
168202,-66.6666666666667,4,2,10,70,0,0
179300,-133.333333333333,4,2,1,60,0,0
187624,-133.333333333333,4,2,3,60,0,0
187971,-133.333333333333,4,2,3,50,0,0
188317,-133.333333333333,4,2,3,40,0,0
188664,-133.333333333333,4,2,3,30,0,0
189011,-133.333333333333,4,2,3,20,0,0
189358,-133.333333333333,4,2,3,10,0,0
189705,-133.333333333333,4,2,3,5,0,0
190051,-68.9655172413792,4,2,1,80,0,0
190312,-133.333333333333,4,2,1,80,0,0
190398,-133.333333333333,4,2,1,70,0,1
190485,-133.333333333333,4,2,1,70,0,0
198722,-133.333333333333,4,2,1,30,0,0
199069,-133.333333333333,4,2,1,40,0,0
199242,-133.333333333333,4,2,1,45,0,0
199416,-133.333333333333,4,2,1,50,0,0
199589,-133.333333333333,4,2,1,55,0,0
199762,-133.333333333333,4,2,1,60,0,0
199936,-133.333333333333,4,2,1,65,0,0
200109,-133.333333333333,4,2,1,80,0,0
201150,-200,4,2,2,85,0,0
201236,-200,4,2,2,50,0,0
201497,-100,4,2,4,80,0,1
205485,-100,4,2,2,80,0,1
207046,-100,4,2,4,80,0,1
212595,-133.333333333333,4,2,5,70,0,0
219358,-133.333333333333,4,2,1,80,0,0
220398,-100,4,2,1,70,0,0
220572,-100,4,2,2,70,0,0
220658,-100,4,2,1,70,0,0
220919,-100,4,2,4,80,0,1
231930,-100,4,2,1,70,0,0
232017,-90.9090909090909,4,2,1,85,0,1
237566,-90.9090909090909,4,2,4,85,0,1
241728,-90.9090909090909,4,2,1,70,0,0
243549,-90.9090909090909,4,2,1,5,0,0

[Colours]
Combo1 : 0,255,255
Combo2 : 192,192,192
Combo3 : 255,255,128

[HitObjects]
120,248,341,6,0,L|192:264,1,60.0000022888184,2|0,0:0|0:0,0:0:0:0:
260,284,687,2,0,L|318:297,1,60.0000022888184
400,312,1034,2,0,P|456:272|464:208,1,120.000004577637,2|2,0:0|0:0,0:0:0:0:
416,156,1554,1,2,0:0:0:0:
330,183,1728,2,0,P|290:183|258:175,1,60.0000022888184
193,131,2075,1,0,0:0:0:0:
193,131,2248,1,2,0:0:0:0:
316,272,2595,6,0,P|356:272|388:264,2,60.0000022888184,2|0|2,0:0|0:0|0:0,0:0:0:0:
246,230,3115,2,0,P|198:174|198:102,1,120.000004577637,2|0,0:0|0:0,0:0:0:0:
252,72,3635,1,2,0:0:0:0:
248,80,4502,5,2,0:0:0:0:
96,152,4849,2,0,L|64:216,1,60.0000022888184,0|2,0:0|0:0,0:0:0:0:
96,296,5196,2,0,L|224:312,1,120.000004577637,2|0,0:0|0:0,0:0:0:0:
224,320,5890,6,0,P|296:337|352:305,1,120.000004577637,2|0,0:0|0:0,0:0:0:0:
368,176,6410,2,0,L|271:270,1,120.000004577637,2|0,0:0|0:0,0:0:0:0:
200,232,6930,1,2,0:0:0:0:
200,232,7104,1,0,0:0:0:0:
128,184,7277,6,0,B|136:144|136:144|128:104|128:104|136:64,1,120.000004577637,2|0,0:0|0:0,0:0:0:0:
216,88,7797,2,0,P|272:104|336:80,1,120.000004577637,2|0,0:0|0:0,0:0:0:0:
440,280,8664,5,0,0:0:0:0:
440,280,9184,5,0,0:0:0:0:
440,280,9358,2,0,L|376:240,1,60.0000022888184,2|0,0:0|0:0,0:0:0:0:
320,200,9705,2,0,L|256:152,2,60.0000022888184,0|2|2,0:0|0:0|0:0,0:0:0:0:
256,192,10138,12,2,11439,0:0:0:0:
152,200,12826,6,0,P|184:256|248:272,1,120.000004577637,2|0,0:0|0:0,0:0:0:0:
312,248,13346,2,0,L|456:240,1,120.000004577637,2|0,0:0|0:0,0:0:0:0:
504,284,13867,1,2,0:0:0:0:
368,160,14213,6,0,P|340:97|366:39,1,120.000004577637,0|2,0:0|0:0,0:0:0:0:
216,168,14907,2,0,P|244:231|218:289,1,120.000004577637,0|2,0:0|0:0,0:0:0:0:
72,184,15601,6,0,L|106:49,1,120.000004577637,2|0,0:0|0:0,0:0:0:0:
192,56,16121,2,0,B|228:72|262:54|262:54|296:68|296:68|330:50|385:72,1,180.000006866455,2|0,0:0|0:0,0:0:0:0:
425,132,16814,1,0,0:0:0:0:
425,132,16988,1,0,0:0:0:0:
425,132,17161,6,0,P|408:168|384:192,2,60.0000022888184,2|2|2,0:0|0:0|0:0,0:0:0:0:
312,184,17682,2,0,P|293:207|281:234,1,60.0000022888184
334,299,18028,1,0,0:0:0:0:
334,299,18375,6,0,P|263:314|212:284,1,120.000004577637,2|0,0:0|0:0,0:0:0:0:
160,237,18895,2,0,L|134:180,1,60.0000022888184
196,123,19242,2,0,L|221:66,1,60.0000022888184
299,38,19589,1,0,0:0:0:0:
310,146,19762,6,0,P|244:145|196:123,1,120.000004577637,2|0,0:0|0:0,0:0:0:0:
299,38,20283,2,0,P|365:39|413:61,2,120.000004577637,2|2|2,0:0|0:0|0:0,0:0:0:0:
195,122,21150,6,0,P|151:157|197:174,1,120,2|0,0:0|0:0,0:0:0:0:
272,160,21843,6,0,P|287:127|287:103,1,60.0000022888184,4|0,0:0|0:0,0:0:0:0:
183,256,22190,2,0,P|168:289|168:313,1,60.0000022888184
257,326,22537,5,4,0:3:0:0:
257,326,22710,1,4,0:3:0:0:
364,299,23231,5,4,0:3:0:0:
409,214,23404,1,4,0:3:0:0:
396,119,23577,2,0,L|385:66,3,40,2|2|2|2,0:3|0:3|0:3|0:3,0:3:0:0:
340,72,23924,6,0,B|263:66|232:49|232:49|177:73,1,160,0|2,0:0|0:0,0:0:0:0:
114,132,24445,1,0,0:0:0:0:
76,219,24618,2,0,P|88:271|120:304,1,80
200,304,24965,2,0,P|253:311|290:310,1,80,2|0,0:0|0:0,0:0:0:0:
328,228,25312,6,0,P|254:208|165:220,2,160,0|2|0,0:0|0:0|0:0,0:0:0:0:
416,184,26179,1,0,0:0:0:0:
416,184,26352,2,0,L|418:93,1,80,2|0,0:0|0:0,0:0:0:0:
332,64,26699,6,0,P|294:49|225:49,1,80
160,52,27046,2,0,L|146:155,1,80,2|0,0:0|0:0,0:0:0:0:
172,224,27393,2,0,B|211:253|211:253|346:223,1,160,0|2,0:0|0:0,0:0:0:0:
406,184,27913,1,0,0:0:0:0:
394,280,28086,6,0,L|410:362,1,80,0|2,0:0|0:0,0:0:0:0:
406,184,28433,2,0,L|390:102,1,80,0|2,0:0|0:0,0:0:0:0:
314,46,28780,2,0,P|267:81|244:126,1,80,0|2,0:0|0:0,0:0:0:0:
199,176,29127,1,0,0:0:0:0:
199,176,29300,1,2,0:3:0:0:
199,176,29473,6,0,P|125:174|81:98,1,160,0|2,0:0|0:0,0:0:0:0:
123,19,29994,1,0,0:0:0:0:
158,108,30167,2,0,B|123:207|123:207|132:270,1,160,0|2,0:0|0:0,0:0:0:0:
222,291,30687,1,0,0:0:0:0:
317,280,30861,2,0,P|372:258|408:230,1,80
395,150,31208,2,0,P|340:172|304:200,1,80,2|0,0:0|0:0,0:0:0:0:
228,168,31554,1,0,0:0:0:0:
228,168,31728,2,0,L|144:196,2,80,0|2|0,0:0|0:0|0:0,0:0:0:0:
312,124,32248,6,0,P|251:52|179:43,1,160,0|2,0:0|0:0,0:0:0:0:
72,192,32942,2,0,L|67:296,1,80,4|0,0:0|0:0,0:0:0:0:
160,304,33288,2,0,P|197:289|232:270,1,80,4|0,0:0|0:0,0:0:0:0:
308,212,33635,5,0,0:0:0:0:
364,136,33809,1,2,0:3:0:0:
364,136,33982,2,0,B|368:80|368:80|360:40,1,80,0|0,0:3|0:0,0:0:0:0:
272,32,34329,1,2,0:3:0:0:
188,76,34502,1,2,0:3:0:0:
268,128,34676,1,8,0:3:0:0:
188,76,34849,5,8,0:3:0:0:
155,209,35023,1,4,0:0:0:0:
155,209,35369,6,0,P|215:221|282:207,1,120.000004577637,0|8,0:0|0:0,0:0:0:0:
272,210,36063,1,0,0:0:0:0:
359,245,36236,1,0,0:0:0:0:
347,157,36410,2,0,L|319:29,1,120.000004577637
228,28,36930,1,0,0:0:0:0:
228,28,37104,2,0,P|213:53|207:92,2,60.0000022888184,8|0|4,0:0|0:0|0:0,0:0:0:0:
322,40,37797,6,0,B|341:75|341:75|321:171,1,120.000004577637,4|0,0:0|0:0,0:0:0:0:
144,156,38491,2,0,P|190:111|259:98,1,120.000004577637,8|0,0:0|0:0,0:0:0:0:
308,160,39011,1,0,0:0:0:0:
308,160,39184,2,0,L|335:237,1,60.0000022888184
280,292,39531,2,0,L|213:307,1,60.0000022888184
192,308,39791,1,0,0:0:0:0:
168,300,39878,2,0,L|141:223,2,60.0000022888184,8|8|4,0:0|0:3|0:3,0:0:0:0:
320,116,40572,6,0,B|284:87|284:87|143:78,1,160,4|8,0:0|0:0,0:0:0:0:
96,152,41092,1,0,0:0:0:0:
96,152,41265,2,0,L|80:244,1,80
180,268,41612,2,0,P|231:258|273:236,1,80,8|0,0:0|0:0,0:0:0:0:
328,164,41959,2,0,L|351:322,2,160,0|8|0,0:0|0:0|0:0,0:0:0:0:
296,64,42826,1,8,0:0:0:0:
296,64,42999,1,8,0:0:0:0:
412,236,43346,6,0,P|385:314|304:331,1,160,4|8,0:0|0:0,0:0:0:0:
228,276,43867,1,0,0:0:0:0:
228,276,44040,2,0,P|230:222|252:179,1,80
236,96,44387,2,0,P|190:77|137:79,1,80,8|0,0:0|0:0,0:0:0:0:
88,148,44734,6,0,L|104:300,1,120
112,296,45080,2,0,L|200:280,1,80,8|0,0:0|0:0,0:0:0:0:
288,244,45427,1,0,0:0:0:0:
380,296,45601,1,8,0:0:0:0:
380,296,45774,2,0,L|476:281,1,80,8|0,0:0|0:0,0:0:0:0:
448,180,46121,6,0,P|408:108|324:100,1,160,4|8,0:0|0:0,0:0:0:0:
232,80,46641,1,0,0:0:0:0:
136,120,46814,2,0,L|144:216,1,80
204,284,47161,2,0,L|287:283,1,80,8|0,0:0|0:0,0:0:0:0:
316,184,47508,5,0,0:0:0:0:
392,112,47682,1,0,0:0:0:0:
404,216,47855,2,0,P|403:280|395:321,1,80,8|0,0:0|0:0,0:0:0:0:
283,283,48202,1,0,0:0:0:0:
316,184,48375,1,0,0:0:0:0:
220,204,48549,2,8,L|167:177,2,40
168,288,48895,6,0,L|79:255,1,80,4|0,0:3|0:0,0:0:0:0:
184,185,49242,2,0,L|273:152,1,80,4|0,0:3|0:0,0:0:0:0:
372,140,49589,2,0,B|372:182|372:182|374:241,1,80,4|0,0:3|0:0,0:0:0:0:
324,312,49936,1,8,0:3:0:0:
324,312,50109,2,0,L|231:336,2,80,8|0|4,0:3|0:3|0:3,0:0:0:0:
128,236,50803,6,0,P|110:182|142:98,1,120,4|0,0:0|0:0,0:0:0:0:
152,120,51150,2,0,L|252:116,1,80,2|2,0:0|0:0,0:0:0:0:
312,184,51497,1,0,0:0:0:0:
384,112,51670,6,0,B|312:16|312:16|296:56,1,160,6|8,0:0|0:0,0:0:0:0:
204,96,52190,1,0,0:0:0:0:
204,96,52364,2,0,L|248:170,1,80,2|2,0:0|0:0,0:0:0:0:
280,264,52710,1,8,0:0:0:0:
196,328,52884,1,0,0:0:0:0:
196,328,53057,2,0,P|149:312|113:281,1,80,2|0,0:0|0:0,0:0:0:0:
181,208,53404,6,0,B|220:193|220:193|263:142,1,80,8|2,0:0|0:0,0:0:0:0:
164,96,53751,2,0,B|125:111|125:111|82:162,1,80,0|2,0:0|0:0,0:0:0:0:
189,231,54098,6,0,B|221:207|221:207|255:142,1,80,8|0,0:0|0:0,0:0:0:0:
176,72,54445,2,0,B|120:96|120:96|78:190,1,160,2|8,0:0|0:0,0:0:0:0:
116,284,54965,1,0,0:0:0:0:
212,324,55138,1,2,0:0:0:0:
212,324,55312,2,0,P|261:294|289:254,2,80,2|8|0,0:0|0:0|0:0,0:0:0:0:
171,219,55832,6,0,L|196:123,1,80,2|0,0:0|0:0,0:0:0:0:
293,162,56179,2,0,L|318:66,1,80,10|0,0:0|0:0,0:0:0:0:
413,110,56525,2,0,L|438:14,2,80,2|8|10,0:0|0:0|0:0,0:0:0:0:
424,214,57046,1,0,0:0:0:0:
424,214,57219,6,0,P|342:260|256:259,1,160,6|8,0:0|0:0,0:0:0:0:
203,205,57739,1,0,0:0:0:0:
109,229,57913,2,0,L|114:322,1,80,2|2,0:0|0:0,0:0:0:0:
141,142,58260,2,0,L|136:49,1,80,8|0,0:0|0:0,0:0:0:0:
230,43,58606,1,2,0:0:0:0:
230,43,58780,6,0,L|326:67,1,80,0|8,0:0|0:0,0:0:0:0:
408,84,59127,1,2,0:0:0:0:
420,188,59300,1,0,0:0:0:0:
420,188,59387,1,0,0:0:0:0:
420,188,59473,2,8,P|382:201|342:199,1,80,2|8,0:0|0:0,0:0:0:0:
252,152,59820,1,0,0:0:0:0:
160,204,59994,6,0,B|166:260|166:260|249:342,1,160,6|8,0:0|0:0,0:0:0:0:
335,295,60514,1,0,0:0:0:0:
342,199,60687,2,0,P|340:128|359:88,1,80,2|2,0:0|0:0,0:0:0:0:
430,65,61034,2,0,L|517:49,1,80,8|0,0:0|0:0,0:0:0:0:
336,34,61381,5,4,0:0:0:0:
336,34,61554,1,4,0:0:0:0:
336,34,62075,6,0,L|243:45,1,80,4|4,0:0|0:0,0:0:0:0:
165,71,62421,2,0,L|99:77,3,40,8|8|8|8,0:0|0:0|0:0|0:0,0:0:0:0:
174,101,62768,6,0,P|178:165|255:236,1,160,6|8,0:0|0:0,0:0:0:0:
338,237,63288,1,0,0:0:0:0:
294,322,63462,2,0,P|258:333|189:322,1,80,2|2,0:0|0:0,0:0:0:0:
141,271,63809,2,0,L|94:203,1,80,8|0,0:0|0:0,0:0:0:0:
133,116,64156,1,2,0:0:0:0:
225,93,64329,1,0,0:0:0:0:
310,136,64502,1,8,0:0:0:0:
308,39,64676,1,2,0:0:0:0:
232,184,64849,6,0,P|244:227|269:266,1,80,0|2,0:0|0:0,0:0:0:0:
324,332,65196,2,0,L|214:352,1,80,8|0,0:0|0:0,0:0:0:0:
168,292,65543,2,0,B|140:247|140:247|107:212|107:212|71:134,2,160,2|8|2,0:0|0:0|0:0,0:0:0:0:
248,256,66410,1,2,0:0:0:0:
320,308,66583,2,0,L|430:288,1,80,8|0,0:0|0:0,0:0:0:0:
412,208,66930,6,0,P|414:155|398:106,1,80,2|0,0:0|0:0,0:0:0:0:
324,84,67277,1,10,0:0:0:0:
324,84,67450,2,0,P|322:137|338:186,1,80,0|2,0:0|0:0,0:0:0:0:
312,260,67797,1,10,0:0:0:0:
312,260,67971,2,0,L|200:280,1,80,10|0,0:0|0:0,0:0:0:0:
160,212,68317,6,0,B|136:159|136:159|170:117|243:93,1,160,6|8,0:0|0:0,0:0:0:0:
321,89,68838,1,0,0:0:0:0:
321,89,69011,2,0,L|419:69,1,80,2|2,0:0|0:0,0:0:0:0:
452,164,69358,2,0,L|354:184,1,80,8|0,0:0|0:0,0:0:0:0:
280,204,69705,5,2,0:0:0:0:
188,224,69878,1,0,0:0:0:0:
92,240,70051,2,0,L|72:331,1,80,8|2,0:0|0:0,0:0:0:0:
172,324,70398,2,0,P|236:304|268:272,1,80,0|2,0:0|0:0,0:0:0:0:
280,204,70745,2,0,P|314:184|353:176,1,80,8|0,0:0|0:0,0:0:0:0:
448,200,71092,6,0,P|484:168|448:48,1,160,6|8,0:0|0:0,0:0:0:0:
380,44,71612,1,0,0:0:0:0:
380,44,71786,2,0,L|264:44,1,80,2|2,0:0|0:0,0:0:0:0:
232,112,72132,2,0,L|152:112,1,80,8|0,0:0|0:0,0:0:0:0:
56,132,72479,6,0,P|68:204|80:304,1,160,6|8,0:0|0:0,0:0:0:0:
172,312,72999,2,0,P|237:291|254:193,2,160,4|4|8,0:0|0:0|0:3,0:0:0:0:
156,304,73780,1,8,0:3:0:0:
144,296,73867,1,0,0:3:0:0:
310,144,74213,6,0,P|282:132|253:129,1,60.0000022888184
164,124,74560,2,0,B|130:171|130:171|119:246,2,120.000004577637,8|0|2,0:0|0:0|0:0,0:0:0:0:
244,84,75427,1,0,0:0:0:0:
244,84,75601,2,0,L|328:80,1,60.0000022888184
384,36,75947,2,0,L|460:36,1,60.0000022888184,8|0,0:0|0:0,0:0:0:0:
492,112,76294,5,4,0:0:0:0:
328,188,76641,2,0,P|376:257|431:272,1,120.000004577637,4|0,0:0|0:0,0:0:0:0:
456,348,77161,1,0,0:0:0:0:
456,348,77335,2,0,L|312:356,1,120.000004577637,8|0,0:0|0:0,0:0:0:0:
252,328,77855,1,0,0:0:0:0:
184,272,78028,2,0,L|114:278,1,60.0000022888184,2|0,0:0|0:0,0:0:0:0:
104,188,78375,2,0,L|174:182,1,60.0000022888184
252,164,78722,2,0,P|321:158|370:109,2,120.000004577637,8|4|4,0:0|0:0|0:0,0:0:0:0:
164,320,79762,6,0,P|80:312|44:276,1,120.000004577637,0|8,0:0|0:0,0:0:0:0:
36,204,80283,1,0,0:0:0:0:
112,156,80456,2,0,B|144:132|144:132|184:140|248:120,1,120.000004577637,0|2,0:0|0:0,0:0:0:0:
364,240,81150,2,0,P|392:296|452:332,2,120.000004577637,0|8|0,0:0|0:0|0:0,0:0:0:0:
328,156,82017,1,0,0:0:0:0:
328,156,82190,1,4,0:0:0:0:
256,192,82277,12,0,83231,0:0:0:0:
104,78,83577,6,0,B|132:78|159:67|159:67|200:70|200:70|239:63,1,120.000004577637,2|0,0:0|0:0,0:0:0:0:
364,60,84271,1,4,0:0:0:0:
364,60,84445,1,4,0:0:0:0:
364,60,84965,6,0,B|368:108|324:176|324:176|328:232,1,160,4|8,0:0|0:0,0:0:0:0:
368,300,85485,1,0,0:0:0:0:
368,300,85658,2,0,L|268:304,1,80,2|0,0:0|0:0,0:0:0:0:
204,256,86005,1,8,0:0:0:0:
172,164,86179,1,0,0:0:0:0:
248,104,86352,6,0,P|325:100|381:154,1,160,2|8,0:0|0:0,0:0:0:0:
352,248,86872,2,0,B|302:267|238:251|238:251|198:271,1,160,2|0,0:0|0:0,0:0:0:0:
108,232,87393,1,8,0:0:0:0:
108,232,87566,1,0,0:0:0:0:
94,141,87739,6,0,B|138:117|138:117|270:101,1,160,2|8,0:0|0:0,0:0:0:0:
336,144,88260,2,0,L|324:244,2,80,0|2|2,0:0|0:0|0:0,0:0:0:0:
424,108,88780,1,8,0:0:0:0:
372,28,88953,1,0,0:0:0:0:
276,48,89127,6,0,P|196:76|128:44,1,160,2|8,0:0|0:0,0:0:0:0:
164,248,89820,2,0,L|180:360,2,80,2|8|8,0:0|0:0|0:0,0:0:0:0:
172,152,90341,1,0,0:0:0:0:
172,152,90514,6,0,B|252:156|252:156|300:176|364:180,1,160,4|8,0:0|0:0,0:0:0:0:
312,267,91034,1,2,0:0:0:0:
312,267,91208,2,0,L|230:255,1,80
138,236,91554,2,0,P|86:174|109:87,1,160,8|2,0:0|0:0,0:0:0:0:
288,112,92248,1,8,0:0:0:0:
288,112,92421,1,2,0:0:0:0:
288,112,92595,2,0,L|300:24,2,80,0|0|8,0:0|0:0|0:0,0:0:0:0:
252,200,93115,1,0,0:0:0:0:
156,216,93288,6,0,B|94:215|42:255|42:255|64:288,1,160,4|8,0:0|0:0,0:0:0:0:
248,340,93982,2,0,L|332:344,2,80,0|2|8,0:0|0:0|0:0,0:0:0:0:
156,312,94502,1,0,0:0:0:0:
68,292,94676,5,12,0:0:0:0:
68,292,94849,1,12,0:0:0:0:
403,153,95369,5,12,0:0:0:0:
403,153,95542,1,12,0:0:0:0:
271,290,96063,5,4,0:0:0:0:
256,192,104387,12,0,105601,0:0:0:0:
256,192,105774,12,0,106814,0:0:0:0:
128,160,107161,6,0,P|196:148|256:80,1,160,4|2,0:0|0:0,0:0:0:0:
352,76,107682,2,0,B|328:188|328:188|344:240,1,160
364,324,108202,1,2,0:0:0:0:
268,324,108375,1,0,0:0:0:0:
268,324,108549,2,0,L|172:332,1,80
108,280,108895,2,0,B|140:240|140:240|240:184,2,160,2|0|2,0:0|0:0|0:0,0:0:0:0:
380,128,109936,6,0,P|388:176|376:224,1,80
328,288,110283,2,0,P|264:284|228:272,1,80,2|0,0:0|0:0,0:0:0:0:
204,196,110630,2,0,B|180:88|180:88|200:16,2,160,0|2|0,0:0|0:0|0:0,0:0:0:0:
208,284,111497,6,0,B|172:308|172:308|112:316,1,80,2|0,0:0|0:0,0:0:0:0:
64,204,111843,2,0,B|108:208|108:208|144:236,1,80,2|0,0:0|0:0,0:0:0:0:
68,360,112190,2,0,B|52:320|52:320|60:280,2,80,2|0|2,0:0|0:0|0:3,0:0:0:0:
204,292,112710,6,0,B|300:272|300:272|344:248|384:248,1,160,0|2,0:0|0:0,0:0:0:0:
452,228,113231,2,0,P|443:304|376:341,1,160
292,296,113751,1,2,0:0:0:0:
220,232,113924,1,0,0:0:0:0:
196,140,114098,6,0,B|252:100|308:104|308:104|364:68,1,160,0|2,0:0|0:0,0:0:0:0:
384,168,114618,2,0,P|328:188|284:184,2,80
432,84,115138,2,0,P|420:40|388:8,1,80,2|0,0:0|0:0,0:0:0:0:
296,32,115485,5,0,0:0:0:0:
124,120,115832,1,0,0:0:0:0:
216,288,116179,1,4,0:0:0:0:
388,200,116526,1,4,0:0:0:0:
176,199,116872,6,0,B|92:187|92:187|124:119,1,160
332,96,117566,2,0,L|420:88,2,80,0|8|4,0:0|0:3|0:3,0:0:0:0:
228,88,118086,1,4,0:3:0:0:
228,88,118260,6,0,B|240:128|240:128|272:168|264:216,1,120.000004577637,4|0,0:0|0:0,0:0:0:0:
265,199,118953,2,0,P|169:195|129:195,1,120.000004577637,8|0,0:0|0:0,0:0:0:0:
80,248,119473,1,0,0:0:0:0:
152,292,119647,2,0,L|232:300,2,60.0000022888184
152,208,120167,1,0,0:0:0:0:
152,208,120341,2,0,P|144:168|136:144,1,60.0000022888184,8|0,0:0|0:0,0:0:0:0:
128,64,120687,2,0,P|184:36|264:48,1,120.000004577637,4|4,0:0|0:0,0:0:0:0:
264,224,121381,6,0,P|316:251|376:249,2,120.000004577637,0|8|0,0:0|0:0|0:0,0:0:0:0:
208,160,122248,1,0,0:0:0:0:
240,84,122421,2,0,P|256:56|276:20,1,60.0000022888184
352,24,122768,2,0,B|376:56|376:56|384:144,2,120.000004577637,0|8|2,0:0|0:0|0:0,0:0:0:0:
156,132,123809,6,0,P|201:195|278:208,1,160,4|8,0:0|0:0,0:0:0:0:
372,184,124329,1,0,0:0:0:0:
372,184,124502,2,0,L|468:184,1,80
408,272,124849,2,0,L|316:284,1,80,8|0,0:0|0:0,0:0:0:0:
232,264,125196,2,0,B|180:244|180:244|128:244|128:244|76:224,1,160,0|8,0:0|0:0,0:0:0:0:
116,136,125716,2,0,B|168:116|168:116|220:116|220:116|272:96,1,160
364,84,126236,1,8,0:0:0:0:
404,172,126410,1,0,0:0:0:0:
336,240,126583,6,0,P|268:204|264:100,2,160,4|8|0,0:0|0:0|0:0,0:0:0:0:
428,272,127450,2,0,L|504:300,2,80,0|8|0,0:0|0:0|0:0,0:0:0:0:
404,172,127971,2,0,P|340:144|252:184,1,160,0|8,0:0|0:0,0:0:0:0:
172,212,128491,2,0,B|177:325|177:325|147:278,1,160
66,233,129011,2,0,P|58:165|74:129,1,80,8|0,0:0|0:0,0:0:0:0:
148,120,129358,5,4,0:0:0:0:
240,148,129531,1,0,0:0:0:0:
260,244,129705,1,8,0:0:0:0:
172,212,129878,1,0,0:0:0:0:
240,148,130051,2,0,P|288:136|352:136,2,80,0|0|8,0:0|0:0|0:0,0:0:0:0:
172,212,130572,2,0,P|100:200|52:112,1,160
120,56,131092,2,0,P|164:56|220:40,1,80,8|0,0:0|0:0,0:0:0:0:
296,40,131439,2,0,P|335:31|375:32,1,80
436,108,131786,1,8,0:0:0:0:
436,108,131872,1,8,0:0:0:0:
436,108,131959,1,8,0:0:0:0:
352,156,132132,6,0,P|328:192|320:248,1,80,4|0,0:0|0:0,0:0:0:0:
445,299,132479,2,0,P|426:248|381:213,1,80,4|0,0:0|0:0,0:0:0:0:
279,304,132826,2,0,P|310:313|366:303,1,80,4|0,0:0|0:0,0:0:0:0:
352,156,133173,1,4,0:0:0:0:
352,156,133346,1,8,0:0:0:0:
252,165,133520,6,0,P|203:164|161:155,1,80,4|4,0:0|0:0,0:0:0:0:
172,158,134040,2,0,P|141:223|168:314,1,160,4|0,0:0|0:0,0:0:0:0:
272,320,134560,2,8,L|332:319,3,40,10|8|10|8,0:0|0:0|0:0|0:0,0:0:0:0:
343,303,134907,6,0,B|375:292|405:289|405:289|399:240|443:183,1,160,6|8,0:0|0:0,0:0:0:0:
413,103,135427,1,0,0:0:0:0:
413,103,135601,2,0,L|312:107,1,80,2|2,0:0|0:0,0:0:0:0:
244,143,135947,2,0,L|237:231,1,80,8|0,0:0|0:0,0:0:0:0:
170,291,136294,2,0,P|98:261|71:187,2,160,2|8|2,0:0|0:0|0:0,0:0:0:0:
265,278,137161,1,2,0:0:0:0:
307,191,137335,2,0,L|338:102,1,80,8|0,0:0|0:0,0:0:0:0:
242,81,137682,6,0,B|173:72|130:67|130:67|76:41,1,160,2|8,0:0|0:0,0:0:0:0:
56,137,138202,2,0,P|49:212|66:324,1,160,2|2,0:0|0:0,0:0:0:0:
154,292,138722,1,8,0:0:0:0:
249,288,138895,1,0,0:0:0:0:
344,278,139069,2,0,L|437:264,1,80,2|0,0:0|0:0,0:0:0:0:
385,177,139416,2,0,L|292:163,1,80,2|0,0:0|0:0,0:0:0:0:
345,77,139762,2,0,L|438:63,2,80,2|8|8,0:0|0:0|0:0,0:0:0:0:
248,64,140283,1,0,0:0:0:0:
248,64,140369,1,0,0:0:0:0:
248,64,140456,6,0,B|237:111|237:111|212:149|223:197|223:197|213:229,1,160,6|8,0:0|0:0,0:0:0:0:
121,225,140976,1,0,0:0:0:0:
121,225,141150,2,0,P|87:187|71:142,1,80,2|2,0:0|0:0,0:0:0:0:
122,76,141497,2,0,L|220:48,1,80,8|0,0:0|0:0,0:0:0:0:
275,112,141843,6,0,P|334:123|369:127,1,80,2|0,0:0|0:0,0:0:0:0:
447,104,142190,1,8,0:0:0:0:
375,39,142364,1,2,0:0:0:0:
354,132,142537,1,0,0:0:0:0:
354,132,142710,2,0,P|349:173|321:211,1,80,2|8,0:0|0:0,0:0:0:0:
232,218,143057,1,0,0:0:0:0:
138,240,143231,6,0,P|185:302|288:300,1,160,6|8,0:0|0:0,0:0:0:0:
364,280,143751,1,0,0:0:0:0:
364,280,143924,2,0,L|353:196,1,80,2|2,0:0|0:0,0:0:0:0:
276,144,144271,2,0,P|211:137|172:118,1,80,8|0,0:0|0:0,0:0:0:0:
128,68,144618,5,4,0:0:0:0:
128,68,144791,1,4,0:0:0:0:
150,187,145312,5,4,0:0:0:0:
150,187,145485,1,4,0:0:0:0:
243,230,145658,2,0,L|315:244,3,40,8|8|8|8,0:0|0:0|0:0|0:0,0:0:0:0:
283,269,146005,6,0,P|342:280|379:276,1,80,6|0,0:0|0:0,0:0:0:0:
426,206,146352,2,8,P|385:126|295:101,2,160,8|2|8,0:0|0:0|0:0,0:0:0:0:
366,281,147219,1,0,0:0:0:0:
366,281,147393,2,0,L|271:297,1,80,2|0,0:0|0:0,0:0:0:0:
193,277,147739,2,0,L|108:231,1,80,8|2,0:0|0:0,0:0:0:0:
124,140,148086,2,0,P|188:90|286:106,1,160,2|8,0:0|0:0,0:0:0:0:
263,93,148606,1,0,0:0:0:0:
356,116,148780,6,0,B|343:159|307:178|307:178|323:218|316:268,1,160,6|8,0:0|0:0,0:0:0:0:
376,336,149300,2,0,L|468:328,2,80,0|2|2,0:0|0:0|0:0,0:0:0:0:
284,364,149820,1,8,0:0:0:0:
228,288,149994,1,0,0:0:0:0:
200,196,150167,2,0,B|144:200|116:224|116:224|32:200,1,160,2|10,0:0|0:0,0:0:0:0:
76,108,150687,1,0,0:0:0:0:
172,104,150861,2,0,L|256:100,2,80,2|8|8,0:0|0:0|0:0,0:0:0:0:
172,104,151554,6,0,B|211:84|211:84|272:98|270:197,1,160,4|8,0:0|0:0,0:0:0:0:
276,269,152075,1,0,0:0:0:0:
276,269,152248,2,0,L|276:360,1,80,2|2,0:0|0:0,0:0:0:0:
184,280,152595,2,0,L|184:189,1,80,8|0,0:0|0:0,0:0:0:0:
172,104,152942,6,0,B|176:48|243:40|243:40|270:24|315:24,2,160,2|8|2,0:0|0:0|0:0,0:0:0:0:
260,156,153809,1,2,0:0:0:0:
260,156,153982,2,0,L|353:161,1,80,8|0,0:0|0:0,0:0:0:0:
420,220,154329,6,0,B|436:280|400:328|400:328|385:405,1,160,4|8,0:0|0:0,0:0:0:0:
300,352,154849,1,0,0:0:0:0:
300,352,155023,2,0,L|216:336,1,80,2|2,0:0|0:0,0:0:0:0:
152,280,155369,1,8,0:0:0:0:
170,187,155543,1,0,0:0:0:0:
263,175,155716,6,0,L|431:167,1,160,6|8,0:0|0:0,0:0:0:0:
424,272,156236,2,0,B|408:336|408:336|368:232,2,160,6|6|0,0:0|0:0|0:0,0:0:0:0:
424,272,157017,1,8,0:3:0:0:
424,272,157104,1,4,0:3:0:0:
84,166,157450,5,0,0:0:0:0:
157,261,157797,1,8,0:0:0:0:
264,208,158144,1,0,0:0:0:0:
157,261,158491,2,0,P|204:305|272:315,1,120.000004577637
256,316,159011,1,0,0:0:0:0:
340,312,159184,2,0,L|404:308,1,60.0000022888184,8|0,0:0|0:0,0:0:0:0:
381,220,159531,6,0,P|312:204|253:210,1,120.000004577637,4|4,0:0|0:0,0:0:0:0:
96,192,160225,1,0,0:0:0:0:
96,192,160398,1,0,0:0:0:0:
96,192,160572,2,0,P|67:261|73:314,1,120.000004577637,8|0,0:0|0:0,0:0:0:0:
240,316,161265,2,0,L|299:322,2,60.0000022888184
116,204,161959,2,0,L|42:196,1,60.0000022888184,8|0,0:0|0:0,0:0:0:0:
52,112,162306,2,0,B|61:58|79:30|79:30|128:16,1,120.000004577637,4|4,0:0|0:0,0:0:0:0:
284,36,162999,6,0,P|357:47|385:99,1,120.000004577637,0|8,0:0|0:0,0:0:0:0:
313,223,163693,2,0,P|240:212|212:160,1,120.000004577637
126,102,164213,1,0,0:0:0:0:
126,102,164387,2,0,L|124:238,2,120.000004577637,0|8|0,0:0|0:0|0:0,0:0:0:0:
256,192,165427,12,2,166814,0:0:0:0:
237,78,167508,5,4,0:0:0:0:
216,196,167682,1,4,0:0:0:0:
215,214,168202,5,0,3:0:0:0:
304,56,187624,6,0,P|356:92|388:156,1,120.000004577637
383,243,188317,2,0,P|353:294|304:328,1,120.000004577637
208,328,189011,2,0,P|156:292|124:228,1,120.000004577637
128,140,189704,2,0,P|158:89|208:56,1,120.000004577637
256,192,190398,5,4,0:0:0:0:
360,324,190745,2,0,P|404:332|500:308,2,120.000004577637
284,292,191612,2,0,L|156:288,1,120.000004577637
104,232,192132,2,0,B|88:180|88:180|88:140|88:140|76:100,2,120.000004577637,0|8|8,0:0|0:3|0:3,0:0:0:0:
264,176,193173,6,0,B|332:176|332:176|372:144|440:144,1,180.000006866455,4|0,0:0|0:0,0:0:0:0:
212,256,194213,2,0,P|180:232|164:192,1,60.0000022888184
152,132,194560,1,0,0:0:0:0:
152,132,194734,2,8,L|108:104,2,30.0000011444092,8|8|8,0:3|0:3|0:3,0:3:0:0:
320,128,195254,2,0,L|400:132,2,60.0000022888184,0|0|4,0:3|0:3|0:3,0:3:0:0:
212,256,195947,1,4,0:0:0:0:
224,280,197335,5,4,0:0:0:0:
240,304,198722,5,0,0:0:0:0:
240,304,199069,6,0,L|304:288,1,60.0000022888184
354,213,199416,1,0,0:0:0:0:
439,240,199589,1,0,0:0:0:0:
439,330,199762,1,0,0:0:0:0:
354,358,199936,1,0,0:0:0:0:
298,289,200109,2,8,L|267:237,1,60.0000022888184,12|12,0:0|0:0,0:0:0:0:
352,128,200803,6,0,L|426:107,2,60.0000022888184,12|12|4,0:0|0:0|0:0,0:0:0:0:
232,208,201323,5,8,0:0:0:0:
232,208,201410,1,8,0:0:0:0:
232,208,201497,2,0,P|176:196|140:168,1,80,6|0,0:0|0:0,0:0:0:0:
108,105,201843,2,0,B|170:79|216:117|216:117|276:113,1,160,8|2,0:0|0:0,0:0:0:0:
352,128,202364,1,2,0:0:0:0:
352,128,202537,2,0,L|456:116,1,80,8|0,0:0|0:0,0:0:0:0:
456,216,202884,2,0,P|436:264|408:292,1,80,2|0,0:0|0:0,0:0:0:0:
324,308,203231,6,0,L|232:316,1,80,8|2,0:0|0:0,0:0:0:0:
184,240,203577,2,0,P|176:160|220:76,2,160,0|8|4,0:0|0:0|0:0,0:0:0:0:
244,314,204445,1,0,0:0:0:0:
148,328,204618,1,8,0:0:0:0:
92,244,204791,2,0,P|80:192|76:152,2,80,0|2|2,0:0|0:0|0:0,0:0:0:0:
188,228,205312,2,0,P|248:220|280:212,1,80,8|0,0:0|0:0,0:0:0:0:
332,148,205658,6,0,B|320:100|320:100|284:56,1,80,2|0,0:0|0:0,0:0:0:0:
204,64,206005,2,0,B|216:112|216:112|235:135,1,80,10|0,0:0|0:0,0:0:0:0:
333,237,206352,2,0,P|377:226|417:190,2,80,2|8|10,0:0|0:0|0:0,0:0:0:0:
100,116,207046,6,0,P|72:172|104:264,1,160,6|8,0:0|0:0,0:0:0:0:
192,288,207566,1,0,0:0:0:0:
192,288,207739,2,0,P|232:272|268:240,1,80,2|2,0:0|0:0,0:0:0:0:
324,176,208086,2,0,P|361:190|392:215,1,80,8|0,0:0|0:0,0:0:0:0:
464,280,208433,2,0,P|480:196|452:112,2,160,2|8|2,0:0|0:0|0:0,0:0:0:0:
376,316,209300,1,2,0:0:0:0:
376,316,209473,2,0,L|288:316,1,80
252,228,209820,6,0,B|224:120|224:120|252:64,1,160,6|8,0:0|0:0,0:0:0:0:
340,60,210341,1,0,0:0:0:0:
244,56,210514,2,0,L|144:72,1,80,2|2,0:0|0:0,0:0:0:0:
108,148,210861,2,0,L|128:248,1,80,8|0,0:0|0:0,0:0:0:0:
212,264,211208,2,0,P|296:268|380:208,1,160,6|0,0:0|0:0,0:0:0:0:
440,180,211728,2,0,L|476:364,2,160,6|2|8,0:0|0:0|0:3,0:0:0:0:
436,164,212508,1,8,0:3:0:0:
432,148,212595,1,4,0:3:0:0:
216,120,212942,5,0,0:0:0:0:
216,120,213288,2,0,P|144:128|104:180,1,120.000004577637,8|0,0:0|0:0,0:0:0:0:
224,252,213982,2,0,L|360:260,1,120.000004577637,2|0,0:0|0:0,0:0:0:0:
448,160,214676,2,0,L|312:152,1,120.000004577637,8|4,0:0|0:0,0:0:0:0:
188,116,215369,5,4,0:0:0:0:
156,256,215716,1,0,0:0:0:0:
156,256,215890,1,0,0:0:0:0:
156,256,216063,2,0,P|212:288|284:284,1,120.000004577637,8|0,0:0|0:0,0:0:0:0:
300,212,216583,1,0,0:0:0:0:
300,212,216757,2,0,L|316:132,1,60.0000022888184,2|0,0:0|0:0,0:0:0:0:
380,104,217104,2,0,L|396:24,1,60.0000022888184
476,60,217450,6,0,L|456:196,1,120.000004577637,8|4,0:0|0:0,0:0:0:0:
296,216,218144,2,0,P|232:212|168:168,1,120.000004577637,4|0,0:0|0:0,0:0:0:0:
136,116,218664,1,0,0:0:0:0:
76,176,218838,2,0,L|84:320,1,120.000004577637,8|0,0:0|0:0,0:0:0:0:
176,336,219358,5,8,0:3:0:0:
176,336,219445,1,8,0:3:0:0:
176,336,219531,2,0,L|264:336,1,60.0000022888184,8|0,0:3|0:3,0:0:0:0:
432,136,220398,1,0,0:0:0:0:
432,136,220572,2,0,P|408:96|364:72,1,80,12|0,0:0|0:0,0:0:0:0:
300,132,220919,6,0,L|292:304,1,160,6|8,0:0|0:0,0:0:0:0:
196,300,221439,1,0,0:0:0:0:
196,300,221612,2,0,L|96:304,2,80,2|2|8,0:0|0:0|0:0,0:0:0:0:
196,204,222132,1,0,0:0:0:0:
196,204,222306,2,0,L|88:208,1,80,2|0,0:0|0:0,0:0:0:0:
72,120,222653,1,8,0:0:0:0:
72,120,222826,2,0,B|140:120|176:108|176:108|264:104,1,160,2|0,0:0|0:0,0:0:0:0:
339,96,223346,2,0,L|431:92,1,80,8|0,0:0|0:0,0:0:0:0:
359,186,223693,6,0,P|272:160|252:76,2,160,2|8|2,0:0|0:0|0:0,0:0:0:0:
456,184,224560,1,2,0:0:0:0:
408,268,224734,1,8,0:0:0:0:
360,180,224907,1,0,0:0:0:0:
304,100,225080,6,0,P|256:84|220:80,1,80,2|0,0:0|0:0,0:0:0:0:
136,112,225427,2,0,P|96:105|58:92,1,80,8|0,0:0|0:0,0:0:0:0:
56,188,225774,1,2,0:0:0:0:
112,264,225947,1,8,0:0:0:0:
212,276,226121,1,8,0:0:0:0:
212,276,226468,6,0,B|272:268|272:268|337:306|397:275,1,160,6|8,0:0|0:0,0:0:0:0:
340,188,226988,1,0,0:0:0:0:
340,188,227161,2,0,L|324:96,1,80,2|2,0:0|0:0,0:0:0:0:
232,104,227508,2,0,L|144:112,1,80,8|0,0:0|0:0,0:0:0:0:
96,188,227855,6,0,B|148:212|196:196|196:196|284:204,1,160,2|8,0:0|0:0,0:0:0:0:
316,272,228375,2,0,P|392:260|424:180,1,160,2|2,0:0|0:0,0:0:0:0:
392,100,228895,1,8,0:0:0:0:
392,100,229069,1,0,0:0:0:0:
300,72,229242,6,0,B|256:68|220:80|220:80|180:56|120:60,2,160,6|8|2,0:0|0:0|0:0,0:0:0:0:
392,100,230109,1,2,0:0:0:0:
392,196,230283,2,0,L|388:284,1,80,8|0,0:0|0:0,0:0:0:0:
292,292,230630,2,0,L|196:288,2,80,2|2|8,0:0|0:0|0:0,0:0:0:0:
292,196,231150,6,0,B|296:80|296:80|264:120,1,160,2|0,0:0|0:0,0:0:0:0:
184,144,231670,1,8,0:0:0:0:
184,144,231757,1,8,0:0:0:0:
184,144,231843,1,8,0:0:0:0:
120,240,232017,6,0,L|112:332,1,88.000002685547,12|0,0:0|0:0,0:0:0:0:
220,324,232364,2,0,L|228:232,1,88.000002685547,12|0,0:0|0:0,0:0:0:0:
332,240,232710,2,0,L|324:332,1,88.000002685547,12|0,0:0|0:0,0:0:0:0:
432,324,233057,2,0,L|440:232,1,88.000002685547,12|0,0:0|0:0,0:0:0:0:
428,132,233404,6,0,P|336:104|256:128,1,176.000005371094,12|12,0:0|0:0,0:0:0:0:
184,196,233924,1,0,0:0:0:0:
80,224,234098,2,0,L|72:311,1,88.000002685547,12|0,0:0|0:0,0:0:0:0:
176,283,234445,2,0,L|183:195,1,88.000002685547,12|0,0:0|0:0,0:0:0:0:
276,248,234791,2,4,P|352:240|420:132,2,176.000005371094,12|12|12,0:0|0:0|0:0,0:0:0:0:
183,195,235658,1,0,0:0:0:0:
111,119,235831,1,12,0:0:0:0:
83,219,236005,1,0,0:0:0:0:
268,144,236179,6,0,B|300:136|300:136|340:132|340:132|384:124,1,88.000002685547,12|0,0:0|0:0,0:0:0:0:
197,104,236525,2,0,B|165:112|165:112|125:116|125:116|81:124,1,88.000002685547,12|0,0:0|0:0,0:0:0:0:
83,219,236872,2,0,B|87:251|87:251|99:279|99:279|107:311,1,88.000002685547,12|0,0:0|0:0,0:0:0:0:
220,300,237219,2,0,B|216:268|216:268|204:240|204:240|196:208,1,88.000002685547,12|0,0:0|0:0,0:0:0:0:
268,144,237566,6,0,P|340:116|400:208,1,176.000005371094,4|8,0:0|0:0,0:0:0:0:
401,179,238086,1,0,0:0:0:0:
392,287,238260,2,0,B|324:283|324:283|280:307|216:299,1,176.000005371094,0|8,0:0|0:0,0:0:0:0:
76,144,238953,6,0,L|172:136,1,88.000002685547
240,208,239300,2,0,L|327:200,1,88.000002685547,8|0,0:0|0:0,0:0:0:0:
432,196,239647,1,0,0:0:0:0:
432,196,239820,1,0,0:0:0:0:
432,196,239994,1,8,0:0:0:0:
244,100,240341,6,0,P|184:84|112:184,1,176.000005371094,0|8,0:0|0:0,0:0:0:0:
160,252,240861,1,0,0:0:0:0:
260,280,241034,2,0,L|356:288,1,88.000002685547
392,192,241381,2,0,L|296:184,1,88.000002685547,8|0,0:0|0:0,0:0:0:0:
200,164,241728,1,12,0:0:0:0:
200,164,241901,1,12,0:0:0:0:
432,320,242421,5,4,0:0:0:0:
432,320,242595,2,8,L|469:342,4,44.0000013427735,8|8|8|8|8,0:3|0:3|0:3|0:3|0:3,0:3:0:0:
256,192,243462,1,4,0:0:0:0:
256,192,243635,12,0,247017,0:0:0:0:
