osu file format v14

[General]
AudioFilename: audio.mp3
AudioLeadIn: 0
PreviewTime: 58295
Countdown: 1
SampleSet: Soft
StackLeniency: 0.7
Mode: 0
LetterboxInBreaks: 0
WidescreenStoryboard: 1

[Editor]
Bookmarks: 51236,57118
DistanceSpacing: 1
BeatDivisor: 4
GridSize: 32
TimelineZoom: 1

[Metadata]
Title:Sign (Tv Size)
TitleUnicode:Sign (Tv Size)
Artist:Uchida Aya
ArtistUnicode:Uchida Aya
Creator:Akane Hime
Version:Normal smug
Source:五等分の花嫁
Tags:
BeatmapID:2055155
BeatmapSetID:953959

[Difficulty]
HPDrainRate:6
CircleSize:3.8
OverallDifficulty:4
ApproachRate:3
SliderMultiplier:1.4
SliderTickRate:1

[Events]
//Background and Video events
0,0,"bg.jpg",0,0
//Break Periods
//Storyboard Layer 0 (Background)
//Storyboard Layer 1 (Fail)
//Storyboard Layer 2 (Pass)
//Storyboard Layer 3 (Foreground)
//Storyboard Sound Samples

[TimingPoints]
60,588.235294117647,4,2,0,60,1,0
20648,-50,4,2,0,60,0,0
21089,-100,4,2,0,60,0,0
21824,-100,4,2,0,60,0,0
58883,-100,4,2,0,60,0,1
67118,-66.6666666666667,4,2,0,60,0,1
68295,-100,4,2,0,60,0,1
73001,-100,4,2,0,60,0,0
74177,-133.333333333333,4,2,0,60,0,0
74765,-100,4,2,0,60,0,0

[Colours]
Combo1 : 255,71,51
Combo2 : 245,198,255
Combo3 : 239,88,134
Combo4 : 252,152,162
Combo5 : 245,104,56

[HitObjects]
51,50,60,6,0,P|117:33|206:35,1,140
327,48,1236,2,0,P|392:75|434:131,1,140
466,264,2412,6,0,P|392:272|328:246,1,140
251,129,3589,2,0,P|202:154|140:215,1,140
143,282,4471,1,0,0:0:0:0:
76,301,4765,6,0,P|49:254|59:157,1,140
137,58,5942,2,0,P|187:112|195:193,1,140
70,233,7118,6,0,P|120:294|196:309,1,140
314,282,8295,2,0,P|366:250|397:168,1,140
445,129,9177,1,0,0:0:0:0:
409,68,9471,6,0,P|352:33|266:47,1,140
150,89,10648,2,0,P|195:139|275:170,1,140
347,57,11824,6,0,P|389:97|403:178,1,140
275,117,13001,2,0,P|285:177|311:272,1,140
355,301,13883,1,0,0:0:0:0:
290,328,14177,6,0,P|190:339|152:316,1,140
97,195,15354,2,0,P|76:123|115:57,1,140
240,39,16530,6,0,P|206:92|234:179,1,140
350,111,17707,2,0,P|371:177|348:247,1,140
287,272,18589,1,0,0:0:0:0:
218,257,18883,6,0,B|57:122|57:122|220:105,1,350
336,108,20648,2,0,L|395:163,2,70
284,60,21236,6,0,P|209:23|135:42,1,140
66,138,22412,1,0,0:0:0:0:
205,121,23001,1,0,0:0:0:0:
110,223,23589,6,0,P|77:293|141:325,1,140
226,239,24765,2,0,P|248:197|168:127,1,140
61,112,25942,1,0,0:0:0:0:
184,45,26530,1,0,0:0:0:0:
323,31,27118,6,0,P|390:50|419:134,1,140
437,248,28295,1,0,0:0:0:0:
310,308,28883,1,0,0:0:0:0:
183,248,29471,1,0,0:0:0:0:
202,73,30059,2,0,P|146:49|42:53,1,140
32,107,30942,1,0,0:0:0:0:
133,170,31236,6,0,B|212:166|196:236|275:232,1,140
392,250,32412,1,0,0:0:0:0:
485,145,33001,6,0,P|470:94|390:32,1,140
359,169,34177,2,0,P|313:176|201:149,1,140
87,198,35354,6,0,P|50:138|51:57,1,140
183,103,36530,2,0,P|219:161|222:230,1,140
101,302,37707,5,0,0:0:0:0:
237,334,38295,1,0,0:0:0:0:
321,222,38883,1,0,0:0:0:0:
394,126,40059,6,0,P|422:171|421:268,1,140
303,325,41236,2,0,L|158:325,1,140
277,245,42412,6,0,P|284:199|271:87,1,140
224,45,43589,2,0,L|78:45,1,140
70,113,44471,1,0,0:0:0:0:
83,183,44765,6,0,P|135:234|153:304,1,140
210,169,45942,2,0,P|292:190|313:256,1,140
173,237,47118,6,0,L|256:357,1,140
392,351,48295,1,0,0:0:0:0:
497,259,48883,1,0,0:0:0:0:
446,128,49471,6,0,P|398:157|356:237,1,140
437,343,50648,2,0,P|350:380|298:351,1,140
263,233,51824,6,0,P|221:252|156:323,1,140
24,362,53001,2,0,L|24:268,1,70
24,222,53589,2,0,L|23:123,1,70
37,83,54177,6,0,P|131:25|304:60,1,280
431,47,55942,1,0,0:0:0:0:
488,87,56236,1,0,0:0:0:0:
463,152,56530,2,0,P|446:227|405:278,2,140
483,13,58295,5,0,0:0:0:0:
413,13,58589,1,0,0:0:0:0:
343,15,58883,2,0,P|249:18|184:38,1,140
98,120,60059,2,0,P|95:214|134:278,1,140
243,306,61236,6,0,P|266:244|264:214,1,70
255,171,61824,1,0,0:0:0:0:
349,68,62412,6,0,P|371:108|371:155,1,70
370,201,63001,1,0,0:0:0:0:
381,340,63589,6,0,P|468:307|505:253,1,140
506,132,64765,2,0,P|496:64|421:31,1,140
307,81,65942,6,0,P|271:109|224:118,1,70
204,61,66530,2,0,P|165:97|160:129,1,70
156,216,67118,2,0,P|190:264|336:308,1,210.000008010865
420,257,68001,1,0,0:0:0:0:
474,212,68295,6,0,P|494:150|464:75,1,140
340,28,69471,2,0,P|327:83|316:108,1,70
266,137,70059,2,0,P|240:101|212:50,1,70
167,41,70648,6,0,P|103:33|21:44,1,140
7,108,71530,2,0,B|9:215|9:215|99:279,1,210
46,339,73001,6,0,P|86:355|187:345,1,140
115,265,74177,2,0,P|208:243|229:257,1,105.000004005432
311,340,75354,6,0,P|340:274|329:196,1,140
305,143,76236,1,0,0:0:0:0:
140,146,77707,6,0,P|158:71|216:40,1,140
348,34,78883,2,0,B|442:48|462:132,1,140
440,250,80059,6,0,P|402:214|301:211,1,140
340,342,81236,2,0,P|230:280|223:251,1,140
224,206,82118,1,0,0:0:0:0:
225,136,82412,6,0,P|286:89|373:107,1,140
403,219,83589,2,0,L|259:219,1,140
147,298,84765,6,0,P|93:344|60:300,1,140
59,161,85942,2,0,L|59:22,1,140
128,22,86824,1,0,0:0:0:0:
256,192,87118,12,0,88295,0:0:0:0:
