osu file format v14

[General]
AudioFilename: audio.mp3
AudioLeadIn: 0
PreviewTime: 103475
Countdown: 0
SampleSet: Soft
StackLeniency: 0.7
Mode: 3
LetterboxInBreaks: 0
SpecialStyle: 0
WidescreenStoryboard: 0

[Editor]
DistanceSpacing: 0.8
BeatDivisor: 4
GridSize: 32
TimelineZoom: 1.9

[Metadata]
Title:DEEP BLUE SONG
TitleUnicode:DEEP BLUE SONG
Artist:Uchida Aya
ArtistUnicode:内田彩
Creator:agss569
Version:Hard
Source:
Tags:iMarine Project
BeatmapID:2866810
BeatmapSetID:1388119

[Difficulty]
HPDrainRate:7
CircleSize:4
OverallDifficulty:7.5
ApproachRate:5
SliderMultiplier:1.4
SliderTickRate:1

[Events]
//Background and Video events
0,0,"BG.png",0,0
//Break Periods
//Storyboard Layer 0 (Background)
//Storyboard Layer 1 (Fail)
//Storyboard Layer 2 (Pass)
//Storyboard Layer 3 (Foreground)
//Storyboard Layer 4 (Overlay)
//Storyboard Sound Samples

[TimingPoints]
798,320.855614973262,4,2,1,60,1,0
103471,-100,4,2,1,60,0,1
117914,-10000,4,2,1,60,0,1
117994,-38.4615384615385,4,2,1,60,0,1
118074,-10000,4,2,1,60,0,1
118315,-38.4615384615385,4,2,1,60,0,1
118395,-10000,4,2,1,60,0,1
118636,-38.4615384615385,4,2,1,60,0,1
118716,-100,4,2,1,60,0,1
122723,-100,4,2,1,60,0,0
168926,-100,4,2,1,60,0,1
183368,-10000,4,2,1,60,0,1
183449,-38.4615384615385,4,2,1,60,0,1
183529,-10000,4,2,1,60,0,1
183770,-38.4615384615385,4,2,1,60,0,1
183850,-10000,4,2,1,60,0,1
184090,-38.4615384615385,4,2,1,60,0,1
184171,-100,4,2,1,60,0,1
203903,-1000,4,2,1,60,0,1
203983,-38.4615384615385,4,2,1,60,0,1
204064,-1000,4,2,1,60,0,1
204304,-38.4615384615385,4,2,1,60,0,1
204385,-1000,4,2,1,60,0,1
204625,-38.4615384615385,4,2,1,60,0,1
204705,-100,4,2,1,60,0,1
208552,-100,4,2,1,60,0,0

[HitObjects]
448,192,637,5,0,0:0:0:0:
320,192,717,1,0,0:0:0:0:
192,192,798,1,0,0:0:0:0:
64,192,798,1,0,0:0:0:0:
320,192,958,1,0,0:0:0:0:
448,192,1118,1,0,0:0:0:0:
320,192,1279,1,0,0:0:0:0:
64,192,1600,1,0,0:0:0:0:
320,192,1920,1,0,0:0:0:0:
192,192,2081,1,0,0:0:0:0:
320,192,2241,1,0,0:0:0:0:
192,192,2402,1,0,0:0:0:0:
64,192,2562,1,0,0:0:0:0:
448,192,2883,1,0,0:0:0:0:
64,192,3204,1,0,0:0:0:0:
448,192,3364,1,0,0:0:0:0:
192,192,3364,1,0,0:0:0:0:
320,192,3525,1,0,0:0:0:0:
192,192,3685,1,0,0:0:0:0:
448,192,3846,1,0,0:0:0:0:
64,192,4166,1,0,0:0:0:0:
320,192,4487,1,0,0:0:0:0:
64,192,4648,1,0,0:0:0:0:
64,192,4808,1,0,0:0:0:0:
192,192,4969,1,0,0:0:0:0:
192,192,5129,1,0,0:0:0:0:
320,192,5289,1,0,0:0:0:0:
320,192,5450,1,0,0:0:0:0:
448,192,5610,1,0,0:0:0:0:
448,192,5771,1,0,0:0:0:0:
64,192,5931,1,0,0:0:0:0:
192,192,5931,1,0,0:0:0:0:
320,192,6092,1,0,0:0:0:0:
192,192,6252,1,0,0:0:0:0:
320,192,6412,1,0,0:0:0:0:
64,192,6733,1,0,0:0:0:0:
320,192,7054,1,0,0:0:0:0:
192,192,7215,1,0,0:0:0:0:
320,192,7375,1,0,0:0:0:0:
192,192,7535,1,0,0:0:0:0:
64,192,7696,1,0,0:0:0:0:
448,192,8017,1,0,0:0:0:0:
192,192,8338,1,0,0:0:0:0:
320,192,8498,1,0,0:0:0:0:
64,192,8498,1,0,0:0:0:0:
448,192,8658,1,0,0:0:0:0:
320,192,8739,1,0,0:0:0:0:
192,192,8819,1,0,0:0:0:0:
64,192,8979,1,0,0:0:0:0:
448,192,9300,1,0,0:0:0:0:
320,192,9461,1,0,0:0:0:0:
320,192,9621,1,0,0:0:0:0:
192,192,9781,1,0,0:0:0:0:
192,192,9942,1,0,0:0:0:0:
64,192,10102,1,0,0:0:0:0:
64,192,10263,1,0,0:0:0:0:
320,192,10584,1,0,0:0:0:0:
192,192,10744,1,0,0:0:0:0:
448,192,11065,128,0,11867:0:0:0:0:
64,192,11065,128,0,11867:0:0:0:0:
192,192,11867,128,0,12027:0:0:0:0:
320,192,12027,128,0,12188:0:0:0:0:
64,192,12188,128,0,12348:0:0:0:0:
192,192,12348,128,0,12830:0:0:0:0:
320,192,12830,128,0,13311:0:0:0:0:
448,192,13311,128,0,13632:0:0:0:0:
320,192,13632,128,0,14113:0:0:0:0:
192,192,14113,128,0,14594:0:0:0:0:
64,192,14594,128,0,14915:0:0:0:0:
192,192,14915,128,0,15557:0:0:0:0:
320,192,14915,128,0,15557:0:0:0:0:
64,192,15557,128,0,16199:0:0:0:0:
448,192,15557,128,0,16199:0:0:0:0:
320,192,16199,128,0,16680:0:0:0:0:
192,192,16680,128,0,17161:0:0:0:0:
320,192,17161,128,0,17482:0:0:0:0:
448,192,17482,128,0,17803:0:0:0:0:
320,192,17803,128,0,18124:0:0:0:0:
192,192,18124,128,0,18445:0:0:0:0:
64,192,18445,128,0,18765:0:0:0:0:
448,192,18765,128,0,21172:0:0:0:0:
192,192,19086,1,0,0:0:0:0:
64,192,19247,1,0,0:0:0:0:
192,192,19568,1,0,0:0:0:0:
320,192,19728,1,0,0:0:0:0:
192,192,19888,1,0,0:0:0:0:
64,192,20049,1,0,0:0:0:0:
192,192,20209,1,0,0:0:0:0:
320,192,20370,1,0,0:0:0:0:
192,192,20530,1,0,0:0:0:0:
64,192,20691,1,0,0:0:0:0:
192,192,20851,1,0,0:0:0:0:
320,192,21011,1,0,0:0:0:0:
64,192,21172,1,0,0:0:0:0:
192,192,21212,1,0,0:0:0:0:
320,192,21252,1,0,0:0:0:0:
192,192,21493,1,0,0:0:0:0:
320,192,21814,1,0,0:0:0:0:
448,192,22134,1,0,0:0:0:0:
64,192,22295,1,0,0:0:0:0:
192,192,22616,128,0,23097:0:0:0:0:
320,192,23097,1,0,0:0:0:0:
320,192,23418,1,0,0:0:0:0:
192,192,23578,1,0,0:0:0:0:
64,192,23739,1,0,0:0:0:0:
448,192,23899,1,0,0:0:0:0:
320,192,24060,1,0,0:0:0:0:
192,192,24220,1,0,0:0:0:0:
320,192,24380,1,0,0:0:0:0:
64,192,24380,1,0,0:0:0:0:
320,192,24701,1,0,0:0:0:0:
448,192,24862,1,0,0:0:0:0:
192,192,24862,1,0,0:0:0:0:
448,192,25183,1,0,0:0:0:0:
320,192,25343,1,0,0:0:0:0:
192,192,25503,1,0,0:0:0:0:
64,192,25664,1,0,0:0:0:0:
448,192,25664,1,0,0:0:0:0:
448,192,25985,1,0,0:0:0:0:
192,192,26145,1,0,0:0:0:0:
64,192,26306,1,0,0:0:0:0:
192,192,26466,1,0,0:0:0:0:
320,192,26626,1,0,0:0:0:0:
192,192,26787,1,0,0:0:0:0:
448,192,26947,1,0,0:0:0:0:
64,192,26947,1,0,0:0:0:0:
192,192,27268,1,0,0:0:0:0:
320,192,27429,1,0,0:0:0:0:
320,192,27749,1,0,0:0:0:0:
192,192,27910,1,0,0:0:0:0:
320,192,28070,1,0,0:0:0:0:
64,192,28231,1,0,0:0:0:0:
448,192,28231,1,0,0:0:0:0:
320,192,28552,1,0,0:0:0:0:
192,192,28712,1,0,0:0:0:0:
64,192,29033,1,0,0:0:0:0:
320,192,29033,1,0,0:0:0:0:
192,192,29193,1,0,0:0:0:0:
320,192,29354,1,0,0:0:0:0:
448,192,29514,1,0,0:0:0:0:
64,192,29675,1,0,0:0:0:0:
320,192,29835,1,0,0:0:0:0:
192,192,29995,1,0,0:0:0:0:
448,192,29995,1,0,0:0:0:0:
192,192,30637,1,0,0:0:0:0:
64,192,30797,1,0,0:0:0:0:
320,192,30797,1,0,0:0:0:0:
448,192,31118,1,0,0:0:0:0:
64,192,31600,1,0,0:0:0:0:
448,192,31600,1,0,0:0:0:0:
192,192,31760,1,0,0:0:0:0:
448,192,31920,1,0,0:0:0:0:
320,192,32081,1,0,0:0:0:0:
64,192,32081,1,0,0:0:0:0:
448,192,32402,1,0,0:0:0:0:
64,192,32562,1,0,0:0:0:0:
320,192,32723,1,0,0:0:0:0:
192,192,32883,1,0,0:0:0:0:
320,192,32883,1,0,0:0:0:0:
448,192,33043,1,0,0:0:0:0:
64,192,33204,1,0,0:0:0:0:
192,192,33364,1,0,0:0:0:0:
320,192,33364,1,0,0:0:0:0:
64,192,33685,1,0,0:0:0:0:
448,192,33846,1,0,0:0:0:0:
64,192,34166,1,0,0:0:0:0:
320,192,34166,1,0,0:0:0:0:
448,192,34327,1,0,0:0:0:0:
320,192,34487,1,0,0:0:0:0:
192,192,34648,1,0,0:0:0:0:
64,192,34969,1,0,0:0:0:0:
320,192,35129,1,0,0:0:0:0:
192,192,35289,1,0,0:0:0:0:
320,192,35450,1,0,0:0:0:0:
64,192,35450,1,0,0:0:0:0:
320,192,35931,1,0,0:0:0:0:
64,192,35931,1,0,0:0:0:0:
192,192,36573,1,0,0:0:0:0:
448,192,36573,1,0,0:0:0:0:
64,192,36733,1,0,0:0:0:0:
192,192,36894,1,0,0:0:0:0:
64,192,37054,1,0,0:0:0:0:
448,192,37215,1,0,0:0:0:0:
192,192,37215,1,0,0:0:0:0:
448,192,37535,1,0,0:0:0:0:
320,192,37696,1,0,0:0:0:0:
64,192,37856,1,0,0:0:0:0:
192,192,37856,1,0,0:0:0:0:
64,192,38177,1,0,0:0:0:0:
192,192,38338,1,0,0:0:0:0:
320,192,38498,1,0,0:0:0:0:
448,192,38498,1,0,0:0:0:0:
192,192,38819,1,0,0:0:0:0:
320,192,38979,1,0,0:0:0:0:
448,192,39300,128,0,39942:0:0:0:0:
64,192,39300,128,0,39942:0:0:0:0:
192,192,40423,1,0,0:0:0:0:
320,192,40503,1,0,0:0:0:0:
448,192,40584,1,0,0:0:0:0:
64,192,40744,1,0,0:0:0:0:
192,192,40904,1,0,0:0:0:0:
320,192,41065,1,0,0:0:0:0:
448,192,41065,1,0,0:0:0:0:
192,192,41386,1,0,0:0:0:0:
64,192,41386,1,0,0:0:0:0:
448,192,41707,128,0,43632:0:0:0:0:
320,192,41707,1,0,0:0:0:0:
64,192,43712,1,0,0:0:0:0:
192,192,43792,1,0,0:0:0:0:
320,192,43872,1,0,0:0:0:0:
448,192,43953,1,0,0:0:0:0:
64,192,44033,1,0,0:0:0:0:
192,192,44113,1,0,0:0:0:0:
320,192,44193,1,0,0:0:0:0:
448,192,44273,1,0,0:0:0:0:
64,192,44434,1,0,0:0:0:0:
320,192,44434,1,0,0:0:0:0:
192,192,44594,1,0,0:0:0:0:
320,192,44755,1,0,0:0:0:0:
64,192,44915,128,0,45236:0:0:0:0:
448,192,45236,128,0,45557:0:0:0:0:
64,192,45557,1,0,0:0:0:0:
192,192,45878,1,0,0:0:0:0:
448,192,46038,1,0,0:0:0:0:
192,192,46199,1,0,0:0:0:0:
64,192,46359,1,0,0:0:0:0:
320,192,46519,1,0,0:0:0:0:
448,192,46680,1,0,0:0:0:0:
192,192,46840,1,0,0:0:0:0:
64,192,47001,1,0,0:0:0:0:
320,192,47001,1,0,0:0:0:0:
192,192,47161,1,0,0:0:0:0:
448,192,47322,1,0,0:0:0:0:
320,192,47482,1,0,0:0:0:0:
320,192,47803,1,0,0:0:0:0:
192,192,47963,1,0,0:0:0:0:
64,192,48124,1,0,0:0:0:0:
448,192,48124,1,0,0:0:0:0:
192,192,48445,1,0,0:0:0:0:
320,192,48605,1,0,0:0:0:0:
64,192,48765,128,0,49568:0:0:0:0:
448,192,48765,128,0,49568:0:0:0:0:
320,192,49568,1,0,0:0:0:0:
192,192,49728,1,0,0:0:0:0:
64,192,49888,1,0,0:0:0:0:
320,192,50049,128,0,50691:0:0:0:0:
64,192,50370,1,0,0:0:0:0:
64,192,50530,1,0,0:0:0:0:
192,192,50691,128,0,51011:0:0:0:0:
448,192,51011,128,0,51172:0:0:0:0:
320,192,51172,128,0,51332:0:0:0:0:
448,192,51332,128,0,51653:0:0:0:0:
192,192,51653,1,0,0:0:0:0:
64,192,51814,1,0,0:0:0:0:
448,192,52134,1,0,0:0:0:0:
448,192,52295,1,0,0:0:0:0:
192,192,52455,1,0,0:0:0:0:
448,192,52616,1,0,0:0:0:0:
448,192,52776,1,0,0:0:0:0:
64,192,52937,1,0,0:0:0:0:
448,192,53097,1,0,0:0:0:0:
448,192,53257,1,0,0:0:0:0:
192,192,53418,1,0,0:0:0:0:
448,192,53578,1,0,0:0:0:0:
448,192,53739,1,0,0:0:0:0:
320,192,53899,1,0,0:0:0:0:
64,192,53899,1,0,0:0:0:0:
192,192,54060,1,0,0:0:0:0:
320,192,54140,1,0,0:0:0:0:
192,192,54220,1,0,0:0:0:0:
320,192,54300,1,0,0:0:0:0:
192,192,54380,1,0,0:0:0:0:
320,192,54461,1,0,0:0:0:0:
192,192,54541,1,0,0:0:0:0:
64,192,54701,1,0,0:0:0:0:
320,192,54701,1,0,0:0:0:0:
448,192,54862,1,0,0:0:0:0:
192,192,55022,1,0,0:0:0:0:
320,192,55183,1,0,0:0:0:0:
448,192,55503,1,0,0:0:0:0:
192,192,55824,1,0,0:0:0:0:
64,192,55824,1,0,0:0:0:0:
192,192,56145,1,0,0:0:0:0:
320,192,56306,1,0,0:0:0:0:
448,192,56466,1,0,0:0:0:0:
64,192,56626,1,0,0:0:0:0:
320,192,56787,1,0,0:0:0:0:
192,192,56947,1,0,0:0:0:0:
448,192,57108,1,0,0:0:0:0:
320,192,57268,1,0,0:0:0:0:
192,192,57268,1,0,0:0:0:0:
64,192,57429,1,0,0:0:0:0:
192,192,57589,1,0,0:0:0:0:
320,192,57749,1,0,0:0:0:0:
448,192,58070,1,0,0:0:0:0:
320,192,58231,1,0,0:0:0:0:
192,192,58391,1,0,0:0:0:0:
64,192,58391,1,0,0:0:0:0:
192,192,58712,1,0,0:0:0:0:
320,192,58872,1,0,0:0:0:0:
64,192,59033,128,0,59675:0:0:0:0:
448,192,59033,128,0,59675:0:0:0:0:
192,192,59835,1,0,0:0:0:0:
320,192,59835,1,0,0:0:0:0:
64,192,59995,1,0,0:0:0:0:
192,192,60156,1,0,0:0:0:0:
320,192,60316,1,0,0:0:0:0:
448,192,60637,1,0,0:0:0:0:
320,192,60797,1,0,0:0:0:0:
448,192,60958,1,0,0:0:0:0:
64,192,60958,1,0,0:0:0:0:
320,192,61279,1,0,0:0:0:0:
448,192,61439,1,0,0:0:0:0:
192,192,61600,1,0,0:0:0:0:
64,192,61760,1,0,0:0:0:0:
320,192,61760,1,0,0:0:0:0:
192,192,61920,1,0,0:0:0:0:
320,192,62081,1,0,0:0:0:0:
448,192,62402,1,0,0:0:0:0:
320,192,62562,1,0,0:0:0:0:
448,192,62723,1,0,0:0:0:0:
192,192,62883,1,0,0:0:0:0:
64,192,63043,1,0,0:0:0:0:
192,192,63204,1,0,0:0:0:0:
320,192,63364,1,0,0:0:0:0:
448,192,63525,1,0,0:0:0:0:
320,192,63685,1,0,0:0:0:0:
192,192,63846,1,0,0:0:0:0:
64,192,64006,1,0,0:0:0:0:
192,192,64166,1,0,0:0:0:0:
320,192,64327,1,0,0:0:0:0:
448,192,64487,1,0,0:0:0:0:
64,192,64487,1,0,0:0:0:0:
192,192,64969,1,0,0:0:0:0:
448,192,64969,128,0,65610:0:0:0:0:
64,192,65450,1,0,0:0:0:0:
64,192,65610,1,0,0:0:0:0:
320,192,65610,1,0,0:0:0:0:
192,192,66092,128,0,66733:0:0:0:0:
64,192,66092,1,0,0:0:0:0:
448,192,66733,1,0,0:0:0:0:
320,192,67054,1,0,0:0:0:0:
64,192,67054,1,0,0:0:0:0:
64,192,67535,128,0,68177:0:0:0:0:
448,192,67535,1,0,0:0:0:0:
192,192,67856,1,0,0:0:0:0:
320,192,68017,1,0,0:0:0:0:
192,192,68177,1,0,0:0:0:0:
320,192,68338,1,0,0:0:0:0:
448,192,68498,1,0,0:0:0:0:
320,192,68658,1,0,0:0:0:0:
64,192,68658,1,0,0:0:0:0:
192,192,69140,1,0,0:0:0:0:
320,192,69300,1,0,0:0:0:0:
448,192,69461,1,0,0:0:0:0:
320,192,69621,1,0,0:0:0:0:
448,192,69781,1,0,0:0:0:0:
320,192,69942,1,0,0:0:0:0:
448,192,70102,1,0,0:0:0:0:
64,192,70102,1,0,0:0:0:0:
192,192,70584,1,0,0:0:0:0:
64,192,70584,128,0,71225:0:0:0:0:
448,192,71225,1,0,0:0:0:0:
320,192,71225,128,0,71867:0:0:0:0:
192,192,71867,1,0,0:0:0:0:
192,192,72188,1,0,0:0:0:0:
448,192,72188,1,0,0:0:0:0:
448,192,72669,128,0,73150:0:0:0:0:
64,192,72669,1,0,0:0:0:0:
192,192,73150,128,0,73792:0:0:0:0:
320,192,73792,1,0,0:0:0:0:
64,192,74273,1,0,0:0:0:0:
448,192,74354,1,0,0:0:0:0:
64,192,74434,1,0,0:0:0:0:
320,192,74514,1,0,0:0:0:0:
192,192,74594,1,0,0:0:0:0:
192,192,74755,1,0,0:0:0:0:
320,192,74915,1,0,0:0:0:0:
320,192,75076,1,0,0:0:0:0:
64,192,75236,128,0,75878:0:0:0:0:
448,192,75236,128,0,75878:0:0:0:0:
320,192,75878,1,0,0:0:0:0:
64,192,76359,1,0,0:0:0:0:
192,192,76359,1,0,0:0:0:0:
192,192,76680,1,0,0:0:0:0:
320,192,76680,1,0,0:0:0:0:
320,192,77001,1,0,0:0:0:0:
448,192,77001,1,0,0:0:0:0:
448,192,77161,1,0,0:0:0:0:
448,192,77322,1,0,0:0:0:0:
192,192,77803,128,0,78445:0:0:0:0:
320,192,77803,128,0,78445:0:0:0:0:
64,192,78445,1,0,0:0:0:0:
64,192,78926,128,0,79247:0:0:0:0:
320,192,78926,1,0,0:0:0:0:
320,192,79247,1,0,0:0:0:0:
448,192,79568,1,0,0:0:0:0:
320,192,79728,1,0,0:0:0:0:
64,192,79728,1,0,0:0:0:0:
192,192,79888,1,0,0:0:0:0:
64,192,80049,1,0,0:0:0:0:
320,192,80049,1,0,0:0:0:0:
192,192,80370,128,0,81011:0:0:0:0:
448,192,80370,1,0,0:0:0:0:
320,192,80851,1,0,0:0:0:0:
320,192,81011,1,0,0:0:0:0:
192,192,81493,1,0,0:0:0:0:
448,192,81493,1,0,0:0:0:0:
320,192,81814,1,0,0:0:0:0:
64,192,81814,1,0,0:0:0:0:
448,192,82134,1,0,0:0:0:0:
64,192,82215,1,0,0:0:0:0:
448,192,82295,1,0,0:0:0:0:
320,192,82455,1,0,0:0:0:0:
192,192,82616,1,0,0:0:0:0:
448,192,82776,1,0,0:0:0:0:
320,192,82937,1,0,0:0:0:0:
64,192,82937,1,0,0:0:0:0:
192,192,83097,1,0,0:0:0:0:
192,192,83257,1,0,0:0:0:0:
320,192,83418,1,0,0:0:0:0:
448,192,83739,1,0,0:0:0:0:
320,192,83899,1,0,0:0:0:0:
192,192,84060,1,0,0:0:0:0:
64,192,84220,1,0,0:0:0:0:
320,192,84220,1,0,0:0:0:0:
192,192,84380,1,0,0:0:0:0:
320,192,84541,1,0,0:0:0:0:
448,192,84701,1,0,0:0:0:0:
192,192,84701,1,0,0:0:0:0:
64,192,85022,1,0,0:0:0:0:
320,192,85102,1,0,0:0:0:0:
192,192,85183,1,0,0:0:0:0:
448,192,85263,1,0,0:0:0:0:
192,192,85343,1,0,0:0:0:0:
320,192,85423,1,0,0:0:0:0:
64,192,85503,1,0,0:0:0:0:
448,192,85503,1,0,0:0:0:0:
192,192,85824,1,0,0:0:0:0:
64,192,85985,1,0,0:0:0:0:
320,192,85985,1,0,0:0:0:0:
320,192,86306,1,0,0:0:0:0:
192,192,86466,1,0,0:0:0:0:
448,192,86466,1,0,0:0:0:0:
192,192,86947,1,0,0:0:0:0:
64,192,87108,1,0,0:0:0:0:
320,192,87188,1,0,0:0:0:0:
64,192,87268,1,0,0:0:0:0:
320,192,87348,1,0,0:0:0:0:
64,192,87429,1,0,0:0:0:0:
320,192,87509,1,0,0:0:0:0:
192,192,87589,1,0,0:0:0:0:
448,192,87669,1,0,0:0:0:0:
192,192,87749,1,0,0:0:0:0:
448,192,87830,1,0,0:0:0:0:
192,192,87910,1,0,0:0:0:0:
448,192,87990,1,0,0:0:0:0:
320,192,88070,1,0,0:0:0:0:
64,192,88070,1,0,0:0:0:0:
64,192,88391,1,0,0:0:0:0:
192,192,88552,1,0,0:0:0:0:
448,192,88552,1,0,0:0:0:0:
448,192,88872,1,0,0:0:0:0:
64,192,89033,1,0,0:0:0:0:
320,192,89033,1,0,0:0:0:0:
192,192,89514,1,0,0:0:0:0:
448,192,89835,1,0,0:0:0:0:
64,192,89915,1,0,0:0:0:0:
448,192,89995,1,0,0:0:0:0:
64,192,90076,1,0,0:0:0:0:
448,192,90156,1,0,0:0:0:0:
64,192,90236,1,0,0:0:0:0:
448,192,90316,1,0,0:0:0:0:
320,192,90637,1,0,0:0:0:0:
192,192,90637,128,0,91279:0:0:0:0:
448,192,91118,1,0,0:0:0:0:
448,192,91279,1,0,0:0:0:0:
320,192,91760,1,0,0:0:0:0:
320,192,91920,1,0,0:0:0:0:
192,192,92241,1,0,0:0:0:0:
320,192,92322,1,0,0:0:0:0:
192,192,92402,1,0,0:0:0:0:
320,192,92482,1,0,0:0:0:0:
192,192,92562,1,0,0:0:0:0:
64,192,92723,1,0,0:0:0:0:
64,192,92883,1,0,0:0:0:0:
64,192,93204,1,0,0:0:0:0:
320,192,93204,1,0,0:0:0:0:
320,192,93525,1,0,0:0:0:0:
448,192,93685,1,0,0:0:0:0:
192,192,93685,1,0,0:0:0:0:
448,192,94006,1,0,0:0:0:0:
64,192,94006,1,0,0:0:0:0:
320,192,94166,1,0,0:0:0:0:
448,192,94327,1,0,0:0:0:0:
192,192,94327,1,0,0:0:0:0:
320,192,94487,1,0,0:0:0:0:
448,192,94648,1,0,0:0:0:0:
64,192,94648,1,0,0:0:0:0:
320,192,94808,1,0,0:0:0:0:
448,192,94969,1,0,0:0:0:0:
192,192,94969,1,0,0:0:0:0:
320,192,95129,1,0,0:0:0:0:
448,192,95289,1,0,0:0:0:0:
64,192,95289,1,0,0:0:0:0:
320,192,95450,1,0,0:0:0:0:
192,192,95771,1,0,0:0:0:0:
448,192,95771,1,0,0:0:0:0:
192,192,96092,1,0,0:0:0:0:
64,192,96252,1,0,0:0:0:0:
320,192,96252,1,0,0:0:0:0:
64,192,96573,1,0,0:0:0:0:
448,192,96573,1,0,0:0:0:0:
192,192,96733,1,0,0:0:0:0:
64,192,96894,1,0,0:0:0:0:
320,192,96894,1,0,0:0:0:0:
192,192,97054,1,0,0:0:0:0:
64,192,97215,1,0,0:0:0:0:
448,192,97215,1,0,0:0:0:0:
192,192,97375,1,0,0:0:0:0:
64,192,97535,1,0,0:0:0:0:
320,192,97535,1,0,0:0:0:0:
192,192,97696,1,0,0:0:0:0:
320,192,97776,1,0,0:0:0:0:
64,192,97856,1,0,0:0:0:0:
448,192,97937,1,0,0:0:0:0:
192,192,98017,1,0,0:0:0:0:
320,192,98097,1,0,0:0:0:0:
64,192,98177,128,0,100102:0:0:0:0:
448,192,98338,1,0,0:0:0:0:
320,192,98338,1,0,0:0:0:0:
320,192,98658,1,0,0:0:0:0:
192,192,98658,1,0,0:0:0:0:
320,192,98979,1,0,0:0:0:0:
448,192,98979,1,0,0:0:0:0:
320,192,99300,1,0,0:0:0:0:
192,192,99300,1,0,0:0:0:0:
320,192,99701,1,0,0:0:0:0:
448,192,99701,1,0,0:0:0:0:
192,192,99942,1,0,0:0:0:0:
320,192,99942,1,0,0:0:0:0:
320,192,100263,1,0,0:0:0:0:
448,192,100343,1,0,0:0:0:0:
192,192,100423,1,0,0:0:0:0:
64,192,100503,1,0,0:0:0:0:
448,192,100584,1,0,0:0:0:0:
320,192,100664,1,0,0:0:0:0:
64,192,100744,1,0,0:0:0:0:
192,192,100824,1,0,0:0:0:0:
320,192,100904,1,0,0:0:0:0:
448,192,100904,1,0,0:0:0:0:
320,192,101225,1,0,0:0:0:0:
64,192,101386,1,0,0:0:0:0:
320,192,101386,1,0,0:0:0:0:
192,192,101867,1,0,0:0:0:0:
192,192,102027,1,0,0:0:0:0:
448,192,102027,1,0,0:0:0:0:
320,192,103471,1,0,0:0:0:0:
64,192,103471,128,0,103792:0:0:0:0:
320,192,103792,1,0,0:0:0:0:
192,192,104113,1,0,0:0:0:0:
448,192,104113,128,0,104434:0:0:0:0:
192,192,104434,1,0,0:0:0:0:
320,192,104755,1,0,0:0:0:0:
64,192,105076,1,0,0:0:0:0:
192,192,105236,1,0,0:0:0:0:
320,192,105236,1,0,0:0:0:0:
192,192,105557,1,0,0:0:0:0:
320,192,105557,1,0,0:0:0:0:
448,192,105878,128,0,108445:0:0:0:0:
320,192,105878,128,0,108445:0:0:0:0:
192,192,106038,1,0,0:0:0:0:
64,192,106359,1,0,0:0:0:0:
192,192,106680,1,0,0:0:0:0:
64,192,107001,1,0,0:0:0:0:
192,192,107322,1,0,0:0:0:0:
64,192,107642,1,0,0:0:0:0:
192,192,107963,1,0,0:0:0:0:
64,192,108284,1,0,0:0:0:0:
64,192,108445,1,0,0:0:0:0:
192,192,108605,1,0,0:0:0:0:
320,192,108765,1,0,0:0:0:0:
64,192,108926,1,0,0:0:0:0:
448,192,108926,1,0,0:0:0:0:
64,192,109247,1,0,0:0:0:0:
448,192,109247,128,0,109568:0:0:0:0:
192,192,109568,128,0,109888:0:0:0:0:
320,192,109888,1,0,0:0:0:0:
64,192,110209,1,0,0:0:0:0:
192,192,110370,1,0,0:0:0:0:
448,192,110370,1,0,0:0:0:0:
320,192,110530,1,0,0:0:0:0:
192,192,110610,1,0,0:0:0:0:
64,192,110691,1,0,0:0:0:0:
192,192,110771,1,0,0:0:0:0:
320,192,110851,1,0,0:0:0:0:
448,192,110851,1,0,0:0:0:0:
192,192,111011,1,0,0:0:0:0:
64,192,111172,1,0,0:0:0:0:
192,192,111172,1,0,0:0:0:0:
64,192,111493,1,0,0:0:0:0:
192,192,111493,1,0,0:0:0:0:
320,192,111573,1,0,0:0:0:0:
448,192,111653,1,0,0:0:0:0:
320,192,111733,1,0,0:0:0:0:
192,192,111814,1,0,0:0:0:0:
448,192,111974,1,0,0:0:0:0:
320,192,111974,128,0,112295:0:0:0:0:
192,192,112295,128,0,112776:0:0:0:0:
448,192,112776,1,0,0:0:0:0:
320,192,112937,1,0,0:0:0:0:
448,192,112937,1,0,0:0:0:0:
320,192,113257,1,0,0:0:0:0:
448,192,113257,1,0,0:0:0:0:
192,192,113338,1,0,0:0:0:0:
320,192,113418,1,0,0:0:0:0:
192,192,113498,1,0,0:0:0:0:
320,192,113578,1,0,0:0:0:0:
192,192,113658,1,0,0:0:0:0:
320,192,113739,1,0,0:0:0:0:
64,192,113739,128,0,114060:0:0:0:0:
192,192,114060,128,0,114380:0:0:0:0:
320,192,114380,128,0,114701:0:0:0:0:
448,192,114701,128,0,115022:0:0:0:0:
64,192,115022,1,0,0:0:0:0:
192,192,115343,1,0,0:0:0:0:
448,192,115343,1,0,0:0:0:0:
320,192,115503,1,0,0:0:0:0:
64,192,115664,1,0,0:0:0:0:
192,192,115744,1,0,0:0:0:0:
320,192,115824,1,0,0:0:0:0:
192,192,115904,1,0,0:0:0:0:
64,192,115985,1,0,0:0:0:0:
448,192,115985,1,0,0:0:0:0:
192,192,116306,1,0,0:0:0:0:
320,192,116306,1,0,0:0:0:0:
448,192,116466,1,0,0:0:0:0:
320,192,116546,1,0,0:0:0:0:
192,192,116626,1,0,0:0:0:0:
64,192,116707,1,0,0:0:0:0:
192,192,116787,1,0,0:0:0:0:
320,192,116867,1,0,0:0:0:0:
448,192,116947,1,0,0:0:0:0:
64,192,116947,128,0,117268:0:0:0:0:
320,192,117268,128,0,117589:0:0:0:0:
192,192,117589,128,0,117910:0:0:0:0:
448,192,117910,1,0,0:0:0:0:
192,192,118070,1,0,0:0:0:0:
320,192,118070,1,0,0:0:0:0:
192,192,118391,1,0,0:0:0:0:
320,192,118391,1,0,0:0:0:0:
192,192,118712,1,0,0:0:0:0:
320,192,118712,1,0,0:0:0:0:
64,192,119033,1,0,0:0:0:0:
192,192,119033,1,0,0:0:0:0:
320,192,119193,1,0,0:0:0:0:
448,192,119354,1,0,0:0:0:0:
64,192,119514,1,0,0:0:0:0:
448,192,119675,1,0,0:0:0:0:
320,192,119675,1,0,0:0:0:0:
192,192,119835,1,0,0:0:0:0:
64,192,119995,1,0,0:0:0:0:
448,192,120156,1,0,0:0:0:0:
64,192,120316,1,0,0:0:0:0:
192,192,120316,1,0,0:0:0:0:
320,192,120477,1,0,0:0:0:0:
448,192,120637,1,0,0:0:0:0:
64,192,120797,1,0,0:0:0:0:
448,192,120958,1,0,0:0:0:0:
320,192,120958,1,0,0:0:0:0:
192,192,121118,1,0,0:0:0:0:
64,192,121279,1,0,0:0:0:0:
448,192,121279,1,0,0:0:0:0:
192,192,121439,1,0,0:0:0:0:
64,192,121600,1,0,0:0:0:0:
448,192,121600,1,0,0:0:0:0:
320,192,121760,1,0,0:0:0:0:
64,192,121920,1,0,0:0:0:0:
448,192,121920,1,0,0:0:0:0:
192,192,122081,1,0,0:0:0:0:
64,192,122241,1,0,0:0:0:0:
448,192,122241,1,0,0:0:0:0:
320,192,122402,1,0,0:0:0:0:
64,192,122562,1,0,0:0:0:0:
448,192,122562,1,0,0:0:0:0:
64,192,123846,128,0,124166:0:0:0:0:
448,192,123846,128,0,124166:0:0:0:0:
320,192,124166,128,0,124327:0:0:0:0:
192,192,124327,128,0,124487:0:0:0:0:
320,192,124487,128,0,124648:0:0:0:0:
448,192,124648,128,0,124808:0:0:0:0:
320,192,124808,128,0,124969:0:0:0:0:
192,192,124969,128,0,125129:0:0:0:0:
320,192,125129,128,0,125289:0:0:0:0:
64,192,125289,1,0,0:0:0:0:
448,192,125289,1,0,0:0:0:0:
192,192,125450,1,0,0:0:0:0:
448,192,125610,1,0,0:0:0:0:
64,192,125610,1,0,0:0:0:0:
320,192,125771,1,0,0:0:0:0:
448,192,125931,1,0,0:0:0:0:
64,192,126011,1,0,0:0:0:0:
448,192,126092,1,0,0:0:0:0:
64,192,126172,1,0,0:0:0:0:
448,192,126252,1,0,0:0:0:0:
64,192,126332,1,0,0:0:0:0:
448,192,126412,1,0,0:0:0:0:
64,192,126493,1,0,0:0:0:0:
448,192,126573,1,0,0:0:0:0:
320,192,126573,128,0,126894:0:0:0:0:
192,192,126894,128,0,127215:0:0:0:0:
320,192,127215,128,0,127535:0:0:0:0:
192,192,127535,1,0,0:0:0:0:
320,192,127696,1,0,0:0:0:0:
192,192,127856,1,0,0:0:0:0:
320,192,128017,1,0,0:0:0:0:
192,192,128177,1,0,0:0:0:0:
64,192,128338,1,0,0:0:0:0:
448,192,128338,1,0,0:0:0:0:
320,192,128498,1,0,0:0:0:0:
64,192,128658,1,0,0:0:0:0:
448,192,128658,1,0,0:0:0:0:
192,192,128819,1,0,0:0:0:0:
448,192,128979,1,0,0:0:0:0:
64,192,128979,128,0,131386:0:0:0:0:
320,192,129140,128,0,129781:0:0:0:0:
192,192,129461,1,0,0:0:0:0:
448,192,129781,128,0,130102:0:0:0:0:
192,192,130102,128,0,130263:0:0:0:0:
320,192,130263,1,0,0:0:0:0:
320,192,130584,1,0,0:0:0:0:
192,192,130744,1,0,0:0:0:0:
448,192,130744,1,0,0:0:0:0:
320,192,130904,1,0,0:0:0:0:
192,192,131065,1,0,0:0:0:0:
448,192,131065,1,0,0:0:0:0:
320,192,131225,1,0,0:0:0:0:
192,192,131386,1,0,0:0:0:0:
448,192,131386,1,0,0:0:0:0:
320,192,131707,1,0,0:0:0:0:
64,192,131707,128,0,132027:0:0:0:0:
448,192,132027,128,0,132348:0:0:0:0:
64,192,132348,128,0,132669:0:0:0:0:
192,192,132669,1,0,0:0:0:0:
448,192,132830,1,0,0:0:0:0:
64,192,132990,1,0,0:0:0:0:
192,192,133150,1,0,0:0:0:0:
320,192,133150,1,0,0:0:0:0:
64,192,133311,1,0,0:0:0:0:
192,192,133471,1,0,0:0:0:0:
320,192,133471,1,0,0:0:0:0:
448,192,133632,1,0,0:0:0:0:
320,192,133792,1,0,0:0:0:0:
192,192,133792,1,0,0:0:0:0:
64,192,133953,1,0,0:0:0:0:
192,192,134113,1,0,0:0:0:0:
192,192,134273,128,0,134915:0:0:0:0:
448,192,134273,128,0,136519:0:0:0:0:
320,192,134594,1,0,0:0:0:0:
64,192,134915,128,0,135236:0:0:0:0:
320,192,135236,128,0,135396:0:0:0:0:
192,192,135396,1,0,0:0:0:0:
64,192,135557,1,0,0:0:0:0:
192,192,135637,1,0,0:0:0:0:
64,192,135717,1,0,0:0:0:0:
192,192,135798,1,0,0:0:0:0:
64,192,135878,1,0,0:0:0:0:
192,192,135958,1,0,0:0:0:0:
64,192,136038,1,0,0:0:0:0:
320,192,136038,1,0,0:0:0:0:
192,192,136199,1,0,0:0:0:0:
64,192,136359,1,0,0:0:0:0:
320,192,136359,1,0,0:0:0:0:
192,192,136519,1,0,0:0:0:0:
192,192,136680,1,0,0:0:0:0:
448,192,136840,1,0,0:0:0:0:
192,192,136840,1,0,0:0:0:0:
192,192,137161,1,0,0:0:0:0:
320,192,137322,1,0,0:0:0:0:
448,192,137402,1,0,0:0:0:0:
320,192,137482,1,0,0:0:0:0:
64,192,137482,1,0,0:0:0:0:
448,192,137963,1,0,0:0:0:0:
192,192,137963,1,0,0:0:0:0:
64,192,138284,1,0,0:0:0:0:
320,192,138284,1,0,0:0:0:0:
192,192,138605,1,0,0:0:0:0:
64,192,138685,1,0,0:0:0:0:
192,192,138765,1,0,0:0:0:0:
320,192,138926,1,0,0:0:0:0:
320,192,139086,1,0,0:0:0:0:
448,192,139086,1,0,0:0:0:0:
192,192,139247,1,0,0:0:0:0:
192,192,139407,1,0,0:0:0:0:
192,192,139728,1,0,0:0:0:0:
64,192,139808,1,0,0:0:0:0:
192,192,139888,1,0,0:0:0:0:
64,192,140049,1,0,0:0:0:0:
320,192,140049,1,0,0:0:0:0:
320,192,140530,1,0,0:0:0:0:
192,192,140851,1,0,0:0:0:0:
192,192,141011,1,0,0:0:0:0:
320,192,141172,1,0,0:0:0:0:
448,192,141252,1,0,0:0:0:0:
320,192,141332,1,0,0:0:0:0:
64,192,141332,1,0,0:0:0:0:
192,192,141493,1,0,0:0:0:0:
320,192,141653,1,0,0:0:0:0:
448,192,141814,1,0,0:0:0:0:
320,192,141974,1,0,0:0:0:0:
192,192,142134,1,0,0:0:0:0:
64,192,142295,1,0,0:0:0:0:
192,192,142455,1,0,0:0:0:0:
320,192,142616,1,0,0:0:0:0:
448,192,142776,1,0,0:0:0:0:
448,192,142937,1,0,0:0:0:0:
448,192,143097,1,0,0:0:0:0:
320,192,143257,1,0,0:0:0:0:
320,192,143418,1,0,0:0:0:0:
192,192,143578,1,0,0:0:0:0:
192,192,143739,1,0,0:0:0:0:
64,192,143899,1,0,0:0:0:0:
64,192,144060,1,0,0:0:0:0:
192,192,144220,1,0,0:0:0:0:
320,192,144380,1,0,0:0:0:0:
448,192,144541,1,0,0:0:0:0:
64,192,144701,1,0,0:0:0:0:
448,192,144701,1,0,0:0:0:0:
64,192,144862,1,0,0:0:0:0:
64,192,145022,1,0,0:0:0:0:
448,192,145022,1,0,0:0:0:0:
448,192,145183,1,0,0:0:0:0:
448,192,145343,1,0,0:0:0:0:
64,192,145343,1,0,0:0:0:0:
64,192,145503,1,0,0:0:0:0:
448,192,145664,1,0,0:0:0:0:
64,192,145664,1,0,0:0:0:0:
64,192,147108,128,0,147589:0:0:0:0:
320,192,147108,1,0,0:0:0:0:
448,192,147589,128,0,148070:0:0:0:0:
192,192,148070,128,0,148391:0:0:0:0:
448,192,148391,1,0,0:0:0:0:
192,192,148552,1,0,0:0:0:0:
64,192,148552,1,0,0:0:0:0:
64,192,148872,1,0,0:0:0:0:
448,192,148872,1,0,0:0:0:0:
320,192,149193,1,0,0:0:0:0:
192,192,149354,1,0,0:0:0:0:
64,192,149675,1,0,0:0:0:0:
320,192,149675,1,0,0:0:0:0:
64,192,149995,1,0,0:0:0:0:
320,192,149995,1,0,0:0:0:0:
448,192,150316,1,0,0:0:0:0:
192,192,150316,1,0,0:0:0:0:
192,192,150637,1,0,0:0:0:0:
448,192,150637,1,0,0:0:0:0:
320,192,150958,1,0,0:0:0:0:
64,192,150958,1,0,0:0:0:0:
64,192,151279,1,0,0:0:0:0:
320,192,151279,1,0,0:0:0:0:
192,192,151439,128,0,151920:0:0:0:0:
448,192,151439,128,0,151920:0:0:0:0:
320,192,151760,1,0,0:0:0:0:
320,192,151920,1,0,0:0:0:0:
64,192,152241,1,0,0:0:0:0:
448,192,152241,1,0,0:0:0:0:
192,192,152402,1,0,0:0:0:0:
64,192,152562,1,0,0:0:0:0:
320,192,152562,1,0,0:0:0:0:
448,192,152723,1,0,0:0:0:0:
320,192,152883,1,0,0:0:0:0:
64,192,152883,1,0,0:0:0:0:
192,192,153043,1,0,0:0:0:0:
448,192,153204,1,0,0:0:0:0:
64,192,153204,1,0,0:0:0:0:
192,192,153364,1,0,0:0:0:0:
64,192,153525,1,0,0:0:0:0:
320,192,153525,1,0,0:0:0:0:
192,192,153685,128,0,154006:0:0:0:0:
448,192,153685,128,0,154006:0:0:0:0:
320,192,154006,1,0,0:0:0:0:
64,192,154006,1,0,0:0:0:0:
448,192,154327,1,0,0:0:0:0:
320,192,154487,1,0,0:0:0:0:
192,192,154648,1,0,0:0:0:0:
320,192,154808,1,0,0:0:0:0:
64,192,154808,1,0,0:0:0:0:
448,192,154888,1,0,0:0:0:0:
192,192,154969,1,0,0:0:0:0:
192,192,155129,1,0,0:0:0:0:
448,192,155129,1,0,0:0:0:0:
64,192,155209,1,0,0:0:0:0:
320,192,155289,1,0,0:0:0:0:
320,192,155450,1,0,0:0:0:0:
64,192,155450,1,0,0:0:0:0:
448,192,155530,1,0,0:0:0:0:
192,192,155610,1,0,0:0:0:0:
192,192,155771,1,0,0:0:0:0:
448,192,155771,1,0,0:0:0:0:
64,192,155851,1,0,0:0:0:0:
320,192,155931,1,0,0:0:0:0:
192,192,156092,1,0,0:0:0:0:
448,192,156092,1,0,0:0:0:0:
64,192,156252,128,0,156573:0:0:0:0:
320,192,156252,128,0,156573:0:0:0:0:
448,192,156573,1,0,0:0:0:0:
192,192,156573,1,0,0:0:0:0:
64,192,156894,1,0,0:0:0:0:
192,192,156974,1,0,0:0:0:0:
320,192,157054,1,0,0:0:0:0:
448,192,157134,1,0,0:0:0:0:
320,192,157375,128,0,157696:0:0:0:0:
64,192,157375,1,0,0:0:0:0:
192,192,157696,128,0,158017:0:0:0:0:
448,192,158017,128,0,158338:0:0:0:0:
64,192,158338,128,0,158658:0:0:0:0:
320,192,158658,128,0,159140:0:0:0:0:
64,192,158979,1,0,0:0:0:0:
192,192,159140,1,0,0:0:0:0:
64,192,159300,128,0,159781:0:0:0:0:
320,192,159300,128,0,159781:0:0:0:0:
448,192,159621,1,0,0:0:0:0:
192,192,159781,128,0,160263:0:0:0:0:
448,192,159942,1,0,0:0:0:0:
448,192,160263,128,0,160584:0:0:0:0:
320,192,160584,128,0,160904:0:0:0:0:
64,192,160904,128,0,161225:0:0:0:0:
448,192,161225,128,0,161546:0:0:0:0:
192,192,161546,1,0,0:0:0:0:
320,192,161707,128,0,162188:0:0:0:0:
448,192,161707,128,0,162188:0:0:0:0:
64,192,161867,1,0,0:0:0:0:
192,192,162188,1,0,0:0:0:0:
320,192,162348,1,0,0:0:0:0:
64,192,162348,128,0,162830:0:0:0:0:
192,192,162830,128,0,163150:0:0:0:0:
320,192,163150,128,0,163471:0:0:0:0:
448,192,163471,128,0,163792:0:0:0:0:
64,192,163792,1,0,0:0:0:0:
192,192,163953,1,0,0:0:0:0:
448,192,163953,1,0,0:0:0:0:
320,192,164113,1,0,0:0:0:0:
192,192,164273,1,0,0:0:0:0:
448,192,164273,1,0,0:0:0:0:
64,192,164434,128,0,165076:0:0:0:0:
448,192,164755,1,0,0:0:0:0:
448,192,165076,128,0,166359:0:0:0:0:
64,192,165236,1,0,0:0:0:0:
192,192,165396,1,0,0:0:0:0:
320,192,165557,1,0,0:0:0:0:
192,192,165717,1,0,0:0:0:0:
64,192,165717,1,0,0:0:0:0:
320,192,165878,1,0,0:0:0:0:
192,192,166038,1,0,0:0:0:0:
64,192,166199,1,0,0:0:0:0:
64,192,166359,128,0,167482:0:0:0:0:
320,192,166359,1,0,0:0:0:0:
192,192,166519,1,0,0:0:0:0:
448,192,166519,1,0,0:0:0:0:
320,192,166680,1,0,0:0:0:0:
192,192,166840,1,0,0:0:0:0:
448,192,166840,1,0,0:0:0:0:
320,192,167001,1,0,0:0:0:0:
192,192,167161,1,0,0:0:0:0:
448,192,167161,1,0,0:0:0:0:
320,192,167322,1,0,0:0:0:0:
192,192,167482,1,0,0:0:0:0:
448,192,167482,1,0,0:0:0:0:
192,192,168926,1,0,0:0:0:0:
448,192,168926,128,0,169247:0:0:0:0:
320,192,169247,1,0,0:0:0:0:
192,192,169247,128,0,169568:0:0:0:0:
320,192,169568,128,0,169888:0:0:0:0:
448,192,169568,1,0,0:0:0:0:
192,192,169888,128,0,170209:0:0:0:0:
64,192,169888,1,0,0:0:0:0:
320,192,170209,1,0,0:0:0:0:
192,192,170530,1,0,0:0:0:0:
320,192,170691,1,0,0:0:0:0:
448,192,170691,1,0,0:0:0:0:
320,192,171011,1,0,0:0:0:0:
192,192,171011,1,0,0:0:0:0:
64,192,171332,128,0,174060:0:0:0:0:
192,192,171332,128,0,174060:0:0:0:0:
448,192,171493,1,0,0:0:0:0:
320,192,171814,1,0,0:0:0:0:
448,192,172134,1,0,0:0:0:0:
320,192,172455,1,0,0:0:0:0:
448,192,172776,1,0,0:0:0:0:
320,192,173097,1,0,0:0:0:0:
448,192,173257,1,0,0:0:0:0:
320,192,173418,1,0,0:0:0:0:
448,192,173739,1,0,0:0:0:0:
320,192,174060,1,0,0:0:0:0:
448,192,174220,1,0,0:0:0:0:
64,192,174380,1,0,0:0:0:0:
320,192,174380,1,0,0:0:0:0:
64,192,174701,128,0,175022:0:0:0:0:
448,192,174701,1,0,0:0:0:0:
320,192,175022,128,0,175343:0:0:0:0:
192,192,175343,1,0,0:0:0:0:
192,192,175664,1,0,0:0:0:0:
64,192,175824,1,0,0:0:0:0:
320,192,175824,1,0,0:0:0:0:
192,192,175985,1,0,0:0:0:0:
320,192,176065,1,0,0:0:0:0:
448,192,176145,1,0,0:0:0:0:
320,192,176225,1,0,0:0:0:0:
192,192,176306,1,0,0:0:0:0:
448,192,176466,1,0,0:0:0:0:
320,192,176626,1,0,0:0:0:0:
448,192,176626,1,0,0:0:0:0:
448,192,176947,1,0,0:0:0:0:
320,192,176947,1,0,0:0:0:0:
192,192,177027,1,0,0:0:0:0:
64,192,177108,1,0,0:0:0:0:
192,192,177188,1,0,0:0:0:0:
320,192,177268,1,0,0:0:0:0:
64,192,177429,1,0,0:0:0:0:
192,192,177429,128,0,177749:0:0:0:0:
448,192,177749,1,0,0:0:0:0:
320,192,177749,128,0,178231:0:0:0:0:
448,192,178231,1,0,0:0:0:0:
192,192,178391,1,0,0:0:0:0:
64,192,178391,1,0,0:0:0:0:
64,192,178712,1,0,0:0:0:0:
192,192,178712,1,0,0:0:0:0:
320,192,178792,1,0,0:0:0:0:
192,192,178872,1,0,0:0:0:0:
320,192,178953,1,0,0:0:0:0:
192,192,179033,1,0,0:0:0:0:
320,192,179113,1,0,0:0:0:0:
192,192,179193,1,0,0:0:0:0:
448,192,179193,128,0,179514:0:0:0:0:
192,192,179514,1,0,0:0:0:0:
320,192,179514,128,0,179835:0:0:0:0:
192,192,179835,128,0,180156:0:0:0:0:
64,192,179835,1,0,0:0:0:0:
64,192,180156,128,0,180477:0:0:0:0:
192,192,180477,1,0,0:0:0:0:
448,192,180477,1,0,0:0:0:0:
64,192,180797,1,0,0:0:0:0:
320,192,180797,1,0,0:0:0:0:
192,192,180958,1,0,0:0:0:0:
448,192,181118,1,0,0:0:0:0:
64,192,181118,1,0,0:0:0:0:
320,192,181199,1,0,0:0:0:0:
192,192,181279,1,0,0:0:0:0:
320,192,181359,1,0,0:0:0:0:
64,192,181439,1,0,0:0:0:0:
448,192,181439,1,0,0:0:0:0:
320,192,181760,1,0,0:0:0:0:
192,192,181760,1,0,0:0:0:0:
64,192,181920,1,0,0:0:0:0:
192,192,182001,1,0,0:0:0:0:
320,192,182081,1,0,0:0:0:0:
448,192,182161,1,0,0:0:0:0:
320,192,182241,1,0,0:0:0:0:
192,192,182322,1,0,0:0:0:0:
64,192,182402,1,0,0:0:0:0:
448,192,182402,128,0,182723:0:0:0:0:
192,192,182723,128,0,183043:0:0:0:0:
64,192,182723,1,0,0:0:0:0:
320,192,183043,128,0,183364:0:0:0:0:
448,192,183043,1,0,0:0:0:0:
64,192,183364,1,0,0:0:0:0:
320,192,183525,1,0,0:0:0:0:
192,192,183525,1,0,0:0:0:0:
192,192,183846,1,0,0:0:0:0:
320,192,183846,1,0,0:0:0:0:
192,192,184166,1,0,0:0:0:0:
320,192,184166,1,0,0:0:0:0:
448,192,184487,1,0,0:0:0:0:
320,192,184487,1,0,0:0:0:0:
192,192,184648,1,0,0:0:0:0:
64,192,184808,1,0,0:0:0:0:
448,192,184969,1,0,0:0:0:0:
64,192,185129,1,0,0:0:0:0:
192,192,185129,1,0,0:0:0:0:
320,192,185289,1,0,0:0:0:0:
448,192,185450,1,0,0:0:0:0:
64,192,185610,1,0,0:0:0:0:
320,192,185771,1,0,0:0:0:0:
448,192,185771,1,0,0:0:0:0:
192,192,185931,1,0,0:0:0:0:
64,192,186092,1,0,0:0:0:0:
448,192,186252,1,0,0:0:0:0:
64,192,186412,1,0,0:0:0:0:
192,192,186412,1,0,0:0:0:0:
320,192,186573,1,0,0:0:0:0:
448,192,186733,1,0,0:0:0:0:
64,192,186733,1,0,0:0:0:0:
448,192,186894,1,0,0:0:0:0:
448,192,187054,1,0,0:0:0:0:
192,192,187054,1,0,0:0:0:0:
64,192,187215,1,0,0:0:0:0:
64,192,187375,1,0,0:0:0:0:
64,192,187535,1,0,0:0:0:0:
320,192,187535,1,0,0:0:0:0:
448,192,187696,1,0,0:0:0:0:
448,192,187856,1,0,0:0:0:0:
448,192,188017,1,0,0:0:0:0:
192,192,188017,1,0,0:0:0:0:
64,192,188498,1,0,0:0:0:0:
448,192,188498,1,0,0:0:0:0:
320,192,188819,1,0,0:0:0:0:
64,192,188899,1,0,0:0:0:0:
320,192,188979,1,0,0:0:0:0:
64,192,189060,1,0,0:0:0:0:
320,192,189140,1,0,0:0:0:0:
192,192,189220,1,0,0:0:0:0:
448,192,189300,1,0,0:0:0:0:
192,192,189380,1,0,0:0:0:0:
448,192,189461,128,0,189781:0:0:0:0:
64,192,189461,128,0,189781:0:0:0:0:
320,192,189781,128,0,190102:0:0:0:0:
192,192,189781,128,0,190102:0:0:0:0:
64,192,190102,128,0,190423:0:0:0:0:
448,192,190102,128,0,190423:0:0:0:0:
320,192,190423,128,0,190744:0:0:0:0:
192,192,190423,128,0,190744:0:0:0:0:
64,192,190744,1,0,0:0:0:0:
448,192,190744,1,0,0:0:0:0:
64,192,191065,1,0,0:0:0:0:
448,192,191065,1,0,0:0:0:0:
192,192,191225,1,0,0:0:0:0:
448,192,191386,1,0,0:0:0:0:
320,192,191546,1,0,0:0:0:0:
64,192,191546,1,0,0:0:0:0:
192,192,191707,1,0,0:0:0:0:
64,192,191867,128,0,194594:0:0:0:0:
448,192,191867,128,0,194594:0:0:0:0:
192,192,192027,1,0,0:0:0:0:
320,192,192348,1,0,0:0:0:0:
192,192,192669,1,0,0:0:0:0:
320,192,192990,1,0,0:0:0:0:
192,192,193311,1,0,0:0:0:0:
320,192,193632,1,0,0:0:0:0:
192,192,193792,1,0,0:0:0:0:
320,192,193953,1,0,0:0:0:0:
192,192,194273,1,0,0:0:0:0:
320,192,194594,1,0,0:0:0:0:
192,192,194755,1,0,0:0:0:0:
64,192,194915,1,0,0:0:0:0:
448,192,194915,1,0,0:0:0:0:
192,192,195236,128,0,195557:0:0:0:0:
320,192,195557,1,0,0:0:0:0:
64,192,195557,128,0,195878:0:0:0:0:
448,192,195637,1,0,0:0:0:0:
320,192,195717,1,0,0:0:0:0:
320,192,195878,128,0,196199:0:0:0:0:
192,192,196199,1,0,0:0:0:0:
320,192,196359,1,0,0:0:0:0:
64,192,196359,1,0,0:0:0:0:
320,192,196519,1,0,0:0:0:0:
448,192,196600,1,0,0:0:0:0:
320,192,196680,1,0,0:0:0:0:
192,192,196760,1,0,0:0:0:0:
64,192,196840,1,0,0:0:0:0:
192,192,196920,1,0,0:0:0:0:
320,192,197001,1,0,0:0:0:0:
64,192,197161,1,0,0:0:0:0:
192,192,197161,1,0,0:0:0:0:
192,192,197482,1,0,0:0:0:0:
320,192,197482,1,0,0:0:0:0:
64,192,197642,128,0,197963:0:0:0:0:
448,192,197642,128,0,197963:0:0:0:0:
192,192,197963,128,0,198284:0:0:0:0:
320,192,198124,1,0,0:0:0:0:
64,192,198284,128,0,198765:0:0:0:0:
448,192,198284,128,0,199247:0:0:0:0:
192,192,198765,1,0,0:0:0:0:
64,192,198926,1,0,0:0:0:0:
320,192,198926,1,0,0:0:0:0:
64,192,199247,1,0,0:0:0:0:
320,192,199327,1,0,0:0:0:0:
64,192,199407,1,0,0:0:0:0:
448,192,199487,1,0,0:0:0:0:
192,192,199568,1,0,0:0:0:0:
448,192,199648,1,0,0:0:0:0:
192,192,199728,128,0,200049:0:0:0:0:
320,192,199728,128,0,200049:0:0:0:0:
448,192,200049,128,0,200370:0:0:0:0:
64,192,200049,128,0,200370:0:0:0:0:
192,192,200370,128,0,200691:0:0:0:0:
320,192,200370,128,0,200691:0:0:0:0:
448,192,200691,128,0,201011:0:0:0:0:
64,192,200691,128,0,201011:0:0:0:0:
320,192,201011,1,0,0:0:0:0:
192,192,201011,1,0,0:0:0:0:
320,192,201332,1,0,0:0:0:0:
320,192,201493,1,0,0:0:0:0:
64,192,201493,1,0,0:0:0:0:
192,192,201653,1,0,0:0:0:0:
64,192,201814,1,0,0:0:0:0:
320,192,201814,1,0,0:0:0:0:
320,192,201974,1,0,0:0:0:0:
448,192,202134,1,0,0:0:0:0:
64,192,202134,1,0,0:0:0:0:
192,192,202215,1,0,0:0:0:0:
320,192,202295,1,0,0:0:0:0:
448,192,202375,1,0,0:0:0:0:
320,192,202455,1,0,0:0:0:0:
192,192,202535,1,0,0:0:0:0:
320,192,202616,1,0,0:0:0:0:
448,192,202696,128,0,203578:0:0:0:0:
192,192,202937,1,0,0:0:0:0:
64,192,202937,1,0,0:0:0:0:
192,192,203257,1,0,0:0:0:0:
64,192,203257,1,0,0:0:0:0:
64,192,203578,1,0,0:0:0:0:
192,192,203578,1,0,0:0:0:0:
320,192,203899,1,0,0:0:0:0:
64,192,204060,1,0,0:0:0:0:
320,192,204060,1,0,0:0:0:0:
192,192,204380,1,0,0:0:0:0:
448,192,204380,1,0,0:0:0:0:
320,192,204701,1,0,0:0:0:0:
64,192,204701,1,0,0:0:0:0:
192,192,205022,1,0,0:0:0:0:
320,192,205183,1,0,0:0:0:0:
448,192,205343,1,0,0:0:0:0:
64,192,205503,1,0,0:0:0:0:
192,192,205503,1,0,0:0:0:0:
320,192,205664,1,0,0:0:0:0:
192,192,205824,1,0,0:0:0:0:
64,192,205985,1,0,0:0:0:0:
320,192,206145,1,0,0:0:0:0:
448,192,206145,1,0,0:0:0:0:
192,192,206306,1,0,0:0:0:0:
320,192,206466,1,0,0:0:0:0:
448,192,206626,1,0,0:0:0:0:
64,192,206787,1,0,0:0:0:0:
192,192,206787,1,0,0:0:0:0:
320,192,206947,1,0,0:0:0:0:
192,192,207108,1,0,0:0:0:0:
64,192,207268,1,0,0:0:0:0:
448,192,207268,1,0,0:0:0:0:
64,192,207429,1,0,0:0:0:0:
448,192,207589,1,0,0:0:0:0:
64,192,207589,1,0,0:0:0:0:
448,192,207749,1,0,0:0:0:0:
64,192,207910,1,0,0:0:0:0:
448,192,207910,1,0,0:0:0:0:
64,192,208070,1,0,0:0:0:0:
448,192,208231,1,0,0:0:0:0:
64,192,208231,1,0,0:0:0:0:
448,192,208391,1,0,0:0:0:0:
448,192,208552,1,0,0:0:0:0:
64,192,208552,1,0,0:0:0:0:
64,192,209835,1,0,0:0:0:0:
448,192,209835,1,0,0:0:0:0:
192,192,209995,1,0,0:0:0:0:
448,192,210156,1,0,0:0:0:0:
64,192,210156,1,0,0:0:0:0:
192,192,210316,1,0,0:0:0:0:
320,192,210477,1,0,0:0:0:0:
64,192,210477,128,0,210797:0:0:0:0:
448,192,210797,128,0,211118:0:0:0:0:
320,192,211118,1,0,0:0:0:0:
64,192,211118,1,0,0:0:0:0:
320,192,211439,1,0,0:0:0:0:
192,192,211600,1,0,0:0:0:0:
320,192,211760,1,0,0:0:0:0:
448,192,211920,1,0,0:0:0:0:
192,192,212081,1,0,0:0:0:0:
64,192,212241,1,0,0:0:0:0:
320,192,212402,1,0,0:0:0:0:
448,192,212562,1,0,0:0:0:0:
64,192,212562,1,0,0:0:0:0:
320,192,212723,1,0,0:0:0:0:
64,192,212883,1,0,0:0:0:0:
192,192,213043,1,0,0:0:0:0:
320,192,213364,1,0,0:0:0:0:
192,192,213525,1,0,0:0:0:0:
64,192,213685,1,0,0:0:0:0:
448,192,213685,1,0,0:0:0:0:
192,192,214006,1,0,0:0:0:0:
320,192,214166,1,0,0:0:0:0:
64,192,214327,128,0,215129:0:0:0:0:
448,192,214327,128,0,215129:0:0:0:0:
192,192,215129,1,0,0:0:0:0:
320,192,215289,1,0,0:0:0:0:
448,192,215450,1,0,0:0:0:0:
192,192,215610,128,0,216252:0:0:0:0:
320,192,215931,1,0,0:0:0:0:
448,192,216092,1,0,0:0:0:0:
64,192,216252,1,0,0:0:0:0:
320,192,216252,128,0,216573:0:0:0:0:
64,192,216573,128,0,216733:0:0:0:0:
192,192,216733,128,0,216894:0:0:0:0:
64,192,216894,128,0,217215:0:0:0:0:
448,192,216894,1,0,0:0:0:0:
320,192,216974,1,0,0:0:0:0:
448,192,217054,1,0,0:0:0:0:
320,192,217215,1,0,0:0:0:0:
448,192,217375,1,0,0:0:0:0:
64,192,217696,1,0,0:0:0:0:
64,192,217856,1,0,0:0:0:0:
448,192,217856,1,0,0:0:0:0:
320,192,218017,1,0,0:0:0:0:
64,192,218177,1,0,0:0:0:0:
64,192,218338,1,0,0:0:0:0:
320,192,218338,1,0,0:0:0:0:
448,192,218498,1,0,0:0:0:0:
64,192,218658,1,0,0:0:0:0:
64,192,218819,1,0,0:0:0:0:
448,192,218819,1,0,0:0:0:0:
320,192,218979,1,0,0:0:0:0:
64,192,219140,1,0,0:0:0:0:
64,192,219300,1,0,0:0:0:0:
448,192,219461,1,0,0:0:0:0:
64,192,219461,1,0,0:0:0:0:
320,192,219621,1,0,0:0:0:0:
192,192,219701,1,0,0:0:0:0:
448,192,219781,1,0,0:0:0:0:
64,192,219862,1,0,0:0:0:0:
448,192,219942,1,0,0:0:0:0:
64,192,220022,1,0,0:0:0:0:
320,192,220102,1,0,0:0:0:0:
448,192,220263,1,0,0:0:0:0:
192,192,220263,1,0,0:0:0:0:
64,192,220423,1,0,0:0:0:0:
192,192,220584,1,0,0:0:0:0:
320,192,220744,128,0,221065:0:0:0:0:
448,192,221065,128,0,221386:0:0:0:0:
192,192,221386,1,0,0:0:0:0:
64,192,221386,1,0,0:0:0:0:
192,192,221707,1,0,0:0:0:0:
320,192,221867,1,0,0:0:0:0:
64,192,221867,1,0,0:0:0:0:
448,192,222027,1,0,0:0:0:0:
320,192,222188,1,0,0:0:0:0:
64,192,222188,1,0,0:0:0:0:
192,192,222348,1,0,0:0:0:0:
64,192,222509,1,0,0:0:0:0:
448,192,222509,1,0,0:0:0:0:
320,192,222669,1,0,0:0:0:0:
192,192,222830,1,0,0:0:0:0:
448,192,222830,1,0,0:0:0:0:
64,192,222990,1,0,0:0:0:0:
192,192,223150,1,0,0:0:0:0:
320,192,223311,1,0,0:0:0:0:
448,192,223632,1,0,0:0:0:0:
320,192,223792,1,0,0:0:0:0:
64,192,223953,1,0,0:0:0:0:
192,192,223953,1,0,0:0:0:0:
64,192,224273,1,0,0:0:0:0:
192,192,224434,1,0,0:0:0:0:
320,192,224594,128,0,225396:0:0:0:0:
448,192,224594,128,0,225396:0:0:0:0:
192,192,225396,1,0,0:0:0:0:
64,192,225557,1,0,0:0:0:0:
192,192,225717,1,0,0:0:0:0:
320,192,225878,128,0,226519:0:0:0:0:
64,192,226199,1,0,0:0:0:0:
448,192,226359,1,0,0:0:0:0:
64,192,226519,1,0,0:0:0:0:
192,192,226519,128,0,226840:0:0:0:0:
448,192,226840,128,0,227001:0:0:0:0:
320,192,227001,128,0,227161:0:0:0:0:
64,192,227161,1,0,0:0:0:0:
448,192,227161,128,0,227642:0:0:0:0:
192,192,227241,1,0,0:0:0:0:
64,192,227322,1,0,0:0:0:0:
320,192,227482,1,0,0:0:0:0:
64,192,227642,1,0,0:0:0:0:
192,192,227642,1,0,0:0:0:0:
64,192,227963,1,0,0:0:0:0:
448,192,227963,1,0,0:0:0:0:
192,192,228124,1,0,0:0:0:0:
320,192,228284,1,0,0:0:0:0:
448,192,228445,1,0,0:0:0:0:
64,192,228445,1,0,0:0:0:0:
320,192,228605,1,0,0:0:0:0:
192,192,228765,1,0,0:0:0:0:
64,192,228926,1,0,0:0:0:0:
448,192,228926,1,0,0:0:0:0:
192,192,229086,1,0,0:0:0:0:
320,192,229247,1,0,0:0:0:0:
448,192,229407,1,0,0:0:0:0:
64,192,229407,1,0,0:0:0:0:
320,192,229568,1,0,0:0:0:0:
192,192,229728,1,0,0:0:0:0:
64,192,229888,1,0,0:0:0:0:
192,192,230049,1,0,0:0:0:0:
448,192,230049,1,0,0:0:0:0:
64,192,230370,128,0,235503:0:0:0:0:
448,192,230370,128,0,235503:0:0:0:0:
320,192,230370,1,0,0:0:0:0:
