osu file format v14

[General]
AudioFilename: tunez.mp3
AudioLeadIn: 0
PreviewTime: 112
Countdown: 1
SampleSet: None
StackLeniency: 0.7
Mode: 1
LetterboxInBreaks: 0
WidescreenStoryboard: 0

[Editor]
DistanceSpacing: 0.9
BeatDivisor: 4
GridSize: 32
TimelineZoom: 1.7

[Metadata]
Title:tunez
TitleUnicode:tunez
Artist:Uber
ArtistUnicode:Über
Creator:Brames
Version:Oni
Source:
Tags:mp4 kirby 3san
BeatmapID:1863348
BeatmapSetID:891393

[Difficulty]
HPDrainRate:7
CircleSize:5
OverallDifficulty:5
ApproachRate:5
SliderMultiplier:1.4
SliderTickRate:1

[Events]
//Background and Video events
0,0,"tunezbg.jpg",0,0
//Break Periods
//Storyboard Layer 0 (Background)
//Storyboard Layer 1 (Fail)
//Storyboard Layer 2 (Pass)
//Storyboard Layer 3 (Foreground)
//Storyboard Sound Samples

[TimingPoints]
112,337.090014270144,4,1,0,100,1,0
112,-57.1428571428571,4,1,0,100,0,0
449,-100,4,1,0,100,0,0
1123,-57.1428571428571,4,1,0,100,0,0
1460,-100,4,1,0,100,0,0
2640,-57.1428571428571,4,1,0,100,0,0
3314,-100,4,1,0,100,0,0
3819,-57.1428571428571,4,1,0,100,0,0
4157,-100,4,1,0,100,0,0
4662,-57.1428571428571,4,1,0,100,0,0
5842,-100,4,1,0,100,0,0
6516,-57.1428571428571,4,1,0,100,0,0
6853,-100,4,1,0,100,0,0
8033,-57.1428571428571,4,1,0,100,0,0
8370,-100,4,1,0,100,0,0
8707,-57.1428571428571,4,1,0,100,0,0
8876,-100,4,1,0,100,0,0
9213,-57.1428571428571,4,1,0,100,0,0
9381,-100,4,1,0,100,0,0
9719,-57.1428571428571,4,1,0,100,0,0
9887,-100,4,1,0,100,0,0
10056,-57.1428571428571,4,1,0,100,0,0
10393,-100,4,1,0,100,0,0
10898,-57.1428571428571,4,1,0,100,0,0
11235,-100,4,1,0,100,0,0
11910,-57.1428571428571,4,1,0,100,0,0
12247,-100,4,1,0,100,0,0
13427,-57.1428571428571,4,1,0,100,0,0
14101,-100,4,1,0,100,0,0
14606,-57.1428571428571,4,1,0,100,0,0
14943,-100,4,1,0,100,0,0
15449,-57.1428571428571,4,1,0,100,0,0
16629,-100,4,1,0,100,0,0
17303,-57.1428571428571,4,1,0,100,0,0
17640,-100,4,1,0,100,0,0
18820,-57.1428571428571,4,1,0,100,0,0
19157,-100,4,1,0,100,0,0
19494,-57.1428571428571,4,1,0,100,0,0
19663,-100,4,1,0,100,0,0
20000,-57.1428571428571,4,1,0,100,0,0
20168,-100,4,1,0,100,0,0
20505,-57.1428571428571,4,1,0,100,0,0
20674,-100,4,1,0,100,0,0
20843,-57.1428571428571,4,1,0,100,0,0
21685,-57.1428571428571,4,1,0,100,0,1
22022,-100,4,1,0,100,0,1
22697,-57.1428571428571,4,1,0,100,0,1
23034,-100,4,1,0,100,0,1
24213,-57.1428571428571,4,1,0,100,0,1
24888,-100,4,1,0,100,0,1
25393,-57.1428571428571,4,1,0,100,0,1
25730,-100,4,1,0,100,0,1
26236,-57.1428571428571,4,1,0,100,0,1
27416,-100,4,1,0,100,0,1
28090,-57.1428571428571,4,1,0,100,0,1
28427,-100,4,1,0,100,0,1
29607,-57.1428571428571,4,1,0,100,0,1
29944,-100,4,1,0,100,0,1
30281,-57.1428571428571,4,1,0,100,0,1
30450,-100,4,1,0,100,0,1
30787,-57.1428571428571,4,1,0,100,0,1
30955,-100,4,1,0,100,0,1
31292,-57.1428571428571,4,1,0,100,0,1
31461,-100,4,1,0,100,0,1
31629,-57.1428571428571,4,1,0,100,0,1
31967,-100,4,1,0,100,0,1
32472,-57.1428571428571,4,1,0,100,0,1
32809,-100,4,1,0,100,0,1
33483,-57.1428571428571,4,1,0,100,0,1
33821,-100,4,1,0,100,0,1
35000,-57.1428571428571,4,1,0,100,0,1
35674,-100,4,1,0,100,0,1
36180,-57.1428571428571,4,1,0,100,0,1
36517,-100,4,1,0,100,0,1
37023,-57.1428571428571,4,1,0,100,0,1
38203,-100,4,1,0,100,0,1
38877,-57.1428571428571,4,1,0,100,0,1
39214,-100,4,1,0,100,0,1
40394,-57.1428571428571,4,1,0,100,0,1
40731,-100,4,1,0,100,0,1
41068,-57.1428571428571,4,1,0,100,0,1
41236,-100,4,1,0,100,0,1
41574,-57.1428571428571,4,1,0,100,0,1
41742,-100,4,1,0,100,0,1
42079,-57.1428571428571,4,1,0,100,0,1
42248,-100,4,1,0,100,0,1
42416,-57.1428571428571,4,1,0,100,0,1
42585,-57.1428571428571,4,1,0,100,0,0

[HitObjects]
256,192,112,5,4,0:0:0:0:
256,192,449,1,0,0:0:0:0:
256,192,617,1,8,0:0:0:0:
256,192,954,1,8,0:0:0:0:
256,192,1123,1,4,0:0:0:0:
256,192,1460,1,8,0:0:0:0:
256,192,1797,1,0,0:0:0:0:
256,192,2134,1,0,0:0:0:0:
256,192,2471,1,8,0:0:0:0:
256,192,2640,1,4,0:0:0:0:
256,192,2808,1,4,0:0:0:0:
256,192,2977,1,4,0:0:0:0:
256,192,3314,1,0,0:0:0:0:
256,192,3482,1,0,0:0:0:0:
256,192,3651,1,8,0:0:0:0:
256,192,3819,1,4,0:0:0:0:
256,192,4157,1,0,0:0:0:0:
256,192,4325,1,8,0:0:0:0:
256,192,4662,1,4,0:0:0:0:
256,192,4831,1,12,0:0:0:0:
256,192,5505,1,4,0:0:0:0:
256,192,5673,1,4,0:0:0:0:
256,192,5842,12,8,6095,0:0:0:0:
256,192,6179,5,0,0:0:0:0:
256,192,6263,1,8,0:0:0:0:
256,192,6516,5,4,0:0:0:0:
256,192,6853,1,0,0:0:0:0:
256,192,7022,1,8,0:0:0:0:
256,192,7190,1,0,0:0:0:0:
256,192,7359,1,8,0:0:0:0:
256,192,7527,1,0,0:0:0:0:
256,192,7612,1,8,0:0:0:0:
256,192,8033,1,4,0:0:0:0:
256,192,8202,1,4,0:0:0:0:
256,192,8370,1,0,0:0:0:0:
256,192,8539,1,8,0:0:0:0:
256,192,8707,1,12,0:0:0:0:
256,192,8876,1,0,0:0:0:0:
256,192,9044,1,8,0:0:0:0:
256,192,9213,1,4,0:0:0:0:
256,192,9381,1,8,0:0:0:0:
256,192,9550,1,8,0:0:0:0:
256,192,9719,1,4,0:0:0:0:
256,192,9887,1,0,0:0:0:0:
256,192,10056,1,12,0:0:0:0:
256,192,10224,1,4,0:0:0:0:
256,192,10393,1,8,0:0:0:0:
256,192,10561,1,0,0:0:0:0:
256,192,10730,1,8,0:0:0:0:
256,192,10898,5,4,0:0:0:0:
256,192,11235,1,0,0:0:0:0:
256,192,11404,1,8,0:0:0:0:
256,192,11741,1,8,0:0:0:0:
256,192,11910,1,4,0:0:0:0:
256,192,12247,1,8,0:0:0:0:
256,192,12584,1,0,0:0:0:0:
256,192,12921,1,0,0:0:0:0:
256,192,13258,1,8,0:0:0:0:
256,192,13427,1,4,0:0:0:0:
256,192,13595,1,4,0:0:0:0:
256,192,13764,1,4,0:0:0:0:
256,192,14101,1,0,0:0:0:0:
256,192,14269,1,0,0:0:0:0:
256,192,14438,1,8,0:0:0:0:
256,192,14606,1,4,0:0:0:0:
256,192,14943,1,0,0:0:0:0:
256,192,15112,1,8,0:0:0:0:
256,192,15449,1,4,0:0:0:0:
256,192,15618,1,12,0:0:0:0:
256,192,16292,1,4,0:0:0:0:
256,192,16460,1,4,0:0:0:0:
256,192,16629,12,8,16882,0:0:0:0:
256,192,16966,5,0,0:0:0:0:
256,192,17050,1,8,0:0:0:0:
256,192,17303,5,4,0:0:0:0:
256,192,17640,1,0,0:0:0:0:
256,192,17809,1,8,0:0:0:0:
256,192,17977,1,0,0:0:0:0:
256,192,18146,1,8,0:0:0:0:
256,192,18314,1,0,0:0:0:0:
256,192,18399,1,8,0:0:0:0:
256,192,18820,1,4,0:0:0:0:
256,192,18989,1,4,0:0:0:0:
256,192,19157,1,0,0:0:0:0:
256,192,19326,1,8,0:0:0:0:
256,192,19494,1,12,0:0:0:0:
256,192,19663,1,0,0:0:0:0:
256,192,19831,1,8,0:0:0:0:
256,192,20000,1,4,0:0:0:0:
256,192,20168,1,8,0:0:0:0:
256,192,20337,1,8,0:0:0:0:
256,192,20505,1,4,0:0:0:0:
256,192,20674,1,0,0:0:0:0:
256,192,20843,1,12,0:0:0:0:
256,192,21011,1,4,0:0:0:0:
256,192,21685,5,4,0:0:0:0:
256,192,22022,1,0,0:0:0:0:
256,192,22191,1,8,0:0:0:0:
256,192,22528,1,8,0:0:0:0:
256,192,22697,1,4,0:0:0:0:
256,192,23034,1,8,0:0:0:0:
256,192,23371,1,0,0:0:0:0:
256,192,23708,1,0,0:0:0:0:
256,192,24045,1,8,0:0:0:0:
256,192,24213,1,4,0:0:0:0:
256,192,24382,1,4,0:0:0:0:
256,192,24551,1,4,0:0:0:0:
256,192,24888,1,0,0:0:0:0:
256,192,25056,1,0,0:0:0:0:
256,192,25225,1,8,0:0:0:0:
256,192,25393,1,4,0:0:0:0:
256,192,25730,1,0,0:0:0:0:
256,192,25899,1,8,0:0:0:0:
256,192,26236,1,4,0:0:0:0:
256,192,26405,1,12,0:0:0:0:
256,192,27079,1,4,0:0:0:0:
256,192,27247,1,4,0:0:0:0:
256,192,27416,12,8,27669,0:0:0:0:
256,192,27753,5,0,0:0:0:0:
256,192,27837,1,8,0:0:0:0:
256,192,28090,5,4,0:0:0:0:
256,192,28427,1,0,0:0:0:0:
256,192,28596,1,8,0:0:0:0:
256,192,28764,1,0,0:0:0:0:
256,192,28933,1,8,0:0:0:0:
256,192,29101,1,0,0:0:0:0:
256,192,29186,1,8,0:0:0:0:
256,192,29607,1,4,0:0:0:0:
256,192,29775,1,4,0:0:0:0:
256,192,29944,1,0,0:0:0:0:
256,192,30113,1,8,0:0:0:0:
256,192,30281,1,12,0:0:0:0:
256,192,30450,1,0,0:0:0:0:
256,192,30618,1,8,0:0:0:0:
256,192,30787,1,4,0:0:0:0:
256,192,30955,1,8,0:0:0:0:
256,192,31124,1,8,0:0:0:0:
256,192,31292,1,4,0:0:0:0:
256,192,31461,1,0,0:0:0:0:
256,192,31629,1,12,0:0:0:0:
256,192,31798,1,4,0:0:0:0:
256,192,31967,1,8,0:0:0:0:
256,192,32135,1,0,0:0:0:0:
256,192,32304,1,8,0:0:0:0:
256,192,32472,5,4,0:0:0:0:
256,192,32809,1,0,0:0:0:0:
256,192,32978,1,8,0:0:0:0:
256,192,33315,1,8,0:0:0:0:
256,192,33483,1,4,0:0:0:0:
256,192,33821,1,8,0:0:0:0:
256,192,34158,1,0,0:0:0:0:
256,192,34495,1,0,0:0:0:0:
256,192,34832,1,8,0:0:0:0:
256,192,35000,1,4,0:0:0:0:
256,192,35169,1,4,0:0:0:0:
256,192,35337,1,4,0:0:0:0:
256,192,35674,1,0,0:0:0:0:
256,192,35843,1,0,0:0:0:0:
256,192,36012,1,8,0:0:0:0:
256,192,36180,1,4,0:0:0:0:
256,192,36517,1,0,0:0:0:0:
256,192,36686,1,8,0:0:0:0:
256,192,37023,1,4,0:0:0:0:
256,192,37191,1,12,0:0:0:0:
256,192,37866,1,4,0:0:0:0:
256,192,38034,1,4,0:0:0:0:
256,192,38203,12,8,38455,0:0:0:0:
256,192,38540,5,0,0:0:0:0:
256,192,38624,1,8,0:0:0:0:
256,192,38877,5,4,0:0:0:0:
256,192,39214,1,0,0:0:0:0:
256,192,39382,1,8,0:0:0:0:
256,192,39551,1,0,0:0:0:0:
256,192,39720,1,8,0:0:0:0:
256,192,39888,1,0,0:0:0:0:
256,192,39972,1,8,0:0:0:0:
256,192,40394,1,4,0:0:0:0:
256,192,40562,1,4,0:0:0:0:
256,192,40731,1,0,0:0:0:0:
256,192,40899,1,8,0:0:0:0:
256,192,41068,1,12,0:0:0:0:
256,192,41236,1,0,0:0:0:0:
256,192,41405,1,8,0:0:0:0:
256,192,41574,1,4,0:0:0:0:
256,192,41742,1,8,0:0:0:0:
256,192,41911,1,8,0:0:0:0:
256,192,42079,1,4,0:0:0:0:
256,192,42248,1,0,0:0:0:0:
256,192,42416,1,12,0:0:0:0:
256,192,42585,1,4,0:0:0:0:
