osu file format v14

[General]
AudioFilename: audio.mp3
AudioLeadIn: 0
PreviewTime: 11759
Countdown: 0
SampleSet: Soft
StackLeniency: 0.7
Mode: 0
LetterboxInBreaks: 0
WidescreenStoryboard: 1

[Editor]
DistanceSpacing: 1
BeatDivisor: 4
GridSize: 4
TimelineZoom: 1.9

[Metadata]
Title:Touch off (TV Size)
TitleUnicode:Touch off (TV Size)
Artist:UVERworld
ArtistUnicode:UVERworld
Creator:VINXIS
Version:Normal
Source:約束のネバーランド
Tags:the promised neverland yakusoku no never deetz captin1 meyrink anime opening op japanese
BeatmapID:1960507
BeatmapSetID:925328

[Difficulty]
HPDrainRate:4
CircleSize:3
OverallDifficulty:4
ApproachRate:5
SliderMultiplier:0.999999999999999
SliderTickRate:1

[Events]
//Background and Video events
0,0,"pic.png",0,0
Video,-76,"vid.flv"
//Break Periods
//Storyboard Layer 0 (Background)
//Storyboard Layer 1 (Fail)
//Storyboard Layer 2 (Pass)
//Storyboard Layer 3 (Foreground)
//Storyboard Sound Samples

[TimingPoints]
359,300,4,2,1,40,1,0
7559,-100,4,2,1,60,0,0
11759,-100,4,2,1,70,0,0
21959,-100,4,2,1,60,0,0
24359,-100,4,2,1,50,0,0
26759,-100,4,2,1,70,0,0
86759,-100,4,2,1,50,0,0

[Colours]
Combo1 : 159,207,255
Combo2 : 255,128,64
Combo3 : 192,192,192
Combo4 : 122,224,122

[HitObjects]
103,282,2759,6,0,P|149:295|207:294,1,99.9999999999999,0|0,3:0|0:0,0:0:0:0:
289,249,3359,2,0,L|286:140,1,99.9999999999999,8|0,0:0|3:0,0:0:0:0:
268,102,3809,2,0,L|376:105,1,99.9999999999999,0|0,3:0|0:0,0:0:0:0:
409,77,4259,2,0,L|404:25,2,50,0|0|8,0:0|3:0|0:0,0:0:0:0:
318,196,5009,1,0,3:0:0:0:
318,196,5159,6,0,P|333:264|333:296,1,99.9999999999999,2|0,3:2|0:0,0:0:0:0:
256,358,5759,2,0,P|188:373|156:373,1,99.9999999999999,8|0,0:0|3:0,0:0:0:0:
111,353,6209,2,0,P|98:301|100:242,1,99.9999999999999,0|0,3:0|0:0,0:0:0:0:
46,175,6809,1,0,3:0:0:0:
46,175,6959,2,0,L|50:124,1,50,0|0,1:0|1:0,0:0:0:0:
84,88,7259,2,0,L|88:37,1,50,0|0,1:0|1:0,0:0:0:0:
119,1,7559,5,6,1:2:0:0:
265,33,8009,2,0,P|268:94|262:156,1,99.9999999999999,8|8,0:3|0:3,0:0:0:0:
242,177,8459,1,8,0:3:0:0:
199,203,8609,1,6,1:2:0:0:
205,302,8909,1,6,1:2:0:0:
256,192,9359,12,0,11009,0:0:0:0:
446,320,12359,6,0,P|458:263|459:257,1,50,2|2,1:1|3:1,0:0:0:0:
434,177,12809,1,0,1:0:0:0:
434,177,12959,2,0,L|325:171,1,99.9999999999999,8|2,0:0|3:1,0:0:0:0:
284,165,13409,1,2,3:1:0:0:
191,204,13709,2,0,L|196:264,2,50,8|0|0,0:0|0:0|1:0,0:0:0:0:
152,172,14159,2,0,L|147:122,1,50,10|2,0:1|0:1,0:0:0:0:
212,45,14609,1,8,0:0:0:0:
212,45,14759,6,0,L|279:43,1,50,2|2,1:1|3:1,0:0:0:0:
363,75,15209,1,0,1:0:0:0:
363,75,15359,2,0,P|367:136|366:184,1,99.9999999999999,8|2,0:0|3:1,0:0:0:0:
333,213,15809,1,2,3:1:0:0:
385,298,16109,2,0,L|445:293,2,50,8|0|0,0:0|0:0|1:0,0:0:0:0:
353,337,16559,2,0,L|303:341,1,50,10|2,0:1|0:1,0:0:0:0:
228,279,17009,1,8,0:0:0:0:
228,279,17159,6,0,L|230:215,1,50,2|2,1:1|3:1,0:0:0:0:
176,148,17609,1,0,1:0:0:0:
176,148,17759,2,0,B|184:105|184:105|175:89|175:89|184:44,1,99.9999999999999,8|2,0:0|3:1,0:0:0:0:
191,1,18209,1,2,3:1:0:0:
279,46,18509,2,0,L|275:95,2,50,0|0|0,0:0|1:0|0:0,0:0:0:0:
323,22,18959,2,0,L|389:26,1,50,10|2,0:1|0:1,0:0:0:0:
465,76,19409,1,8,0:0:0:0:
465,76,19559,6,0,L|468:133,1,50,2|2,1:1|3:1,0:0:0:0:
492,228,20009,1,0,1:0:0:0:
492,228,20159,2,0,L|385:217,1,99.9999999999999,8|10,0:0|0:1,0:0:0:0:
343,229,20609,1,2,0:1:0:0:
260,183,20909,1,8,0:0:0:0:
260,183,21059,2,0,L|153:169,1,99.9999999999999,2|8,0:1|0:0,0:0:0:0:
121,138,21509,2,0,L|133:81,2,50,2|0|2,0:0|1:0|0:0,0:0:0:0:
77,162,21959,5,2,0:0:0:0:
256,192,22109,12,2,24359,0:0:0:0:
297,56,26309,6,0,L|354:57,2,50,2|2|2,0:0|0:0|0:0,0:0:0:0:
247,53,26759,6,0,L|254:156,1,99.9999999999999,2|2,1:1|1:1,0:0:0:0:
279,249,27359,1,8,0:0:0:0:
279,249,27509,2,0,L|222:250,2,50,2|0|8,0:1|0:0|0:0,0:0:0:0:
329,246,27959,2,8,L|322:349,1,99.9999999999999,2|2,0:1|0:1,0:0:0:0:
232,374,28559,2,0,L|176:371,1,50,8|2,0:0|0:1,0:0:0:0:
147,335,28859,2,0,L|91:332,1,50,0|0,3:0|3:0,0:0:0:0:
62,296,29159,6,0,P|75:229|71:177,1,99.9999999999999,2|2,1:1|1:1,0:0:0:0:
84,98,29759,1,8,0:0:0:0:
84,98,29909,2,0,L|35:100,2,50,2|0|8,0:1|0:0|0:0,0:0:0:0:
130,119,30359,2,0,P|117:52|121:0,1,99.9999999999999,2|2,0:1|0:1,0:0:0:0:
216,3,30959,1,8,0:0:0:0:
292,66,31259,1,8,3:2:0:0:
386,31,31559,6,0,B|396:80|396:80|381:149,1,99.9999999999999,2|2,1:1|0:1,0:0:0:0:
480,175,32159,1,8,0:0:0:0:
480,175,32309,2,0,B|469:223|469:223|479:272,1,99.9999999999999,2|10,0:1|0:1,0:0:0:0:
401,332,32909,1,0,0:0:0:0:
401,332,33059,2,0,B|271:305|355:383|205:349,1,200,2|2,0:1|3:1,0:0:0:0:
109,346,33959,5,2,1:2:0:0:
20,300,34259,1,2,0:1:0:0:
111,253,34559,2,0,P|110:194|122:142,1,99.9999999999999,8|2,0:0|0:1,0:0:0:0:
125,104,35009,1,8,0:0:0:0:
186,25,35309,1,0,3:0:0:0:
186,25,35459,2,0,L|250:21,2,50,2|0|10,1:1|0:0|0:1,0:0:0:0:
241,108,36059,2,0,L|305:104,1,50,10|8,0:1|0:0,0:0:0:0:
340,114,36359,6,0,B|358:149|358:149|351:225,1,99.9999999999999,2|2,1:1|1:1,0:0:0:0:
319,304,36959,1,8,0:0:0:0:
319,304,37109,2,0,L|369:301,2,50,2|0|8,0:1|0:0|0:0,0:0:0:0:
271,293,37559,2,0,B|253:258|253:258|260:182,1,99.9999999999999,2|2,0:1|0:1,0:0:0:0:
264,97,38159,2,0,L|201:101,1,50,8|2,0:0|0:1,0:0:0:0:
167,86,38459,2,0,L|104:90,1,50,0|0,0:0|0:0,0:0:0:0:
67,79,38759,6,0,P|55:147|65:186,1,99.9999999999999,2|2,1:1|0:1,0:0:0:0:
109,189,39209,1,0,0:0:0:0:
157,201,39359,2,0,P|169:269|159:308,1,99.9999999999999,10|2,0:1|0:1,0:0:0:0:
191,339,39809,1,8,0:0:0:0:
234,363,39959,2,0,P|283:366|333:360,1,99.9999999999999,2|2,0:1|0:1,0:0:0:0:
426,323,40559,1,8,0:0:0:0:
377,237,40859,1,8,0:0:0:0:
466,193,41159,6,0,L|469:91,1,99.9999999999999,2|2,1:1|0:1,0:0:0:0:
435,49,41609,1,0,0:0:0:0:
435,49,41759,2,0,L|330:42,1,99.9999999999999,10|2,0:1|0:1,0:0:0:0:
293,69,42209,1,8,0:0:0:0:
293,69,42359,2,0,L|188:62,1,99.9999999999999,2|0,0:1|0:0,0:0:0:0:
94,80,42959,1,8,0:0:0:0:
141,169,43259,1,2,0:1:0:0:
240,173,43559,6,0,P|235:231|234:282,1,99.9999999999999,2|0,1:2|0:0,0:0:0:0:
303,344,44159,2,0,B|350:339|350:339|381:361|381:361|406:376|449:379|449:379|496:358,1,200,8|2,0:0|3:3,0:0:0:0:
505,313,44909,1,0,0:0:0:0:
480,215,45209,1,8,0:3:0:0:
392,165,45509,1,4,0:3:0:0:
293,164,45809,1,0,0:0:0:0:
293,164,45959,6,0,P|234:155|91:194,1,200,6|8,1:2|0:0,0:0:0:0:
20,250,46859,1,0,0:0:0:0:
60,342,47159,1,2,0:0:0:0:
60,342,47309,1,0,0:0:0:0:
157,318,47609,2,0,L|165:257,2,50,0|8|0,1:0|0:0|0:0,0:0:0:0:
244,366,48209,1,2,0:0:0:0:
244,366,48359,6,0,P|308:360|442:374,1,200,0|8,1:0|0:0,0:0:0:0:
502,293,49259,1,0,0:0:0:0:
419,236,49559,2,0,P|419:161|426:86,1,150,2|0,0:0|1:0,0:0:0:0:
402,42,50159,2,0,L|344:45,1,50,8|0,0:0|0:0,0:0:0:0:
253,32,50609,6,0,L|139:42,1,99.9999999999999,2|2,0:0|0:2,0:0:0:0:
110,66,51059,2,0,L|120:183,1,99.9999999999999,0|8,1:0|0:0,0:0:0:0:
212,213,51659,1,0,0:0:0:0:
212,213,51809,2,0,L|326:223,1,99.9999999999999,2|2,0:0|0:0,0:0:0:0:
350,253,52259,2,0,L|340:370,1,99.9999999999999,0|8,1:0|0:0,0:0:0:0:
247,376,52859,1,0,0:0:0:0:
247,376,53009,6,0,P|147:353|90:367,1,150,2|0,0:0|1:0,0:0:0:0:
30,291,53759,2,0,L|42:185,1,99.9999999999999,8|0,0:0|0:0,0:0:0:0:
80,99,54359,2,0,P|139:87|193:87,1,99.9999999999999,2|0,0:0|1:0,0:0:0:0:
278,82,54959,2,0,P|332:84|370:81,2,74.9999999999999,8|0|8,0:0|0:0|0:0,0:0:0:0:
255,127,55559,6,0,L|249:326,1,200,2|8,1:2|0:0,0:0:0:0:
250,376,56309,1,0,0:0:0:0:
115,309,56759,2,0,P|62:317|28:315,2,74.9999999999999,2|0|0,0:0|0:0|1:0,0:0:0:0:
145,268,57359,2,0,L|142:208,1,50,8|0,0:0|0:0,0:0:0:0:
204,135,57809,1,0,0:0:0:0:
204,135,57959,6,0,B|268:128|268:128|292:139|292:139|406:129,1,200,2|8,1:2|0:0,0:0:0:0:
459,48,58859,1,0,0:0:0:0:
502,137,59159,2,0,L|512:243,1,99.9999999999999,2|0,0:0|0:0,0:0:0:0:
484,278,59609,2,0,L|384:287,1,99.9999999999999,0|0,1:0|0:0,0:0:0:0:
295,241,60209,5,2,0:0:0:0:
298,340,60509,1,0,0:0:0:0:
198,351,60809,2,0,P|206:301|200:252,1,99.9999999999999,0|0,0:0|0:0,0:0:0:0:
162,159,61409,1,2,0:0:0:0:
103,240,61709,1,0,0:0:0:0:
19,197,62009,1,0,0:0:0:0:
19,197,62159,2,0,L|18:127,1,50,8|0,0:0|0:0,0:0:0:0:
37,101,62459,2,0,L|36:31,1,50,0|0,3:0|3:0,0:0:0:0:
54,5,62759,5,2,0:0:0:0:
195,145,63359,1,2,0:0:0:0:
376,57,63959,1,2,0:0:0:0:
376,57,64709,2,0,L|388:164,1,99.9999999999999,2|0,0:0|0:0,0:0:0:0:
397,205,65159,5,6,1:1:0:0:
312,259,65459,1,2,0:1:0:0:
236,193,65759,1,8,0:0:0:0:
236,193,65909,2,0,P|192:187|127:212,1,99.9999999999999,2|2,0:1|0:1,0:0:0:0:
100,295,66509,1,2,0:1:0:0:
100,295,66659,2,0,P|144:301|209:276,1,99.9999999999999,0|8,0:0|0:0,0:0:0:0:
284,333,67259,1,2,0:1:0:0:
383,325,67559,6,0,L|390:374,2,50,2|0|2,1:1|0:0|0:1,0:0:0:0:
414,228,68159,1,8,0:0:0:0:
320,249,68459,1,0,0:0:0:0:
320,249,68609,2,0,P|282:235|215:230,1,99.9999999999999,2|2,0:1|0:1,0:0:0:0:
173,233,69059,2,0,P|187:184|187:129,1,99.9999999999999,0|8,0:0|0:0,0:0:0:0:
256,62,69659,1,2,0:1:0:0:
308,146,69959,6,0,L|421:152,1,99.9999999999999,2|2,1:2|0:2,0:0:0:0:
459,237,70559,2,0,L|451:293,2,50,10|2|0,0:0|0:0|0:0,0:0:0:0:
500,208,71009,2,0,L|496:103,1,99.9999999999999,2|2,0:0|0:0,0:0:0:0:
460,73,71459,1,0,1:0:0:0:
371,26,71759,1,8,0:0:0:0:
296,95,72059,1,0,0:0:0:0:
202,59,72359,6,0,L|191:5,2,50,2|0|0,1:2|0:0|0:0,0:0:0:0:
151,145,72959,1,8,0:0:0:0:
216,220,73259,1,0,0:0:0:0:
216,220,73409,2,0,L|329:216,1,99.9999999999999,2|0,0:0|0:0,0:0:0:0:
360,194,73859,2,0,L|358:302,1,99.9999999999999,2|10,1:1|0:1,0:0:0:0:
406,381,74459,1,0,0:0:0:0:
307,362,74759,6,0,L|205:365,1,99.9999999999999,6|2,1:1|0:1,0:0:0:0:
123,310,75359,1,8,0:0:0:0:
123,310,75509,2,0,L|120:203,1,99.9999999999999,2|2,0:1|0:1,0:0:0:0:
76,120,76109,1,2,0:1:0:0:
76,120,76259,2,0,L|185:131,1,99.9999999999999,0|8,0:0|0:0,0:0:0:0:
258,73,76859,1,2,0:1:0:0:
333,138,77159,6,0,P|338:203|335:238,1,99.9999999999999,2|2,1:1|0:1,0:0:0:0:
316,283,77609,1,0,0:0:0:0:
280,318,77759,1,8,0:0:0:0:
205,251,78059,1,0,0:0:0:0:
205,251,78209,2,0,L|105:246,1,99.9999999999999,2|2,0:1|0:1,0:0:0:0:
55,236,78659,2,0,P|55:183|72:124,1,99.9999999999999,0|8,0:0|0:0,0:0:0:0:
153,89,79259,1,2,0:1:0:0:
240,137,79559,6,0,L|345:129,1,99.9999999999999,2|0,1:1|0:0,0:0:0:0:
432,91,80159,2,0,L|436:25,2,50,10|0|2,0:0|0:0|0:1,0:0:0:0:
437,140,80609,2,0,L|448:243,1,99.9999999999999,2|2,0:1|0:1,0:0:0:0:
457,288,81059,1,0,1:0:0:0:
371,340,81359,1,8,0:0:0:0:
307,263,81659,1,0,0:0:0:0:
213,299,81959,6,0,L|202:353,2,50,2|0|0,1:2|0:0|0:0,0:0:0:0:
162,213,82559,1,8,0:0:0:0:
227,138,82859,1,0,0:0:0:0:
227,138,83009,2,0,L|340:142,1,99.9999999999999,2|0,0:0|0:0,0:0:0:0:
371,164,83459,2,0,L|369:56,2,99.9999999999999,2|10|0,1:1|0:1|0:0,0:0:0:0:
446,229,84359,5,6,1:2:0:0:
393,314,84659,1,0,0:2:0:0:
311,256,84959,2,0,L|321:193,2,50,8|0|0,0:0|0:0|0:0,0:0:0:0:
277,293,85409,2,0,L|171:274,1,99.9999999999999,2|2,0:0|0:0,0:0:0:0:
129,263,85859,1,0,1:0:0:0:
33,292,86159,1,8,0:0:0:0:
14,193,86459,1,0,0:0:0:0:
110,166,86759,6,0,P|137:174|267:153,1,150
436,245,87809,2,0,B|444:186|444:186|419:148|419:148|441:4,1,250,2|0,0:0|0:0,0:0:0:0:
