osu file format v14

[General]
AudioFilename: audio.mp3
AudioLeadIn: 0
PreviewTime: 11759
Countdown: 0
SampleSet: Soft
StackLeniency: 0.5
Mode: 0
LetterboxInBreaks: 0
WidescreenStoryboard: 0

[Editor]
Bookmarks: 2759,7559,12359,21959,26759,36059,36359,45959,50759,55559,65159,74759,84359
DistanceSpacing: 1.3
BeatDivisor: 4
GridSize: 4
TimelineZoom: 1.9

[Metadata]
Title:Touch off (TV Size)
TitleUnicode:Touch off (TV Size)
Artist:UVERworld
ArtistUnicode:UVERworld
Creator:VINXIS
Version:Meyrink's Hard
Source:約束のネバーランド
Tags:the promised neverland yakusoku no never deetz captin1 meyrink anime opening op japanese
BeatmapID:1961221
BeatmapSetID:925328

[Difficulty]
HPDrainRate:4.5
CircleSize:4
OverallDifficulty:6
ApproachRate:8
SliderMultiplier:1.6
SliderTickRate:1

[Events]
//Background and Video events
0,0,"pic.png",0,0
Video,-76,"vid.flv"
//Break Periods
2,9359,11009
//Storyboard Layer 0 (Background)
//Storyboard Layer 1 (Fail)
//Storyboard Layer 2 (Pass)
//Storyboard Layer 3 (Foreground)
//Storyboard Sound Samples

[TimingPoints]
359,300,4,2,1,40,1,0
2759,-133.333333333333,4,2,1,40,0,0
7559,-100,4,2,1,60,0,0
11759,-100,4,2,1,70,0,0
12359,-100,4,2,1,70,0,0
21359,-100,4,2,1,70,0,0
21959,-133.333333333333,4,2,1,60,0,0
24359,-133.333333333333,4,2,1,50,0,0
26159,-100,4,2,1,50,0,0
26759,-100,4,2,1,70,0,0
27059,-100,4,2,1,70,0,0
29159,-100,4,2,1,70,0,0
29459,-100,4,2,1,70,0,0
36359,-100,4,2,1,70,0,0
36659,-100,4,2,1,70,0,0
38759,-100,4,2,1,70,0,0
39959,-100,4,2,1,70,0,0
45959,-100,4,2,1,70,0,0
63959,-133.333333333333,4,2,1,70,0,0
64709,-133.333333333333,4,2,1,70,0,0
65159,-100,4,2,1,70,0,0
86759,-133.333333333333,4,2,1,50,0,0
87809,-133.333333333333,4,2,1,50,0,0

[Colours]
Combo1 : 159,207,255
Combo2 : 255,128,64
Combo3 : 192,192,192
Combo4 : 122,224,122

[HitObjects]
297,226,2609,5,8,0:0:0:0:
297,226,2684,1,8,0:0:0:0:
297,225,2759,2,0,P|351:201|410:207,1,120.000004577637,0|0,1:0|0:0,0:0:0:0:
478,256,3209,1,0,0:0:0:0:
434,327,3359,2,0,P|379:351|320:344,1,120.000004577637,8|0,0:0|1:0,0:0:0:0:
242,313,3809,1,0,1:0:0:0:
180,249,3959,6,0,L|188:188,1,60.0000022888184,0|0,0:0|0:0,0:0:0:0:
93,107,4259,2,0,L|100:166,1,60.0000022888184,0|0,0:0|1:0,0:0:0:0:
62,269,4559,2,0,P|120:255|179:248,1,120.000004577637,8|0,0:0|0:0,0:0:0:0:
264,195,5009,1,0,1:0:0:0:
336,246,5159,6,0,P|395:253|453:266,1,120.000004577637,0|0,1:0|0:0,0:0:0:0:
511,205,5609,1,0,0:0:0:0:
434,167,5759,2,0,P|427:108|453:54,1,120.000004577637,8|0,0:0|1:0,0:0:0:0:
379,17,6209,1,0,1:0:0:0:
320,85,6359,6,0,P|290:93|261:94,1,60.0000022888184,2|0,0:0|0:0,0:0:0:0:
189,152,6659,2,0,P|160:144|130:142,1,60.0000022888184,2|0,0:0|0:0,0:0:0:0:
28,156,6959,5,2,0:2:0:0:
28,156,7109,1,2,0:2:0:0:
98,239,7259,1,2,0:2:0:0:
98,239,7409,1,2,0:2:0:0:
20,312,7559,6,0,B|12:339|15:365|15:365|60:341|118:346,1,160,4|0,1:2|0:0,0:0:0:0:
211,282,8009,2,0,L|189:159,1,120,8|0,0:3|0:0,0:0:0:0:
184,133,8309,1,8,0:3:0:0:
184,133,8459,1,0,1:0:0:0:
98,239,8609,1,4,1:2:0:0:
321,270,8909,1,4,1:2:0:0:
321,270,11759,6,0,B|252:230|234:301|169:262,1,160,12|8,1:2|0:0,0:0:0:0:
84,280,12209,1,8,0:0:0:0:
34,204,12359,5,4,1:2:0:0:
34,204,12509,2,0,P|32:125|69:55,1,160,0|0,1:0|1:0,0:0:0:0:
143,6,12959,2,0,P|181:14|221:20,1,80,8|0,0:0|0:0,0:0:0:0:
289,79,13259,1,0,1:0:0:0:
289,79,13409,1,0,1:0:0:0:
234,148,13559,6,0,P|194:154|155:163,1,80,0|8,0:0|0:0,0:0:0:0:
216,244,13859,2,0,P|225:282|231:322,1,80,0|0,1:0|1:0,0:0:0:0:
143,296,14159,2,0,P|103:290|64:280,1,80,8|0,0:0|1:0,0:0:0:0:
16,205,14459,1,0,0:0:0:0:
57,125,14609,1,8,0:0:0:0:
57,125,14759,5,0,1:0:0:0:
129,181,14909,2,0,P|206:193|277:159,1,160,0|0,1:0|1:0,0:0:0:0:
369,186,15359,2,0,P|362:225|356:265,1,80,8|0,0:0|0:0,0:0:0:0:
436,303,15659,2,0,P|441:263|448:223,1,80,8|0,0:0|0:0,0:0:0:0:
503,155,15959,1,0,0:0:0:0:
427,111,16109,6,0,B|399:76|403:27|403:27|368:56|339:56,1,160,8|0,0:0|1:0,0:0:0:0:
263,98,16559,1,8,0:0:0:0:
180,64,16709,2,0,P|103:50|34:87,1,160,0|8,1:0|0:0,0:0:0:0:
53,184,17159,6,0,P|129:197|198:160,1,160,4|0,1:2|0:0,0:0:0:0:
263,98,17609,1,0,1:0:0:0:
263,98,17759,2,0,P|302:95|341:104,1,80,8|0,0:0|0:0,0:0:0:0:
399,171,18059,1,0,1:0:0:0:
399,171,18209,1,0,1:0:0:0:
351,245,18359,6,0,P|311:242|272:251,1,80,0|8,0:0|0:0,0:0:0:0:
198,202,18659,2,0,P|158:205|119:196,1,80,0|0,0:0|1:0,0:0:0:0:
37,164,18959,1,8,0:0:0:0:
37,164,19109,1,0,1:0:0:0:
52,250,19259,2,0,L|41:329,1,80,0|8,0:0|0:0,0:0:0:0:
119,370,19559,5,0,1:0:0:0:
119,370,19709,2,0,P|198:348|283:347,1,160,0|0,1:0|1:0,0:0:0:0:
364,353,20159,2,0,P|402:284|385:208,1,160,8|8,0:0|0:0,0:0:0:0:
312,123,20609,2,0,P|274:192|291:268,1,160,0|8,0:0|0:0,0:0:0:0:
383,318,21059,2,0,P|420:306|460:302,1,80,0|0,1:0|1:0,0:0:0:0:
512,230,21359,5,8,0:0:0:0:
512,230,21509,1,0,0:0:0:0:
476,149,21659,1,0,1:0:0:0:
476,149,21809,1,0,1:0:0:0:
386,155,21959,6,0,P|356:155|326:149,1,60.0000022888184,2|0,0:0|0:0,0:0:0:0:
257,101,22259,2,0,L|266:39,2,60.0000022888184,2|2|2,0:0|0:0|0:0,0:0:0:0:
141,209,22859,6,0,L|149:268,1,60.0000022888184,2|0,0:0|0:0,0:0:0:0:
91,329,23159,2,0,P|61:329|31:323,2,60.0000022888184,2|2|2,0:0|0:0|0:0,0:0:0:0:
242,237,23759,5,2,0:0:0:0:
242,237,23909,1,2,0:0:0:0:
215,325,24059,1,2,0:0:0:0:
215,325,24209,1,2,0:0:0:0:
308,301,24359,6,0,P|338:301|368:307,1,60.0000022888184,2|0,0:0|0:0,0:0:0:0:
441,265,24659,2,0,P|446:235|447:205,2,60.0000022888184,2|2|2,0:0|0:0|0:0,0:0:0:0:
279,174,25259,6,0,P|280:144|286:114,1,60.0000022888184,2|0,0:0|0:0,0:0:0:0:
223,58,25559,2,0,P|193:57|163:63,2,60.0000022888184,2|2|2,0:0|0:0|0:0,0:0:0:0:
313,24,26009,1,0,1:0:0:0:
381,79,26159,6,0,P|391:114|391:160,1,80,8|0,0:0|1:0,0:0:0:0:
361,243,26459,1,0,1:0:0:0:
361,243,26609,1,8,0:0:0:0:
287,298,26759,6,0,P|209:279|129:274,2,160,4|0|8,1:2|1:0|0:0,0:0:0:0:
369,329,27509,1,0,1:0:0:0:
476,189,27809,1,8,0:0:0:0:
476,189,27959,2,0,P|436:192|396:199,1,80,0|0,1:0|0:0,0:0:0:0:
309,185,28259,2,0,P|305:145|298:105,1,80,0|0,0:0|1:0,0:0:0:0:
228,52,28559,2,0,P|152:35|90:82,1,160,8|0,0:0|1:0,0:0:0:0:
46,159,29009,1,0,0:0:0:0:
19,242,29159,6,0,B|9:307|39:343|39:343|66:329|90:328,2,160,0|0|8,1:0|1:0|0:0,0:0:0:0:
46,159,29909,1,0,1:0:0:0:
46,159,30059,2,0,L|127:171,1,80,0|8,0:0|0:0,0:0:0:0:
186,233,30359,2,0,P|265:222|344:215,1,160,0|0,1:0|0:0,0:0:0:0:
423,256,30809,1,0,1:0:0:0:
423,256,30959,2,0,P|412:294|405:341,1,80,8|0,0:0|1:0,0:0:0:0:
328,375,31259,2,0,P|290:364|243:357,1,80,8|8,0:0|0:0,0:0:0:0:
203,283,31559,6,0,P|163:288|125:299,1,80,0|0,1:0|0:0,0:0:0:0:
38,281,31859,2,0,P|6:211|32:135,1,160,0|8,1:0|0:0,0:0:0:0:
98,77,32309,1,0,1:0:0:0:
212,210,32609,1,8,0:0:0:0:
212,210,32759,2,0,L|381:191,1,160,0|0,1:0|0:0,0:0:0:0:
416,116,33209,1,0,1:0:0:0:
416,116,33359,2,0,P|457:119|496:132,1,80,8|0,0:0|0:0,0:0:0:0:
493,14,33659,2,0,P|454:26|415:28,1,80,0|0,1:0|0:0,0:0:0:0:
340,73,33959,6,0,B|293:64|252:94|252:94|228:73|224:26,2,160,0|0|8,1:0|0:0|0:0,0:0:0:0:
416,116,34709,1,0,1:0:0:0:
252,180,35009,1,8,0:0:0:0:
252,180,35159,2,0,L|242:224,2,40,0|2|0,1:0|0:0|0:0,0:0:0:0:
338,161,35459,2,0,P|346:200|351:239,1,80,0|0,1:0|0:0,0:0:0:0:
300,311,35759,2,0,P|260:302|221:297,1,80,8|0,0:0|0:0,0:0:0:0:
136,320,36059,2,0,L|127:280,3,40,8|8|8|8,0:0|0:0|0:0|0:0,0:0:0:0:
110,255,36359,6,0,P|38:239|1:303,2,160,4|0|8,1:2|1:0|0:0,0:0:0:0:
160,328,37109,1,0,1:0:0:0:
222,163,37409,1,8,0:0:0:0:
222,163,37559,2,0,P|261:166|301:173,1,80,0|0,1:0|0:0,0:0:0:0:
318,259,37859,2,0,P|278:252|238:248,1,80,0|0,0:0|1:0,0:0:0:0:
262,356,38159,2,0,P|345:341|423:335,1,160,8|0,0:0|1:0,0:0:0:0:
485,276,38609,1,0,0:0:0:0:
485,276,38759,6,0,P|483:236|473:197,1,80,0|0,1:0|0:0,0:0:0:0:
423,124,39059,2,0,P|383:121|344:112,1,80,0|0,1:0|0:0,0:0:0:0:
284,178,39359,2,0,P|244:180|205:189,1,80,8|0,0:0|1:0,0:0:0:0:
135,135,39659,1,0,0:0:0:0:
135,135,39809,1,8,0:0:0:0:
183,61,39959,2,0,P|221:52|261:49,1,80,0|0,1:0|0:0,0:0:0:0:
340,89,40259,2,0,P|415:102|468:46,2,160,0|8|8,0:0|0:0|0:0,0:0:0:0:
262,50,41009,1,8,0:0:0:0:
262,50,41084,1,0,0:0:0:0:
262,50,41159,6,0,P|222:52|183:61,1,80,0|0,1:0|0:0,0:0:0:0:
100,92,41459,2,0,P|60:90|21:81,1,80,0|0,1:0|0:0,0:0:0:0:
1,170,41759,1,8,0:0:0:0:
86,189,41909,2,0,P|117:259|101:338,1,160,0|8,1:0|0:0,0:0:0:0:
185,364,42359,2,0,B|260:326|259:390|339:360,1,160,0|0,1:0|0:0,0:0:0:0:
417,320,42809,1,0,1:0:0:0:
471,244,42959,2,0,P|468:205|461:165,1,80,8|0,0:0|0:0,0:0:0:0:
396,105,43259,2,0,P|356:107|316:114,1,80,0|0,1:0|0:0,0:0:0:0:
233,143,43559,6,0,P|195:74|225:-3,2,160,0|0|8,1:0|0:0|0:0,0:0:0:0:
303,197,44309,1,0,0:0:0:0:
184,326,44609,1,0,1:0:0:0:
184,326,44759,2,0,P|258:340|348:328,1,160,8|0,0:0|0:0,0:0:0:0:
429,316,45209,2,0,P|404:256|312:248,1,160,8|0,0:0|0:0,0:0:0:0:
229,251,45659,1,8,0:0:0:0:
229,251,45809,1,8,0:0:0:0:
160,196,45959,5,4,1:2:0:0:
160,196,46109,2,0,B|102:186|59:213|59:213|46:186|43:142,1,160,0|0,1:0|1:0,0:0:0:0:
9,78,46559,1,8,0:0:0:0:
9,78,46709,2,0,P|86:68|173:58,1,160,0|8,1:0|0:0,0:0:0:0:
251,91,47159,5,0,1:0:0:0:
321,37,47309,2,0,P|398:34|448:93,1,160,0|0,1:0|1:0,0:0:0:0:
494,168,47759,1,8,0:0:0:0:
494,168,47909,2,0,P|477:239|469:335,1,160,0|0,1:0|0:0,0:0:0:0:
382,309,48359,5,0,1:0:0:0:
309,358,48509,2,0,P|234:330|154:334,1,160,0|0,1:0|1:0,0:0:0:0:
95,269,48959,1,8,0:0:0:0:
179,243,49109,2,0,P|213:173|193:97,1,160,0|8,1:0|0:0,0:0:0:0:
121,45,49559,5,0,1:0:0:0:
40,82,49709,2,0,P|5:152|25:228,1,160,0|0,1:0|1:0,0:0:0:0:
73,301,50159,1,8,0:0:0:0:
146,347,50309,2,0,P|225:339|303:322,1,160,0|0,1:0|0:0,0:0:0:0:
385,288,50759,5,0,1:0:0:0:
466,321,50909,2,0,B|472:289|514:259|514:259|484:230|479:188,1,160,0|0,1:0|1:0,0:0:0:0:
505,98,51359,2,0,P|466:100|427:110,1,80,8|0,0:0|1:0,0:0:0:0:
341,89,51659,2,0,P|301:87|262:77,1,80,0|8,0:0|0:0,0:0:0:0:
170,48,51959,5,0,1:0:0:0:
170,48,52109,2,0,P|182:126|196:205,1,160,0|0,1:0|1:0,0:0:0:0:
275,254,52559,2,0,P|283:215|290:175,1,80,8|0,0:0|1:0,0:0:0:0:
372,228,52859,2,0,P|362:266|350:304,1,80,0|8,0:0|0:0,0:0:0:0:
283,357,53159,5,0,1:0:0:0:
283,357,53309,2,0,P|205:336|126:334,1,160,0|0,1:0|1:0,0:0:0:0:
41,309,53759,1,8,0:0:0:0:
41,309,53909,2,0,P|17:235|60:171,1,160,0|0,1:0|0:0,0:0:0:0:
136,126,54359,6,0,P|137:90|149:48,1,80,0|0,1:0|1:0,0:0:0:0:
235,63,54659,2,0,P|234:99|221:141,1,80,0|0,0:0|1:0,0:0:0:0:
267,237,54959,2,0,P|207:228|147:222,2,120,8|2|8,0:0|0:0|0:0,0:0:0:0:
330,298,55559,5,4,1:2:0:0:
330,298,55709,2,0,B|408:286|408:286|433:253|426:209,1,160,0|0,1:0|1:0,0:0:0:0:
412,121,56159,1,8,0:0:0:0:
492,86,56309,2,0,P|412:75|333:62,1,160,0|0,1:0|0:0,0:0:0:0:
263,115,56759,5,0,1:0:0:0:
194,59,56909,2,0,P|117:45|58:95,1,160,0|0,1:0|1:0,0:0:0:0:
30,177,57359,1,8,0:0:0:0:
82,247,57509,2,0,L|240:228,1,160,0|8,1:0|0:0,0:0:0:0:
297,295,57959,5,0,1:0:0:0:
238,361,58109,2,0,P|160:347|80:341,1,160,0|0,1:0|1:0,0:0:0:0:
16,279,58559,1,8,0:0:0:0:
16,279,58709,2,0,B|11:235|-5:212|-5:212|36:210|77:181,1,160,0|8,1:0|0:0,0:0:0:0:
155,231,59159,2,0,L|168:146,1,80,0|0,1:0|1:0,0:0:0:0:
253,154,59459,2,0,L|265:233,1,80,0|0,0:0|1:0,0:0:0:0:
307,310,59759,2,0,P|382:325|440:274,1,160,8|0,0:0|0:0,0:0:0:0:
496,205,60209,6,0,P|483:125|474:46,2,160,8|0|0,0:0|1:0|1:0,0:0:0:0:
440,273,60959,1,8,0:0:0:0:
477,352,61109,2,0,B|391:376|393:317|321:341,1,160,0|8,1:0|0:0,0:0:0:0:
236,363,61559,5,0,0:0:0:0:
236,363,61709,2,0,P|157:343|74:338,1,160,0|0,1:0|1:0,0:0:0:0:
9,282,62159,1,8,0:0:0:0:
56,112,62459,1,8,0:0:0:0:
226,154,62759,5,0,1:0:0:0:
226,154,63359,1,0,1:0:0:0:
226,154,63959,2,0,B|302:179|385:133|385:133|355:169|359:216,1,240.000009155274,0|0,1:0|0:0,0:0:0:0:
404,298,64709,2,0,P|345:282|274:280,1,120.000004577637,0|0,0:0|0:0,0:0:0:0:
205,315,65159,6,0,P|128:333|71:279,1,160,4|2,1:2|0:0,0:0:0:0:
5,119,65759,1,8,0:0:0:0:
5,119,65909,2,0,P|45:110|84:103,1,80,2|0,0:0|0:0,0:0:0:0:
170,87,66209,2,0,L|155:246,1,160,0|0,1:0|1:0,0:0:0:0:
205,315,66659,2,0,P|243:304|283:301,1,80,2|0,1:2|0:0,0:0:0:0:
335,230,66959,2,0,P|374:232|413:243,1,80,8|0,0:0|0:0,0:0:0:0:
488,289,67259,1,2,0:0:0:0:
467,114,67559,6,0,B|473:86|469:60|469:60|425:87|367:85,1,160,0|2,1:0|0:0,0:0:0:0:
200,27,68159,1,8,0:0:0:0:
200,27,68309,2,0,P|239:17|279:17,1,80,2|0,0:0|0:0,0:0:0:0:
251,106,68609,2,0,B|275:167|254:208|254:208|224:201|201:205,1,160,0|0,1:0|1:0,0:0:0:0:
127,155,69059,2,0,P|89:144|49:143,1,80,2|0,1:2|0:0,0:0:0:0:
40,231,69359,2,0,P|78:242|118:243,1,80,8|0,0:0|0:0,0:0:0:0:
200,205,69659,1,2,0:0:0:0:
299,349,69959,6,0,P|306:271|323:189,1,160,0|2,1:0|0:0,0:0:0:0:
423,46,70559,1,8,0:0:0:0:
423,46,70709,2,0,P|428:85|432:125,1,80,2|0,0:0|0:0,0:0:0:0:
397,206,71009,2,0,P|323:176|243:176,1,160,0|0,1:0|1:0,0:0:0:0:
156,188,71459,1,2,1:2:0:0:
45,49,71759,2,0,P|83:40|123:36,1,80,8|0,0:0|0:0,0:0:0:0:
211,47,72059,1,2,0:0:0:0:
211,47,72209,1,0,0:0:0:0:
269,112,72359,6,0,P|290:189|260:263,1,160,0|0,1:0|0:0,0:0:0:0:
204,328,72809,1,2,0:0:0:0:
204,328,72959,2,0,P|268:283|346:291,1,160,8|0,0:0|0:0,0:0:0:0:
424,331,73409,2,0,B|448:332|475:346|475:346|505:311|495:245,1,160,0|0,1:0|1:0,0:0:0:0:
463,171,73859,1,2,1:2:0:0:
339,46,74159,2,0,P|300:54|260:61,1,80,8|0,0:0|1:0,0:0:0:0:
155,130,74459,2,0,P|194:136|233:145,1,80,2|0,0:0|0:0,0:0:0:0:
336,150,74759,6,0,P|316:227|306:306,1,160,4|2,1:2|0:0,0:0:0:0:
137,358,75359,1,8,0:0:0:0:
137,358,75509,2,0,P|132:318|124:279,1,80,2|0,0:0|0:0,0:0:0:0:
41,236,75809,2,0,P|102:188|181:206,1,160,0|0,1:0|1:0,0:0:0:0:
248,255,76259,2,0,P|287:253|326:243,1,80,2|0,1:2|0:0,0:0:0:0:
414,228,76559,2,0,P|424:189|426:149,1,80,8|0,0:0|0:0,0:0:0:0:
403,64,76859,1,2,0:0:0:0:
236,7,77159,6,0,P|207:79|234:153,1,160,0|2,1:0|0:0,0:0:0:0:
373,261,77759,1,8,0:0:0:0:
373,261,77909,2,0,P|333:263|294:273,1,80,2|0,0:0|0:0,0:0:0:0:
224,325,78209,2,0,B|173:317|173:317|121:330|121:330|66:321,1,160,0|0,1:0|1:0,0:0:0:0:
18,247,78659,2,0,P|18:208|31:165,1,80,2|0,1:2|0:0,0:0:0:0:
84,99,78959,2,0,P|123:99|166:112,1,80,8|0,0:0|0:0,0:0:0:0:
242,148,79259,1,2,0:0:0:0:
369,26,79559,5,0,1:0:0:0:
369,26,79709,2,0,B|396:123|396:123|371:176,1,160,0|2,0:0|0:0,0:0:0:0:
310,240,80159,1,8,0:0:0:0:
454,340,80459,1,2,0:0:0:0:
454,340,80609,2,0,P|374:346|294:356,1,160,0|0,1:0|1:0,0:0:0:0:
226,299,81059,1,2,1:2:0:0:
52,328,81359,2,0,P|56:288|65:249,1,80,8|0,0:0|0:0,0:0:0:0:
111,173,81659,1,2,0:0:0:0:
111,173,81809,1,0,0:0:0:0:
183,222,81959,6,0,P|258:241|322:198,1,160,0|0,1:0|0:0,0:0:0:0:
408,217,82409,1,2,0:0:0:0:
408,217,82559,2,0,P|405:137|380:61,1,160,8|0,0:0|0:0,0:0:0:0:
292,57,83009,2,0,P|216:37|152:80,1,160,0|0,1:0|1:0,0:0:0:0:
102,152,83459,1,2,1:2:0:0:
194,301,83759,2,0,P|233:295|273:292,1,80,8|0,0:0|0:0,0:0:0:0:
320,214,84059,2,0,P|280:208|240:205,1,80,0|8,1:0|0:0,0:0:0:0:
112,208,84359,6,0,B|93:248|93:248|118:362,1,160,4|2,1:2|0:0,0:0:0:0:
293,369,84959,1,8,0:0:0:0:
293,369,85109,2,0,L|307:280,1,80,2|0,0:0|0:0,0:0:0:0:
347,212,85409,2,0,B|399:187|450:194|450:194|444:169|427:146,1,160,0|0,1:0|1:0,0:0:0:0:
360,88,85859,1,2,1:2:0:0:
190,138,86159,2,0,P|151:135|111:129,1,80,8|0,0:0|0:0,0:0:0:0:
24,117,86459,1,2,0:0:0:0:
24,117,86609,1,0,0:0:0:0:
60,203,86759,6,0,P|51:232|49:262,1,60.0000022888184,2|0,0:0|0:0,0:0:0:0:
87,331,87059,1,0,0:0:0:0:
87,330,87209,2,0,P|145:319|205:320,1,120.000004577637,2|0,0:0|0:0,0:0:0:0:
283,330,87659,1,0,0:0:0:0:
283,330,87809,6,0,B|328:301|396:320|396:320|398:267|358:244|358:244|385:210|387:156,1,300.000011444092,2|0,0:0|0:0,0:0:0:0:
