osu file format v14

[General]
AudioFilename: audio.mp3
AudioLeadIn: 0
PreviewTime: 170747
Countdown: 0
SampleSet: Soft
StackLeniency: 0.7
Mode: 0
LetterboxInBreaks: 0
WidescreenStoryboard: 1

[Editor]
Bookmarks: 96497
DistanceSpacing: 1
BeatDivisor: 8
GridSize: 16
TimelineZoom: 3.399999

[Metadata]
Title:Touch off
TitleUnicode:Touch off
Artist:UVERworld
ArtistUnicode:UVERworld
Creator:F4UZ4N
Version:NORMAL!
Source:約束のネバーランド
Tags:Dora- doraemonelf the promised neverland yakusoku never emma ray norman japanese anime op opening theme
BeatmapID:2061974
BeatmapSetID:985232

[Difficulty]
HPDrainRate:3
CircleSize:3
OverallDifficulty:4
ApproachRate:5.7
SliderMultiplier:1
SliderTickRate:1

[Events]
//Background and Video events
0,0,"nnn tapi kedua.jpg",0,0
//Break Periods
//Storyboard Layer 0 (Background)
//Storyboard Layer 1 (Fail)
//Storyboard Layer 2 (Pass)
//Storyboard Layer 3 (Foreground)
//Storyboard Layer 4 (Overlay)
//Storyboard Sound Samples

[TimingPoints]
2747,300,4,2,10,40,1,0
2747,-125,4,2,10,40,0,0
5147,-111.111111111111,4,2,10,40,0,0
9347,-90.9090909090908,4,2,10,80,0,0
9947,-90.9090909090908,4,2,10,70,0,0
10997,-83.3333333333333,4,2,10,70,0,0
11747,-83.3333333333333,4,2,10,50,0,0
14147,-83.3333333333333,4,2,2,75,0,0
14897,-95.2380952380952,4,2,2,75,0,0
24347,-100,4,2,2,70,0,0
28397,-100,4,2,3,70,0,0
28547,-100,4,2,3,70,0,0
29447,-103.092783505155,4,2,3,70,0,0
47147,-103.092783505155,4,2,3,75,0,0
48047,-90.9090909090908,4,2,3,75,0,0
48347,-90.9090909090908,4,2,4,60,0,0
65147,-90.9090909090908,4,2,4,70,0,0
67547,-86.9565217391304,4,2,5,80,0,0
88997,-86.9565217391304,4,2,5,65,0,0
89147,-100,4,2,2,60,0,0
90347,-100,4,2,20,50,0,0
90647,-100,4,2,20,60,0,0
90797,-100,4,2,20,65,0,0
90947,-100,4,2,20,70,0,0
91097,-100,4,2,20,75,0,0
91247,-100,4,2,20,80,0,0
91397,-100,4,2,20,90,0,0
91547,-95.2380952380952,4,2,2,70,0,0
95746,-95.2380952380952,4,2,2,70,0,0
95747,-95.2380952380952,4,2,5,70,0,0
96347,-95.2380952380952,4,2,2,65,0,0
96647,-91.743119266055,4,2,5,65,0,0
113147,-111.111111111111,4,2,2,55,0,0
113596,-111.111111111111,4,2,2,55,0,0
114347,-90.9090909090909,4,2,4,60,0,0
114797,-90.9090909090909,4,2,4,60,0,0
115547,-90.9090909090909,4,2,4,65,0,0
125147,-84.7457627118644,4,2,4,65,0,0
129947,-84.7457627118644,4,2,4,55,0,0
134147,-84.7457627118644,4,2,4,20,0,0
134222,-84.7457627118644,4,2,4,30,0,0
134297,-84.7457627118644,4,2,4,40,0,0
134372,-84.7457627118644,4,2,4,50,0,0
134447,-84.7457627118644,4,2,4,60,0,0
134484,-84.7457627118644,4,2,4,65,0,0
134522,-84.7457627118644,4,2,4,70,0,0
134559,-84.7457627118644,4,2,4,75,0,0
134596,-84.7457627118644,4,2,4,75,0,0
134597,-84.7457627118644,4,2,4,80,0,0
134747,-86.9565217391304,4,2,5,80,0,0
156347,-86.9565217391304,4,2,2,65,0,0
157547,-86.9565217391304,4,2,1,55,0,0
157847,-86.9565217391304,4,2,1,55,0,0
158147,-95.2380952380952,4,2,1,55,0,0
161147,-99.009900990099,4,2,7,75,0,0
165947,-99.009900990099,4,2,7,50,0,0
166847,-99.009900990099,4,2,7,60,0,0
167147,-91.743119266055,4,2,7,60,0,0
167747,-91.743119266055,4,2,7,70,0,0
168347,-91.743119266055,4,2,7,60,0,0
169547,-91.743119266055,4,2,7,70,0,0
170747,-80,4,2,8,80,0,1
175547,-80,4,2,2,70,0,1
175847,-80,4,2,8,70,0,1
176147,-80,4,2,8,70,0,1
179747,-80,4,2,7,70,0,1
179897,-80,4,2,8,70,0,1
180047,-80,4,2,8,70,0,1
180347,-80,4,2,8,80,0,1
185147,-80,4,2,2,70,0,1
185297,-80,4,2,8,70,0,1
185747,-80,4,2,8,70,0,1
189947,-80,4,2,4,70,0,0
190247,-91.743119266055,4,2,4,70,0,0
199997,-86.9565217391304,4,2,4,70,0,0
204347,-100,4,2,4,70,0,0
207947,-90.9090909090909,4,2,4,70,0,0
208547,-90.9090909090909,4,2,4,55,0,0
209147,-108.695652173913,4,2,7,70,0,0
213347,-108.695652173913,4,2,10,70,0,0
213947,-90.9090909090909,4,2,2,55,0,0
214397,-90.9090909090909,4,2,10,65,0,0
214997,-90.9090909090909,4,2,4,65,0,0
215297,-90.9090909090909,4,2,3,65,0,0
215747,-90.9090909090909,4,2,3,65,0,0
216347,-90.9090909090909,4,2,4,70,0,0
216647,-90.9090909090909,4,2,3,70,0,0
217547,-90.9090909090909,4,2,3,70,0,0
218147,-90.9090909090909,4,2,5,70,0,0
218747,-90.9090909090909,4,2,5,85,0,0
228347,-90.9090909090909,4,2,5,75,0,0
228497,-86.9565217391304,4,2,5,75,0,0
237947,-83.3333333333333,4,2,5,75,0,0
245147,-92.5925925925926,4,2,2,55,0,0
246797,-92.5925925925926,4,2,2,55,0,0
254597,-92.5925925925926,4,2,99,5,0,0

[Colours]
Combo1 : 255,179,102
Combo2 : 255,143,32
Combo3 : 216,216,216

[HitObjects]
131,226,2747,6,2,L|172:232,4,40
70,278,3647,2,2,L|30:272,4,40,2|2|2|2|2,0:0|0:0|0:0|0:0|0:0,0:0:0:0:
113,344,4547,2,0,L|241:365,1,120,2|0,0:0|3:2,0:0:0:0:
275,355,5147,6,0,L|267:257,1,89.9999972534181,0|8,3:2|0:2,0:0:0:0:
339,211,5747,2,0,L|371:120,1,89.9999972534181,0|0,1:2|3:2,0:0:0:0:
410,108,6197,2,0,L|459:94,1,44.999998626709,0|8,3:2|0:2,0:0:0:0:
403,20,6647,1,8,0:2:0:0:
321,58,6947,2,0,B|280:75|280:75|222:56,1,89.9999972534181,0|8,1:2|0:2,0:0:0:0:
194,44,7397,1,0,3:2:0:0:
194,44,7547,6,0,L|202:142,1,89.9999972534181,0|8,3:2|0:2,0:0:0:0:
130,188,8147,2,0,L|98:279,1,89.9999972534181,0|0,1:2|3:2,0:0:0:0:
59,291,8597,2,0,L|10:305,1,44.999998626709,0|8,3:2|0:2,0:0:0:0:
8,213,9047,1,8,0:2:0:0:
97,149,9347,6,0,P|149:179|213:177,2,110.000003356934,8|8|4,0:1|0:1|0:2,0:0:0:0:
235,58,10397,1,8,0:3:0:0:
290,152,10697,2,0,L|283:208,1,55.0000016784668,4|4,0:3|0:3,0:0:0:0:
275,266,10997,6,0,P|325:229|398:224,1,119.999996337891,8|8,0:1|0:1,0:0:0:0:
256,192,11747,12,0,14147,3:2:0:0:
74,119,14747,5,4,3:1:0:0:
74,119,14897,2,0,L|197:132,1,104.999996795654,0|0,3:2|3:2,0:0:0:0:
218,163,15347,1,0,1:2:0:0:
135,228,15647,2,0,P|119:263|117:285,1,52.4999983978272,0|0,3:2|3:2,0:0:0:0:
215,312,16097,2,0,P|231:277|233:255,1,52.4999983978272,0|0,1:2|3:2,0:0:0:0:
298,181,16547,2,0,B|354:162|354:162|387:195|387:195|449:208,1,157.499995193482,0|0,1:2|1:2,0:0:0:0:
484,228,17147,6,0,L|492:170,1,52.4999983978272,0|0,3:2|3:2,0:0:0:0:
429,91,17597,2,0,L|421:33,1,52.4999983978272,0|0,3:2|1:2,0:0:0:0:
328,4,18047,1,0,1:2:0:0:
328,4,18197,2,0,P|292:26|228:44,1,104.999996795654,0|0,3:2|1:2,0:0:0:0:
180,33,18647,1,0,3:2:0:0:
187,137,18947,1,0,1:2:0:0:
187,137,19097,2,0,P|151:115|87:97,1,104.999996795654,0|0,0:0|1:2,0:0:0:0:
39,108,19547,6,0,L|29:172,1,52.4999983978272,0|0,3:2|3:2,0:0:0:0:
88,247,19997,1,0,3:2:0:0:
88,247,20147,1,0,1:2:0:0:
183,203,20447,2,0,L|174:138,2,52.4999983978272,0|0|0,3:2|3:2|0:0,0:0:0:0:
156,304,21047,1,0,3:2:0:0:
243,361,21347,1,0,1:2:0:0:
326,296,21647,1,0,0:0:0:0:
290,197,21947,6,0,L|131:157,1,157.499995193482,0|0,3:2|3:2,0:0:0:0:
86,174,22547,1,0,1:2:0:0:
109,71,22847,2,0,P|134:65|157:53,1,52.4999983978272,0|0,1:2|3:2,0:0:0:0:
261,70,23297,2,0,P|283:82|309:87,1,52.4999983978272,0|0,1:2|3:2,0:0:0:0:
412,67,23747,2,0,B|420:94|420:94|415:130,3,52.4999983978272,0|0|0|0,1:2|0:0|3:2|3:2,0:0:0:0:
441,161,24347,6,0,B|519:255,2,100,6|2|2,3:2|0:2|0:2,0:0:0:0:
349,200,25247,2,0,B|370:79,2,100,2|2|2,0:2|0:2|0:2,0:0:0:0:
277,269,26147,2,0,L|285:341,1,50,2|2,0:2|0:2,0:0:0:0:
165,224,26747,6,0,B|243:130,2,100,2|2|2,0:2|0:2|0:2,0:0:0:0:
73,185,27647,2,0,B|94:305,2,100,2|2|2,0:2|0:2|0:2,0:0:0:0:
1,116,28547,1,0,1:2:0:0:
66,40,28847,2,0,L|97:93,1,50,0|0,3:2|0:0,0:0:0:0:
128,109,29147,5,4,3:2:0:0:
71,188,29447,2,0,L|177:207,1,97.000002294159,0|0,3:2|1:2,0:0:0:0:
195,243,29897,2,0,L|301:262,1,97.000002294159,0|0,3:2|1:2,0:0:0:0:
338,269,30347,1,0,3:2:0:0:
444,170,30797,1,0,3:2:0:0:
444,170,30947,2,0,L|513:87,1,97.000002294159,0|0,1:2|3:2,0:0:0:0:
431,33,31547,5,0,3:2:0:0:
358,97,31847,2,0,L|252:78,1,97.000002294159,0|0,3:2|1:2,0:0:0:0:
234,42,32297,2,0,L|128:23,1,97.000002294159,0|0,3:2|1:2,0:0:0:0:
91,17,32747,1,0,3:2:0:0:
180,132,33197,1,0,3:2:0:0:
180,132,33347,2,0,L|110:214,2,97.000002294159,0|0|0,1:2|1:2|3:2,0:0:0:0:
238,209,34247,6,0,L|333:226,1,97.000002294159,0|0,3:2|1:2,0:0:0:0:
380,236,34697,2,0,L|412:327,1,97.000002294159,0|0,3:2|1:2,0:0:0:0:
429,373,35147,1,0,3:2:0:0:
296,313,35597,1,0,3:2:0:0:
296,313,35747,2,0,L|236:302,2,48.5000011470795,0|0|0,1:2|3:2|3:2,0:0:0:0:
276,217,36347,5,0,3:2:0:0:
245,124,36647,2,0,L|149:106,1,97.000002294159,0|0,3:2|1:2,0:0:0:0:
101,102,37097,2,0,L|38:176,1,97.000002294159,0|0,3:2|1:2,0:0:0:0:
52,223,37547,1,0,3:2:0:0:
95,309,37847,1,0,3:2:0:0:
190,326,38147,1,0,1:2:0:0:
157,234,38447,2,0,L|136:176,2,48.5000011470795,8|8|4,1:2|0:2|3:2,0:0:0:0:
253,249,39047,6,0,L|315:174,1,97.000002294159,0|0,3:2|1:2,0:0:0:0:
348,139,39497,2,0,L|443:156,1,97.000002294159,0|0,3:2|1:2,0:0:0:0:
491,164,39947,1,0,3:2:0:0:
394,54,40397,1,0,3:2:0:0:
394,54,40547,2,0,L|299:37,1,97.000002294159,0|0,1:2|3:2,0:0:0:0:
231,106,41147,5,0,3:2:0:0:
134,99,41447,2,0,L|72:174,1,97.000002294159,0|0,3:2|1:2,0:0:0:0:
43,213,41897,2,0,L|76:304,1,97.000002294159,0|0,3:2|1:2,0:0:0:0:
98,347,42347,1,0,3:2:0:0:
210,255,42797,1,0,3:2:0:0:
210,255,42947,2,0,L|305:272,2,97.000002294159,0|0|0,1:2|1:2|3:2,0:0:0:0:
167,167,43847,5,0,3:2:0:0:
234,97,44147,1,0,1:2:0:0:
234,97,44297,2,0,L|329:114,1,97.000002294159,0|0,3:2|1:2,0:0:0:0:
376,124,44747,1,0,3:2:0:0:
432,258,45197,1,0,3:2:0:0:
432,258,45347,2,0,L|448:303,2,48.5000011470795,0|0|0,1:2|3:2|3:2,0:0:0:0:
352,314,45947,5,0,3:2:0:0:
285,243,46247,2,0,P|230:250|186:288,1,97.000002294159,0|0,3:2|1:2,0:0:0:0:
170,314,46697,2,0,P|115:307|71:269,1,97.000002294159,0|0,3:2|3:2,0:0:0:0:
59,232,47147,5,0,1:2:0:0:
141,159,47447,1,0,3:2:0:0:
141,159,47597,1,0,1:2:0:0:
103,55,47897,1,0,0:0:0:0:
103,55,48047,2,0,L|178:45,2,55.0000016784668,8|8|4,0:2|0:2|3:1,0:0:0:0:
67,97,48497,6,0,P|85:157|74:213,1,110.000003356934,0|0,3:2|3:2,0:0:0:0:
52,252,48947,2,0,L|43:327,1,55.0000016784668,0|0,1:2|3:2,0:0:0:0:
144,354,49397,2,0,L|198:347,1,55.0000016784668,0|0,3:2|3:2,0:0:0:0:
230,302,49697,6,0,L|216:183,1,110.000003356934,0|0,3:2|3:2,0:0:0:0:
315,243,50297,2,0,L|329:124,1,110.000003356934,0|0,3:2|3:2,0:0:0:0:
222,167,50897,2,0,L|201:-5,1,165.000005035401,0|0,3:2|1:2,0:0:0:0:
254,20,51497,1,0,3:2:0:0:
413,65,51947,6,0,P|367:107|348:211,1,165.000005035401,0|0,3:2|3:2,0:0:0:0:
381,248,52547,2,0,L|371:320,1,55.0000016784668,0|0,1:2|3:2,0:0:0:0:
282,363,52997,1,0,3:2:0:0:
172,349,53297,2,0,L|188:274,2,55.0000016784668,0|0|0,3:2|0:0|3:2,0:0:0:0:
75,296,53897,2,0,P|55:274|41:249,1,55.0000016784668,0|0,3:2|0:0,0:0:0:0:
65,202,54197,5,0,3:2:0:0:
31,97,54497,1,0,3:2:0:0:
137,70,54797,1,0,3:2:0:0:
186,168,55097,2,0,L|249:174,2,55.0000016784668,0|0|0,3:2|0:0|3:2,0:0:0:0:
139,197,55547,5,0,3:2:0:0:
139,197,55697,2,0,P|121:257|132:313,1,110.000003356934,0|0,3:2|3:2,0:0:0:0:
164,343,56147,2,0,L|220:338,1,55.0000016784668,0|0,1:2|3:2,0:0:0:0:
313,366,56597,1,0,3:2:0:0:
313,366,56747,6,0,L|299:240,1,110.000003356934,0|0,3:2|0:0,0:0:0:0:
322,211,57197,2,0,L|329:140,1,55.0000016784668,0|0,3:2|1:2,0:0:0:0:
349,59,57647,1,0,0:0:0:0:
254,57,57947,5,4,3:1:0:0:
254,57,58097,2,0,P|201:91|174:141,1,110.000003356934,0|0,3:2|3:2,0:0:0:0:
183,185,58547,2,0,L|193:258,1,55.0000016784668,0|0,1:2|3:2,0:0:0:0:
271,314,58997,2,0,P|314:291|336:286,1,55.0000016784668,0|0,3:2|3:2,0:0:0:0:
362,324,59297,6,0,L|348:205,1,110.000003356934,0|0,3:2|3:2,0:0:0:0:
447,265,59897,2,0,L|461:146,1,110.000003356934,0|0,3:2|3:2,0:0:0:0:
354,189,60497,2,0,L|333:17,1,165.000005035401,0|0,3:2|1:2,0:0:0:0:
386,42,61097,1,0,3:2:0:0:
227,86,61547,6,0,P|174:70|119:70,1,110.000003356934,0|0,3:2|0:0,0:0:0:0:
84,112,61997,2,0,L|18:103,2,55.0000016784668,0|0|0,3:2|1:2|3:2,0:0:0:0:
53,218,62597,6,0,L|172:204,1,110.000003356934,0|0,3:2|3:2,0:0:0:0:
112,303,63197,2,0,L|231:317,1,110.000003356934,0|0,3:2|3:2,0:0:0:0:
188,210,63797,2,0,L|311:197,2,110.000003356934,0|0|0,3:2|3:2|3:2,0:0:0:0:
141,179,64547,1,0,1:2:0:0:
189,80,64847,2,0,L|256:93,1,55.0000016784668,0|0,1:2|1:2,0:0:0:0:
290,78,65147,5,4,3:2:0:0:
441,205,65747,1,4,3:2:0:0:
284,325,66347,2,0,B|187:289|187:289|134:321|134:321|15:315,1,275.000008392334,4|0,3:2|0:0,0:0:0:0:
38,160,67547,6,0,B|92:167|92:167|98:175|98:175|166:182,1,115.000002193451,4|2,3:1|0:2,0:0:0:0:
103,273,68147,1,0,1:2:0:0:
103,273,68297,1,2,3:2:0:0:
189,329,68597,6,0,P|258:326|282:283,1,115.000002193451,2|0,3:2|3:2,0:0:0:0:
279,239,69047,2,0,P|315:197|370:201,1,115.000002193451,2|0,3:1|1:2,0:0:0:0:
411,234,69497,2,0,L|471:227,1,57.5000010967255,2|2,0:2|3:2,0:0:0:0:
492,126,69947,6,0,L|459:73,1,57.5000010967255,2|2,3:2|0:2,0:0:0:0:
410,86,70247,2,0,L|349:71,1,57.5000010967255,2|2,3:2|0:2,0:0:0:0:
324,116,70547,2,0,L|271:149,1,57.5000010967255,0|2,1:2|3:2,0:0:0:0:
241,48,70997,6,0,B|188:29|188:29|143:90,1,115.000002193451,2|0,3:2|3:2,0:0:0:0:
181,120,71447,2,0,B|146:167|146:167|93:148,1,115.000002193451,2|2,3:1|1:2,0:0:0:0:
24,226,72047,1,2,3:2:0:0:
99,296,72347,6,0,B|149:290|149:290|155:282|155:282|209:275,1,115.000002193451,2|2,3:2|0:2,0:0:0:0:
293,215,72947,2,0,P|287:174|294:141,2,57.5000010967255,2|2|2,1:2|3:2|0:2,0:0:0:0:
335,245,73397,2,0,B|385:239|385:239|391:231|391:231|445:224,1,115.000002193451,2|2,3:2|3:2,0:0:0:0:
481,187,73847,2,0,B|475:136|475:136|467:130|467:130|460:76,1,115.000002193451,0|2,3:2|1:2,0:0:0:0:
383,8,74447,2,0,L|374:65,1,57.5000010967255,2|2,3:2|3:2,0:0:0:0:
363,115,74747,5,2,3:2:0:0:
263,86,75047,1,2,3:2:0:0:
263,86,75197,2,0,P|214:122|223:188,1,115.000002193451,2|2,0:2|3:2,0:0:0:0:
250,208,75647,2,0,P|297:211|325:195,1,57.5000010967255,2|2,0:2|3:2,0:0:0:0:
372,286,76097,2,0,P|354:327|337:341,1,57.5000010967255,0|0,3:2|3:2,0:0:0:0:
243,315,76547,2,0,P|193:344|143:262,1,172.500003290176,0|2,1:2|0:2,0:0:0:0:
175,224,77147,6,0,B|183:143|183:143|196:133|196:133|207:47,1,172.500003290176,6|2,3:2|0:2,0:0:0:0:
251,34,77747,2,0,P|284:23|316:23,1,57.5000010967255,2|2,1:2|3:2,0:0:0:0:
301,125,78197,6,0,B|354:106|354:106|399:167,1,115.000002193451,2|0,3:2|3:2,0:0:0:0:
361,197,78647,2,0,B|395:244|395:244|448:225,1,115.000002193451,2|0,3:1|1:2,0:0:0:0:
497,206,79097,2,0,L|511:270,1,57.5000010967255,2|2,0:2|3:2,0:0:0:0:
451,348,79547,6,0,P|382:345|358:302,1,115.000002193451,2|2,3:2|3:2,0:0:0:0:
363,258,79997,1,2,0:2:0:0:
363,258,80147,2,0,L|375:194,2,57.5000010967255,2|2|2,1:2|3:2|0:2,0:0:0:0:
315,236,80597,5,2,3:2:0:0:
234,300,80897,1,0,3:2:0:0:
234,300,81047,2,0,P|197:258|142:262,1,115.000002193451,2|0,3:1|1:2,0:0:0:0:
39,251,81647,1,2,3:2:0:0:
95,164,81947,5,2,3:2:0:0:
95,164,82097,2,0,B|100:113|100:113|108:107|108:107|115:53,1,115.000002193451,2|2,3:2|0:2,0:0:0:0:
155,21,82547,2,0,P|199:4|266:40,1,115.000002193451,2|2,1:2|0:2,0:0:0:0:
258,81,82997,5,2,3:2:0:0:
243,183,83297,1,2,3:2:0:0:
243,183,83447,2,0,P|199:200|132:164,1,115.000002193451,0|2,3:2|1:2,0:0:0:0:
65,102,84047,2,0,P|51:138|55:180,1,57.5000010967255,2|2,3:2|3:2,0:0:0:0:
62,206,84347,5,2,3:2:0:0:
22,301,84647,1,2,3:2:0:0:
22,301,84797,2,0,P|58:350|124:341,1,115.000002193451,2|2,0:2|3:2,0:0:0:0:
148,317,85247,2,0,P|151:270|135:242,1,57.5000010967255,2|0,0:2|3:2,0:0:0:0:
215,183,85697,2,0,P|256:201|270:218,1,57.5000010967255,0|0,3:2|3:2,0:0:0:0:
327,292,86147,2,0,L|368:171,1,115.000002193451,2|2,1:2|3:2,0:0:0:0:
467,172,86747,6,0,L|503:280,1,115.000002193451,6|2,3:2|0:2,0:0:0:0:
444,366,87347,2,0,L|500:385,2,57.5000010967255,2|2|2,1:2|3:2|0:2,0:0:0:0:
394,350,87797,1,2,3:2:0:0:
342,260,88097,2,0,P|360:216|366:179,1,57.5000010967255,2|0,3:2|3:2,0:0:0:0:
455,161,88547,6,0,P|499:110|501:39,1,115.000002193451,0|2,1:2|3:2,0:0:0:0:
491,14,88997,1,2,0:2:0:0:
489,16,89147,6,0,B|411:95|352:0|336:0|322:126|216:84,1,300,6|2,0:2|0:2,0:0:0:0:
126,95,90347,5,0,3:2:0:0:
67,163,90647,1,0,3:2:0:0:
77,206,90797,1,0,3:2:0:0:
89,249,90947,2,0,B|119:272|119:272|193:261|193:261|235:281,1,150,4|0,3:2|3:2,0:0:0:0:
267,302,91547,6,0,L|335:290,1,52.4999983978272,4|0,3:2|3:2,0:0:0:0:
406,326,91997,1,0,3:2:0:0:
406,326,92147,2,0,P|430:279|433:210,1,104.999996795654,0|0,1:2|3:2,0:0:0:0:
415,184,92597,1,0,3:2:0:0:
320,190,92897,2,0,P|308:161|307:125,1,52.4999983978272,0|0,1:2|3:2,0:0:0:0:
355,59,93347,2,0,P|307:43|222:100,1,157.499995193482,0|0,1:2|1:2,0:0:0:0:
197,137,93947,6,0,L|209:205,1,52.4999983978272,0|0,3:2|3:2,0:0:0:0:
222,281,94397,2,0,L|154:293,1,52.4999983978272,0|0,0:0|1:2,0:0:0:0:
81,323,94847,1,0,3:2:0:0:
81,323,94997,6,0,B|66:269|66:269|111:214,1,104.999996795654,0|0,1:2|3:2,0:0:0:0:
134,200,95447,2,0,B|165:161|165:161|151:107,1,104.999996795654,0|2,1:2|3:2,0:0:0:0:
133,63,95897,2,0,L|70:56,2,52.4999983978272,2|2|2,3:2|3:2|3:2,0:0:0:0:
172,36,96347,5,6,3:2:0:0:
234,111,96647,2,0,B|262:107|262:107|289:113|289:113|309:107|309:107|361:103,1,109.000001164246,2|0,3:2|1:2,0:0:0:0:
386,86,97097,1,2,3:2:0:0:
470,206,97547,2,0,B|463:245|463:245|477:270|477:270|479:329,2,109.000001164246,2|2|0,3:2|3:2|1:2,0:0:0:0:
493,162,98297,1,0,3:2:0:0:
372,246,98747,5,2,3:2:0:0:
308,320,99047,2,0,B|279:339|279:339|235:339|235:339|209:312,1,109.000001164246,2|0,3:2|1:2,0:0:0:0:
187,276,99497,1,0,3:2:0:0:
217,182,99797,1,0,1:2:0:0:
217,182,99947,2,0,B|238:146|238:146|239:120,2,54.5000005821228,2|0|2,3:2|3:2|3:2,0:0:0:0:
121,205,100547,2,0,B|100:169|100:169|99:143,1,54.5000005821228,0|2,1:2|3:2,0:0:0:0:
131,63,100997,1,2,1:2:0:0:
131,63,101147,5,2,3:2:0:0:
224,94,101447,2,0,B|240:59|240:59|329:65,1,109.000001164246,0|2,3:2|1:2,0:0:0:0:
359,65,101897,1,2,3:2:0:0:
314,205,102347,2,0,B|270:184|270:184|251:201|251:201|197:203,2,109.000001164246,2|2|0,3:2|3:2|1:2,0:0:0:0:
357,227,103097,1,0,3:2:0:0:
247,325,103547,5,0,3:2:0:0:
149,334,103847,2,0,B|127:326|127:326|84:341|84:341|33:322,1,109.000001164246,0|0,3:2|1:2,0:0:0:0:
16,287,104297,1,0,3:2:0:0:
49,194,104597,1,0,1:2:0:0:
49,194,104747,2,0,L|38:127,2,54.5000005821228,0|2|0,3:2|0:2|3:2,0:0:0:0:
142,162,105347,2,0,L|150:108,1,54.5000005821228,0|2,1:2|3:2,0:0:0:0:
169,11,105797,1,2,1:2:0:0:
169,11,105947,5,2,3:2:0:0:
239,78,106247,2,0,B|245:92|245:92|271:105|271:105|297:106|297:106|324:93|324:93|335:70,1,109.000001164246,2|0,3:2|1:2,0:0:0:0:
353,43,106697,1,2,3:2:0:0:
489,98,107147,2,0,B|504:148|504:148|489:187|489:187|488:219,2,109.000001164246,2|2|0,3:2|3:2|1:2,0:0:0:0:
468,53,107897,1,2,3:2:0:0:
322,33,108347,5,2,3:2:0:0:
268,115,108647,2,0,B|288:167|288:167|266:228,1,109.000001164246,2|2,3:2|1:2,0:0:0:0:
240,256,109097,1,2,3:2:0:0:
290,339,109397,1,2,1:2:0:0:
290,339,109547,2,0,B|313:307|313:307|321:276,2,54.5000005821228,2|0|2,3:2|3:2|3:2,0:0:0:0:
199,377,110147,2,0,B|196:337|196:337|182:308,1,54.5000005821228,0|2,1:2|3:2,0:0:0:0:
92,305,110597,1,2,1:2:0:0:
92,305,110747,5,0,3:2:0:0:
15,243,111047,2,0,B|43:212|43:212|85:213|85:213|110:184,1,109.000001164246,2|2,3:2|1:2,0:0:0:0:
129,154,111497,1,2,3:2:0:0:
102,59,111797,1,2,1:2:0:0:
102,59,111947,2,0,B|136:39|136:39|164:32|164:32|222:62,2,109.000001164246,2|2|0,3:2|3:2|1:2,0:0:0:0:
61,87,112697,1,0,3:2:0:0:
128,157,112997,1,0,1:2:0:0:
128,157,113147,6,0,B|198:128|188:185|271:150,2,134.999995880127,0|2|2,3:2|0:2|0:2,0:0:0:0:
96,251,114347,2,0,B|112:293|112:293|235:307,1,165.000005035401,0|0,0:0|3:2,0:0:0:0:
280,311,114947,2,0,L|357:318,2,55.0000016784668,0|0|0,1:2|3:2|1:2,0:0:0:0:
229,215,115547,5,12,3:2:0:0:
229,215,115697,2,0,P|275:195|354:194,1,110.000003356934,8|8,3:2|3:2,0:0:0:0:
378,214,116147,2,0,L|433:203,1,55.0000016784668,8|8,1:2|3:2,0:0:0:0:
488,128,116597,2,0,L|435:110,1,55.0000016784668,8|8,3:2|3:2,0:0:0:0:
387,98,116897,6,0,L|268:112,1,110.000003356934,8|8,3:2|3:2,0:0:0:0:
328,13,117497,2,0,L|209:-1,1,110.000003356934,8|8,3:2|3:2,0:0:0:0:
252,106,118097,2,0,L|80:127,1,165.000005035401,8|8,3:2|1:2,0:0:0:0:
39,135,118697,1,8,3:2:0:0:
30,283,119147,6,0,P|76:327|187:338,1,165.000005035401,8|8,3:2|3:2,0:0:0:0:
213,311,119747,2,0,L|204:251,1,55.0000016784668,8|8,1:2|3:2,0:0:0:0:
248,167,120197,5,8,3:2:0:0:
343,139,120497,1,8,3:2:0:0:
381,230,120797,1,8,3:2:0:0:
469,185,121097,1,8,3:2:0:0:
445,88,121397,6,0,P|413:70|332:63,1,110.000003356934,8|8,3:2|3:2,0:0:0:0:
274,134,121997,1,8,3:2:0:0:
228,46,122297,2,0,L|212:236,1,165.000005035401,8|8,3:2|3:2,0:0:0:0:
178,245,122897,6,0,P|215:282|289:300,1,110.000003356934,8|8,3:2|3:2,0:0:0:0:
317,290,123347,1,8,1:2:0:0:
341,194,123647,1,8,0:2:0:0:
322,147,123797,1,8,1:2:0:0:
224,130,124097,6,0,L|214:56,2,55.0000016784668,8|8|8,3:2|1:2|3:2,0:0:0:0:
212,178,124547,1,8,1:2:0:0:
128,124,124847,1,8,1:2:0:0:
81,108,124997,1,8,1:2:0:0:
27,124,125147,6,0,B|16:154|16:154|19:187,1,58.9999979293824,12|8,3:1|3:2,0:0:0:0:
54,219,125447,2,0,B|65:249|65:249|62:282,1,58.9999979293824,8|8,1:2|3:2,0:0:0:0:
41,380,125897,2,0,L|116:355,1,58.9999979293824,8|8,3:2|1:2,0:0:0:0:
196,323,126347,6,0,B|207:293|207:293|204:260,1,58.9999979293824,8|8,3:2|3:2,0:0:0:0:
169,228,126647,2,0,B|158:198|158:198|161:165,1,58.9999979293824,8|8,1:2|3:2,0:0:0:0:
214,79,127097,1,8,3:2:0:0:
214,79,127247,1,8,1:2:0:0:
309,32,127547,6,0,L|371:42,1,58.9999979293824,8|8,3:2|3:2,0:0:0:0:
419,51,127847,2,0,L|481:61,1,58.9999979293824,8|8,1:2|3:2,0:0:0:0:
504,163,128297,1,8,3:2:0:0:
504,163,128447,1,8,1:2:0:0:
459,259,128747,6,0,L|400:268,1,58.9999979293824,8|8,3:2|3:2,0:0:0:0:
349,278,129047,2,0,L|290:287,1,58.9999979293824,8|8,1:2|3:2,0:0:0:0:
224,204,129497,2,0,P|240:171|252:139,1,58.9999979293824,8|8,3:2|1:2,0:0:0:0:
183,65,129947,6,0,B|165:17|117:7|117:7|59:42|44:123|102:132|156:150|98:241,1,353.999987576294,4|0,1:1|0:0,0:0:0:0:
148,330,131147,2,0,B|223:293|223:293|383:341,2,235.99999171753,4|0|0,1:1|1:1|1:1,0:0:0:0:
76,251,132647,2,0,L|65:123,2,117.999995858765,0|0|0,1:1|1:1|1:1,0:0:0:0:
166,196,133547,6,0,L|189:134,1,58.9999979293824,0|0,1:1|1:1,0:0:0:0:
225,105,133847,2,0,L|282:72,1,58.9999979293824,0|0,1:1|1:1,0:0:0:0:
329,73,134147,2,0,B|358:87|358:87|379:76|379:76|402:90|402:90|425:83|425:83|452:104|452:104|506:100,1,176.999993788147,0|0,2:0|2:0,0:0:0:0:
509,148,134747,6,0,B|511:176|499:205|499:205|490:206|490:206|471:224|464:253,1,115.000002193451,4|2,3:1|0:2,0:0:0:0:
490,347,135347,1,0,1:2:0:0:
490,347,135497,1,2,3:2:0:0:
412,277,135797,6,0,P|343:280|319:323,1,115.000002193451,2|0,3:2|3:2,0:0:0:0:
273,292,136247,2,0,P|237:334|182:330,1,115.000002193451,2|0,3:1|1:2,0:0:0:0:
152,286,136697,2,0,L|92:293,1,57.5000010967255,2|2,0:2|3:2,0:0:0:0:
22,218,137147,6,0,P|57:192|88:181,1,57.5000010967255,2|2,3:2|0:2,0:0:0:0:
116,164,137447,2,0,P|126:121|142:93,1,57.5000010967255,2|2,3:2|0:2,0:0:0:0:
153,62,137747,2,0,P|133:23|128:-9,1,57.5000010967255,0|2,1:2|3:2,0:0:0:0:
233,21,138197,6,0,L|351:36,1,115.000002193451,2|0,3:2|3:2,0:0:0:0:
354,86,138647,2,0,L|468:71,1,115.000002193451,2|2,3:1|1:2,0:0:0:0:
500,170,139247,1,2,3:2:0:0:
452,261,139547,6,0,B|402:255|402:255|396:247|396:247|342:240,1,115.000002193451,2|2,3:2|0:2,0:0:0:0:
289,329,140147,2,0,P|327:344|355:345,2,57.5000010967255,2|2|2,1:2|3:2|0:2,0:0:0:0:
236,331,140597,2,0,B|237:305|228:281|228:281|231:272|231:272|221:245|220:216,1,115.000002193451,2|2,3:2|3:2,0:0:0:0:
194,173,141047,2,0,B|193:147|202:123|202:123|199:114|199:114|209:87|210:58,1,115.000002193451,0|2,3:2|1:2,0:0:0:0:
119,9,141647,2,0,P|79:16|53:32,1,57.5000010967255,2|2,3:2|3:2,0:0:0:0:
27,59,141947,5,2,3:2:0:0:
32,162,142247,1,2,3:2:0:0:
32,162,142397,2,0,B|80:195|80:195|138:180,1,115.000002193451,2|2,0:2|3:2,0:0:0:0:
184,164,142847,2,0,L|190:103,1,57.5000010967255,2|2,0:2|3:2,0:0:0:0:
288,76,143297,2,0,L|282:133,1,57.5000010967255,0|0,3:2|3:2,0:0:0:0:
335,222,143747,2,0,P|376:239|440:139,1,172.500003290176,0|2,1:2|0:2,0:0:0:0:
435,103,144347,6,0,B|382:81|382:81|245:110,1,172.500003290176,6|2,3:2|0:2,0:0:0:0:
220,120,144947,1,2,1:2:0:0:
220,120,145097,1,2,3:2:0:0:
137,57,145397,6,0,L|122:175,1,115.000002193451,2|0,3:2|3:2,0:0:0:0:
72,178,145847,2,0,L|86:292,1,115.000002193451,2|0,3:1|1:2,0:0:0:0:
99,342,146297,2,0,P|83:352|47:374,2,57.5000010967255,2|2|2,0:2|3:2|3:2,0:0:0:0:
143,368,146747,6,0,L|278:343,1,115.000002193451,2|2,3:2|3:2,0:0:0:0:
357,326,147347,1,2,1:2:0:0:
357,326,147497,1,2,3:2:0:0:
458,343,147797,6,0,P|455:274|412:250,1,115.000002193451,2|0,3:2|3:2,0:0:0:0:
443,204,148247,2,0,P|401:168|405:113,1,115.000002193451,2|0,3:1|1:2,0:0:0:0:
449,83,148697,2,0,L|442:23,1,57.5000010967255,0|2,0:0|3:2,0:0:0:0:
339,14,149147,6,0,B|289:20|289:20|283:28|283:28|229:35,1,115.000002193451,2|2,3:2|0:2,0:0:0:0:
240,138,149747,2,0,L|311:127,2,57.5000010967255,2|2|2,1:2|3:2|0:2,0:0:0:0:
195,165,150197,2,0,B|197:193|185:222|185:222|176:223|176:223|157:241|150:270,1,115.000002193451,2|2,3:2|3:2,0:0:0:0:
114,300,150647,2,0,B|116:272|104:243|104:243|95:242|95:242|76:224|69:195,1,115.000002193451,0|2,3:2|1:2,0:0:0:0:
93,100,151247,2,0,L|172:89,1,57.5000010967255,2|2,3:2|3:2,0:0:0:0:
201,86,151547,5,2,3:2:0:0:
289,31,151847,1,2,3:2:0:0:
289,31,151997,2,0,B|337:-2|337:-2|395:13,1,115.000002193451,2|2,0:2|3:2,0:0:0:0:
432,44,152447,2,0,L|437:101,1,57.5000010967255,2|2,0:2|3:2,0:0:0:0:
382,189,152897,2,0,L|388:246,1,57.5000010967255,0|0,3:2|3:2,0:0:0:0:
353,344,153347,2,0,P|312:361|259:310,1,115.000002193451,2|2,1:2|3:2,0:0:0:0:
176,380,153947,6,0,B|164:313|164:313|165:293|165:293|146:252,1,115.000002193451,6|2,3:2|0:2,0:0:0:0:
106,176,154547,2,0,L|118:108,2,57.5000010967255,2|2|2,1:2|3:2|0:2,0:0:0:0:
73,216,154997,2,0,P|35:190|16:120,1,115.000002193451,2|2,3:2|3:2,0:0:0:0:
30,76,155447,2,0,P|71:56|141:74,1,115.000002193451,0|0,3:2|1:2,0:0:0:0:
201,151,156047,2,0,L|271:143,1,57.5000010967255,2|2,3:2|0:2,0:0:0:0:
299,113,156347,6,0,B|354:58|354:58|340:230|340:230|398:275|398:275|342:331|342:331|290:293|290:293|176:309,1,575.000010967255,6|2,0:2|0:2,0:0:0:0:
91,330,158147,2,0,L|86:403,2,52.4999983978272,2|2|2,0:2|0:2|0:2,0:0:0:0:
31,256,158747,5,2,0:2:0:0:
72,171,159047,1,2,0:2:0:0:
37,83,159347,1,2,0:2:0:0:
102,14,159647,2,0,L|158:27,1,52.4999983978272,2|2,0:2|0:2,0:0:0:0:
187,58,159947,2,0,L|243:71,1,52.4999983978272,2|2,0:2|0:2,0:0:0:0:
284,79,160247,1,2,0:2:0:0:
377,41,160547,5,6,0:2:0:0:
364,141,160847,1,2,0:2:0:0:
425,221,161147,6,0,B|374:232|374:232|341:274,1,100.999997996521,4|8,0:2|0:2,0:0:0:0:
282,337,161747,2,0,B|231:326|231:326|198:284,1,100.999997996521,10|10,0:2|0:2,0:0:0:0:
178,247,162197,2,0,L|183:186,2,50.4999989982605,2|10|2,0:2|0:2|0:2,0:0:0:0:
114,312,162797,2,0,L|43:305,1,50.4999989982605,2|8,0:2|0:2,0:0:0:0:
5,237,163247,2,0,L|9:186,1,50.4999989982605,14|6,0:2|0:2,0:0:0:0:
14,141,163547,5,6,0:2:0:0:
79,78,163847,1,8,0:2:0:0:
168,92,164147,1,10,0:2:0:0:
213,170,164447,2,0,L|208:220,1,50.4999989982605,10|2,0:2|0:2,0:0:0:0:
226,262,164747,5,10,0:2:0:0:
312,210,165047,1,8,0:2:0:0:
386,278,165347,1,8,0:2:0:0:
461,211,165647,2,0,L|465:160,1,50.4999989982605,10|2,0:2|0:2,0:0:0:0:
470,106,165947,5,0,1:2:0:0:
391,46,166247,1,0,1:2:0:0:
345,133,166547,1,0,1:2:0:0:
257,89,166847,1,0,1:2:0:0:
212,176,167147,6,0,P|148:168|94:152,1,109.000001164246,0|0,1:2|1:2,0:0:0:0:
119,253,167747,2,0,P|55:261|1:277,1,109.000001164246,8|0,1:1|1:2,0:0:0:0:
69,352,168347,6,0,P|100:356|139:364,3,54.5000005821228,2|2|2|2,0:1|0:1|0:1|0:1,0:0:0:0:
170,350,168947,2,0,P|196:345|223:341,3,54.5000005821228,2|2|2|2,0:1|0:1|0:1|0:1,0:0:0:0:
257,305,169547,2,0,P|261:278|265:251,3,54.5000005821228,2|2|2|2,0:1|0:1|0:1|0:1,0:0:0:0:
247,205,170147,5,4,0:3:0:0:
462,248,170747,6,0,P|432:224|427:139,1,125,4|2,3:2|3:2,0:0:0:0:
501,59,171347,1,4,1:1:0:0:
501,59,171497,2,0,P|477:89|392:94,1,125,0|0,3:2|1:2,0:0:0:0:
349,63,171947,5,0,3:2:0:0:
251,119,172247,1,2,3:2:0:0:
245,6,172547,1,4,1:1:0:0:
245,6,172697,2,0,L|115:28,1,125,0|0,3:2|1:2,0:0:0:0:
75,58,173147,6,0,P|70:120|111:167,1,125,0|2,3:2|3:2,0:0:0:0:
142,272,173747,1,4,1:1:0:0:
142,272,173897,2,0,P|139:208|181:161,1,125,0|0,3:2|1:2,0:0:0:0:
232,155,174347,5,0,3:2:0:0:
251,265,174647,1,2,3:2:0:0:
336,338,174947,5,8,3:1:0:0:
434,283,175247,2,0,L|464:203,1,62.5,0|0,1:2|1:2,0:0:0:0:
460,168,175547,6,0,B|408:157|408:157|376:178|376:178|313:176,1,125,4|0,3:2|3:2,0:0:0:0:
243,123,176147,2,0,P|193:74|175:69,1,62.5,0|0,1:2|3:2,0:0:0:0:
184,24,176447,2,0,P|114:30|98:41,1,62.5,0|0,0:0|1:2,0:0:0:0:
75,57,176747,5,0,3:2:0:0:
5,145,177047,1,0,3:2:0:0:
95,214,177347,1,0,1:2:0:0:
95,214,177497,2,0,P|163:219|211:158,1,125,0|0,3:2|1:2,0:0:0:0:
213,127,177947,5,0,3:2:0:0:
316,83,178247,2,0,L|340:158,1,62.5,0|0,3:2|0:0,0:0:0:0:
356,194,178547,2,0,L|303:252,1,62.5,0|0,1:2|3:2,0:0:0:0:
275,281,178847,2,0,L|198:264,1,62.5,0|0,0:0|1:2,0:0:0:0:
160,251,179147,5,0,3:2:0:0:
54,289,179447,1,0,0:0:0:0:
91,177,179747,5,4,0:3:0:0:
21,103,180047,1,0,1:2:0:0:
21,103,180197,1,0,1:2:0:0:
21,103,180347,6,0,B|74:65|74:65|137:82,1,125,4|2,3:2|3:2,0:0:0:0:
226,19,180947,1,4,1:1:0:0:
226,19,181097,2,0,P|221:82|263:129,1,125,0|0,3:2|1:2,0:0:0:0:
315,126,181547,5,0,3:2:0:0:
413,71,181847,1,2,3:2:0:0:
495,147,182147,1,4,1:1:0:0:
495,147,182297,2,0,L|470:291,1,125,0|0,3:2|1:2,0:0:0:0:
447,319,182747,6,0,B|398:356|398:356|330:339,1,125,0|2,3:2|3:2,0:0:0:0:
283,240,183347,1,4,1:1:0:0:
283,240,183497,2,0,P|219:235|172:277,1,125,0|0,3:2|1:2,0:0:0:0:
118,278,183947,5,0,3:2:0:0:
34,203,184247,1,2,3:2:0:0:
142,182,184547,1,8,3:1:0:0:
93,81,184847,2,0,L|155:72,1,62.5,0|0,1:2|1:2,0:0:0:0:
193,107,185147,6,0,B|239:99|239:99|270:134|317:132,1,125,4|0,3:2|3:2,0:0:0:0:
419,118,185747,1,0,1:2:0:0:
419,118,185897,2,0,P|428:164|422:205,1,62.5,0|0,3:2|0:0,0:0:0:0:
424,235,186197,1,0,1:2:0:0:
424,235,186347,6,0,P|383:214|308:267,1,125,0|0,3:2|3:2,0:0:0:0:
272,350,186947,1,0,1:2:0:0:
272,350,187097,1,0,3:2:0:0:
208,257,187397,1,0,1:2:0:0:
208,257,187547,6,0,L|230:128,1,125,0|8,3:2|3:3,0:0:0:0:
70,77,188297,2,0,L|56:3,2,62.5,8|0|0,3:3|0:0|0:0,0:0:0:0:
44,126,188747,6,0,B|97:163|97:163|161:146,1,125,8|0,3:3|0:0,0:0:0:0:
206,128,189197,2,0,B|270:111|270:111|323:148,1,125,8|0,3:3|1:2,0:0:0:0:
364,177,189647,2,0,L|418:218,1,62.5,0|0,3:2|1:2,0:0:0:0:
449,242,189947,5,4,3:1:0:0:
367,296,190247,2,0,L|293:304,1,54.5000005821228,0|0,1:2|0:0,0:0:0:0:
280,265,190547,2,0,L|220:258,2,54.5000005821228,0|0|0,3:2|3:2|1:2,0:0:0:0:
230,349,191147,2,0,P|184:360|157:357,2,54.5000005821228,0|0|0,3:2|3:2|1:2,0:0:0:0:
211,252,191747,2,0,P|183:254|158:262,2,54.5000005821228,0|0|0,3:2|3:2|1:2,0:0:0:0:
208,153,192347,5,0,3:2:0:0:
290,99,192647,2,0,L|363:90,1,54.5000005821228,0|0,1:2|0:0,0:0:0:0:
377,130,192947,2,0,L|436:136,2,54.5000005821228,0|0|0,3:2|3:2|1:2,0:0:0:0:
427,46,193547,2,0,P|473:35|500:38,2,54.5000005821228,0|0|0,3:2|3:2|1:2,0:0:0:0:
446,143,194147,2,0,P|473:140|498:132,2,54.5000005821228,0|0|0,3:2|3:2|1:2,0:0:0:0:
433,240,194747,5,0,3:2:0:0:
346,285,195047,2,0,P|329:245|324:216,1,54.5000005821228,0|0,1:2|0:0,0:0:0:0:
294,196,195347,2,0,P|306:154|321:129,2,54.5000005821228,0|0|0,3:2|3:2|1:2,0:0:0:0:
223,263,195947,2,0,P|199:226|189:198,2,54.5000005821228,0|0|0,3:2|3:2|1:2,0:0:0:0:
228,361,196547,2,0,P|184:355|157:345,2,54.5000005821228,0|0|0,3:2|3:2|1:2,0:0:0:0:
313,313,197147,5,0,3:2:0:0:
284,219,197447,2,0,P|326:209|355:209,1,54.5000005821228,0|0,1:2|0:0,0:0:0:0:
380,183,197747,2,0,P|418:202|441:221,2,54.5000005821228,0|0|0,3:2|3:2|1:2,0:0:0:0:
327,102,198347,2,0,P|367:84|396:79,2,54.5000005821228,0|0|0,3:2|3:2|1:2,0:0:0:0:
277,100,198797,6,0,B|206:85,1,54.5000005821228,0|0,3:2|1:2,0:0:0:0:
178,107,199097,2,0,B|107:92,1,54.5000005821228,0|0,3:2|1:2,0:0:0:0:
75,88,199397,1,0,1:2:0:0:
75,88,199547,5,4,3:1:0:0:
45,187,199847,1,8,1:2:0:0:
45,187,199997,2,0,B|26:243|26:243|51:308,1,115.000002193451,8|8,0:2|3:2,0:0:0:0:
73,339,200447,1,8,1:2:0:0:
176,348,200747,6,0,L|166:283,1,57.5000010967255,8|8,3:2|3:2,0:0:0:0:
187,243,201047,1,8,1:2:0:0:
187,243,201197,2,0,P|213:216|307:231,1,115.000002193451,8|8,0:2|3:2,0:0:0:0:
327,246,201647,1,8,1:2:0:0:
378,335,201947,6,0,L|318:345,2,57.5000010967255,8|8|8,0:2|3:2|1:2,0:0:0:0:
417,300,202397,2,0,B|436:244|436:244|411:179,1,115.000002193451,8|8,0:2|3:2,0:0:0:0:
391,145,202847,1,8,1:2:0:0:
427,48,203147,6,0,L|370:33,1,57.5000010967255,8|8,0:2|3:2,0:0:0:0:
320,20,203447,1,8,1:2:0:0:
320,20,203597,2,0,P|295:81|192:90,1,172.500003290176,8|8,0:2|1:2,0:0:0:0:
202,197,204347,6,0,P|147:189|82:185,3,100,4|0|0|0,3:1|3:2|3:2|3:2,0:0:0:0:
52,262,205547,2,0,P|105:291|127:347,1,100,4|0,3:2|3:2,0:0:0:0:
132,368,205997,2,0,L|243:354,1,100,0|0,1:2|1:2,0:0:0:0:
275,346,206447,1,0,1:2:0:0:
337,280,206747,6,0,P|345:225|349:160,3,100,4|0|0|0,3:1|1:2|1:2|1:2,0:0:0:0:
289,100,207947,2,0,P|259:106|223:117,3,55.0000016784668,0|0|0|0,1:2|1:2|1:2|1:2,0:0:0:0:
188,100,208547,2,0,B|161:91|161:91|131:115|131:115|103:110|103:110|86:140|86:140|39:152,1,165.000005035401,0|0,1:2|1:2,0:0:0:0:
35,186,209147,6,0,L|24:282,1,91.9999969116212,12|8,0:2|0:2,0:0:0:0:
106,292,209747,2,0,L|117:196,1,91.9999969116212,8|8,0:2|0:2,0:0:0:0:
198,214,210347,2,0,L|187:310,1,91.9999969116212,8|8,0:2|0:2,0:0:0:0:
269,320,210947,2,0,L|280:224,1,91.9999969116212,8|8,0:2|0:2,0:0:0:0:
309,200,211397,1,0,0:0:0:0:
309,200,211547,6,0,L|319:108,1,91.9999969116212,8|8,0:2|0:2,0:0:0:0:
238,94,212147,2,0,L|227:190,1,91.9999969116212,8|8,0:2|0:2,0:0:0:0:
145,170,212747,2,0,L|156:79,1,91.9999969116212,8|8,0:2|0:2,0:0:0:0:
74,64,213347,6,0,B|48:104|48:104|56:162,1,91.9999969116212,8|4,0:3|0:3,0:0:0:0:
91,230,213947,2,0,B|149:216|149:216|171:263|171:263|226:275,1,165.000005035401,4|8,0:1|0:3,0:0:0:0:
319,297,214697,1,4,0:3:0:0:
319,297,214847,1,4,0:3:0:0:
319,297,214997,6,0,P|299:195|294:121,1,165.000005035401,4|0,0:1|3:2,0:0:0:0:
353,54,215747,2,0,P|291:34|226:73,1,110.000003356934,8|8,3:2|3:2,0:0:0:0:
214,81,216197,1,8,0:2:0:0:
214,81,216347,6,0,B|243:133|243:133|186:259,2,165.000005035401,4|0|0,3:1|3:2|3:2,0:0:0:0:
125,34,217547,2,0,L|52:43,1,55.0000016784668,8|0,0:2|3:2,0:0:0:0:
35,185,218147,5,0,3:2:0:0:
104,255,218447,1,0,0:0:0:0:
85,374,218747,6,0,B|157:365|157:365|165:353|165:353|243:343,1,165.000005035401,4|2,3:1|0:2,0:0:0:0:
297,332,219347,2,0,L|307:257,1,55.0000016784668,2|2,1:2|3:2,0:0:0:0:
323,169,219797,6,0,B|273:163|273:163|267:155|267:155|213:148,1,110.000003356934,2|0,3:2|3:2,0:0:0:0:
162,141,220247,2,0,P|123:181|144:268,1,110.000003356934,2|0,3:1|1:2,0:0:0:0:
177,327,220847,1,2,3:2:0:0:
264,260,221147,6,0,P|345:308|384:218,1,165.000005035401,2|2,3:2|0:2,0:0:0:0:
407,217,221747,2,0,L|474:205,2,55.0000016784668,0|2|2,1:2|3:2|0:2,0:0:0:0:
387,165,222197,5,2,3:2:0:0:
427,62,222497,1,0,3:2:0:0:
427,62,222647,2,0,P|361:63|298:129,1,110.000003356934,2|2,3:1|1:2,0:0:0:0:
262,175,223247,1,2,3:2:0:0:
216,74,223547,5,2,3:2:0:0:
216,74,223697,2,0,B|166:80|166:80|160:88|160:88|110:94,1,110.000003356934,2|2,3:2|0:2,0:0:0:0:
50,104,224147,2,0,L|34:50,2,55.0000016784668,2|2|2,1:2|3:2|0:2,0:0:0:0:
12,151,224597,1,2,3:2:0:0:
94,223,224897,1,2,3:2:0:0:
94,223,225047,1,0,3:2:0:0:
38,317,225347,2,0,P|98:334|153:309,1,110.000003356934,2|2,1:2|3:2,0:0:0:0:
232,257,225947,6,0,B|289:241|289:241|344:314|344:314|416:293|416:293|460:320|460:320|438:136,1,440.000013427735,2|0,3:2|1:2,0:0:0:0:
435,103,227297,1,0,0:0:0:0:
333,60,227597,1,0,3:2:0:0:
231,103,227897,2,0,B|134:113|189:167|84:170,1,165.000005035401,0|4,3:2|3:2,0:0:0:0:
30,162,228497,6,0,B|5:218|5:218|33:271,1,115.000002193451,2|0,3:2|3:2,0:0:0:0:
65,310,228947,1,0,1:2:0:0:
171,265,229247,2,0,P|201:281|242:289,1,57.5000010967255,0|0,0:0|0:0,0:0:0:0:
269,321,229547,5,0,3:2:0:0:
269,321,229697,2,0,P|271:256|286:154,1,115.000002193451,0|0,3:2|3:2,0:0:0:0:
306,156,230147,1,0,1:2:0:0:
378,245,230447,1,0,0:0:0:0:
476,185,230747,5,0,3:2:0:0:
476,185,230897,2,0,B|501:129|501:129|475:81,1,115.000002193451,0|0,3:2|3:2,0:0:0:0:
443,34,231347,1,0,1:2:0:0:
348,99,231647,2,0,P|318:83|277:75,1,57.5000010967255,0|0,0:0|0:0,0:0:0:0:
250,43,231947,5,0,3:2:0:0:
250,43,232097,2,0,P|191:85|185:145,1,115.000002193451,0|0,3:2|3:2,0:0:0:0:
197,179,232547,1,0,1:2:0:0:
91,132,232847,2,0,L|76:194,1,57.5000010967255,0|2,0:0|0:2,0:0:0:0:
65,244,233147,5,0,3:2:0:0:
65,244,233297,2,0,P|112:300|186:283,1,115.000002193451,2|0,3:2|3:2,0:0:0:0:
205,285,233747,1,0,1:2:0:0:
291,360,234047,1,0,0:0:0:0:
402,331,234347,5,0,3:2:0:0:
402,331,234497,2,0,P|383:243|383:193,1,115.000002193451,0|0,3:2|3:2,0:0:0:0:
406,166,234947,1,0,1:2:0:0:
333,76,235247,2,0,L|271:70,1,57.5000010967255,0|0,0:0|0:0,0:0:0:0:
218,65,235547,5,0,3:2:0:0:
218,65,235697,2,0,B|193:121|193:121|218:168,1,115.000002193451,0|0,3:2|3:2,0:0:0:0:
252,214,236147,1,0,1:2:0:0:
228,326,236447,5,0,3:2:0:0:
176,332,236597,1,0,1:2:0:0:
112,250,236897,5,0,3:2:0:0:
60,256,237047,1,0,1:2:0:0:
12,163,237347,5,0,1:2:0:0:
89,94,237647,1,0,1:2:0:0:
89,94,237797,1,2,0:2:0:0:
89,94,237947,6,0,L|170:107,1,59.9999981689454,4|2,3:2|3:2,0:0:0:0:
183,144,238247,2,0,L|264:157,1,59.9999981689454,0|0,1:2|3:2,0:0:0:0:
349,166,238697,1,0,3:2:0:0:
349,166,238847,1,0,1:2:0:0:
407,75,239147,6,0,P|438:106|450:150,1,59.9999981689454,0|0,3:2|3:2,0:0:0:0:
462,171,239447,2,0,P|465:214|446:256,1,59.9999981689454,0|0,1:2|3:2,0:0:0:0:
370,288,239897,1,0,3:2:0:0:
370,288,240047,1,0,1:2:0:0:
277,344,240347,6,0,L|264:263,1,59.9999981689454,0|0,3:2|3:2,0:0:0:0:
235,241,240647,2,0,L|248:160,1,59.9999981689454,0|0,1:2|3:2,0:0:0:0:
228,74,241097,1,0,3:2:0:0:
228,74,241247,1,0,1:2:0:0:
140,10,241547,6,0,P|116:66|112:92,1,59.9999981689454,0|0,3:2|3:2,0:0:0:0:
129,117,241847,2,0,P|153:173|157:199,1,59.9999981689454,0|0,1:2|3:2,0:0:0:0:
110,271,242297,1,0,3:2:0:0:
110,271,242447,1,0,1:2:0:0:
202,327,242747,5,0,3:2:0:0:
202,327,242897,1,2,3:2:0:0:
307,304,243197,1,0,3:2:0:0:
358,320,243347,2,0,P|349:241|354:188,1,119.999996337891,0|0,1:2|3:2,0:0:0:0:
426,106,243947,5,0,0:0:0:0:
351,11,244247,1,0,1:2:0:0:
245,68,244547,2,0,B|281:147|281:147|228:285,1,179.999994506836,0|0,3:2|3:2,0:0:0:0:
218,280,245147,6,0,B|159:237|62:286|156:359,1,162.000003955078,0|0,3:2|0:0,0:0:0:0:
39,143,246347,5,0,3:2:0:0:
179,61,246797,2,0,B|238:18|335:67|241:140,1,162.000003955078,4|0,3:2|0:0,0:0:0:0:
371,92,247547,6,0,B|377:145|377:145|422:181|422:181|428:237,1,162.000003955078,0|4,3:2|3:2,0:0:0:0:
322,355,248447,1,0,3:2:0:0:
322,355,248597,1,0,3:2:0:0:
322,355,248747,6,0,B|316:302|316:302|271:266|271:266|265:210,1,162.000003955078,0|4,3:2|3:2,0:0:0:0:
250,107,249497,2,0,L|277:43,2,54.0000013183594,0|0|0,3:2|1:2|1:2,0:0:0:0:
199,86,249947,1,4,0:1:0:0:
256,192,250097,12,0,254597,0:0:0:0:
