osu file format v14

[General]
AudioFilename: audio.mp3
AudioLeadIn: 0
PreviewTime: 64679
Countdown: 0
SampleSet: Soft
StackLeniency: 0.7
Mode: 0
LetterboxInBreaks: 0
WidescreenStoryboard: 1

[Editor]
DistanceSpacing: 1.2
BeatDivisor: 4
GridSize: 8
TimelineZoom: 4.699998

[Metadata]
Title:Touch off (TV Size)
TitleUnicode:Touch off (TV Size)
Artist:UVERworld
ArtistUnicode:UVERworld
Creator:Monstrata
Version:Low Quality Easy
Source:約束のネバーランド
Tags:promised neverland yakusoku never emma ray norman doormat agatsu musty lit120 anime children habiholic seinen -hakurei- haruto haruto- haruto_aizawa japanese the
BeatmapID:1896734
BeatmapSetID:908896

[Difficulty]
HPDrainRate:2
CircleSize:3
OverallDifficulty:2
ApproachRate:3.5
SliderMultiplier:0.7
SliderTickRate:1

[Events]
//Background and Video events
0,0,"720891.jpg",0,0
Video,0,"neverland_op.avi"
//Break Periods
//Storyboard Layer 0 (Background)
//Storyboard Layer 1 (Fail)
//Storyboard Layer 2 (Pass)
//Storyboard Layer 3 (Foreground)
//Storyboard Sound Samples

[TimingPoints]
404,300,4,2,1,40,1,0
404,-100,4,2,1,40,0,0
2654,-100,4,2,1,50,0,0
2804,-100,4,2,1,50,0,0
7604,-100,4,2,1,60,0,0
8654,-100,4,2,1,60,0,0
9404,-100,4,2,1,40,0,0
11804,-100,4,2,1,60,0,0
12404,-100,4,2,1,75,0,0
22004,-100,4,2,1,50,0,0
26054,-100,4,2,1,60,0,0
26804,-100,4,2,1,60,0,0
46004,-100,4,2,1,60,0,0
63404,-100,4,2,1,60,0,0
64004,-100,4,2,1,60,0,0
64754,-100,4,2,1,50,0,0
65204,-100,4,2,1,75,0,1
86804,-100,4,2,1,50,0,0
87854,-100,4,2,1,50,0,0

[Colours]
Combo1 : 153,206,128
Combo2 : 114,177,160
Combo3 : 178,178,178
Combo4 : 255,128,64

[HitObjects]
88,63,404,6,0,P|154:43|223:51,2,140,2|2|0,0:0|0:0|0:0,0:0:0:0:
85,230,2204,2,0,P|124:247|167:248,1,70,2|0,0:0|0:0,0:0:0:0:
231,274,2804,6,0,P|280:225|347:211,1,140,0|8,3:2|0:0,0:0:0:0:
415,161,3704,2,0,L|433:80,2,70,0|0|0,3:2|0:0|0:0,0:0:0:0:
427,243,4604,2,0,L|411:311,1,70,8|0,0:0|0:0,0:0:0:0:
345,362,5204,6,0,P|279:339|208:352,1,140,0|8,3:2|0:2,0:0:0:0:
144,301,6104,2,0,P|97:320|76:320,2,70,0|0|0,3:2|0:0|0:0,0:0:0:0:
187,228,7004,2,0,L|169:153,1,70,10|2,0:0|0:0,0:0:0:0:
194,78,7604,6,0,P|241:59|305:66,1,105,6|8,3:2|0:3,0:0:0:0:
367,103,8354,1,8,0:3:0:0:
414,172,8654,2,0,L|401:253,1,70,2|2,3:2|3:2,0:0:0:0:
319,335,9404,6,0,P|263:328|241:330,1,70,2|2,0:0|0:0,0:0:0:0:
181,279,10004,1,2,0:0:0:0:
245,171,10454,2,0,P|252:115|250:93,1,70,2|2,0:0|0:0,0:0:0:0:
300,33,11054,1,2,0:0:0:0:
494,112,11804,2,0,L|514:194,1,70,4|8,3:2|0:0,0:0:0:0:
476,256,12404,6,0,P|413:275|339:262,1,140,4|10,3:2|0:0,0:0:0:0:
274,211,13304,1,2,3:2:0:0:
195,242,13604,2,0,L|126:267,1,70,0|2,0:0|3:2,0:0:0:0:
55,225,14204,2,0,P|42:192|41:157,1,70,10|2,0:0|0:0,0:0:0:0:
88,87,14804,6,0,L|239:102,1,140,2|10,3:2|0:0,0:0:0:0:
296,53,15704,1,10,0:0:0:0:
366,98,16004,2,0,L|376:179,1,70,2|2,0:0|0:0,0:0:0:0:
314,226,16604,2,0,L|324:307,1,70,8|0,0:0|0:0,0:0:0:0:
387,346,17204,6,0,P|455:340|492:283,1,140,6|10,3:2|0:0,0:0:0:0:
436,220,18104,1,2,3:2:0:0:
437,136,18404,2,0,P|445:102|468:76,1,70,2|2,0:0|0:0,0:0:0:0:
425,4,19004,2,0,P|391:13|357:6,1,70,10|2,0:0|0:0,0:0:0:0:
285,50,19604,6,0,P|272:119|299:191,1,140,2|10,3:2|0:0,0:0:0:0:
349,246,20504,2,0,L|466:228,2,105,10|10|10,0:0|0:0|0:0,0:0:0:0:
290,306,21704,1,2,3:2:0:0:
230,366,22004,6,0,P|164:348|123:293,1,140,6|2,3:2|0:0,0:0:0:0:
109,210,22904,2,0,P|126:143|181:102,1,140,2|2,0:0|0:0,0:0:0:0:
245,157,23804,2,0,L|261:236,1,70,2|2,0:0|0:0,0:0:0:0:
341,238,24404,6,0,P|395:196|413:130,1,140,2|2,0:0|0:0,0:0:0:0:
375,55,25304,2,0,P|311:28|245:45,1,140,2|2,0:0|0:0,0:0:0:0:
181,102,26204,2,0,L|197:183,1,70,8|2,0:0|3:2,0:0:0:0:
255,228,26804,6,0,L|239:309,1,70,6|2,3:2|3:2,0:0:0:0:
313,339,27404,2,0,L|395:325,1,70,8|0,0:0|0:0,0:0:0:0:
428,257,28004,1,2,3:2:0:0:
370,195,28304,2,0,L|383:126,1,70,2|8,0:0|0:0,0:0:0:0:
324,66,28904,1,2,0:0:0:0:
240,72,29204,6,0,P|205:75|174:90,1,70,2|2,3:2|3:2,0:0:0:0:
90,95,29804,2,0,P|75:126|73:161,1,70,8|2,0:0|0:0,0:0:0:0:
34,236,30404,2,0,P|54:264|83:283,1,70,2|2,3:2|0:0,0:0:0:0:
164,307,31004,1,8,0:0:0:0:
233,260,31304,1,10,0:0:0:0:
312,287,31604,6,0,L|380:309,1,70,6|2,3:2|3:2,0:0:0:0:
434,244,32204,2,0,P|456:218|465:184,1,70,10|0,0:0|0:0,0:0:0:0:
458,100,32804,2,0,P|449:66|426:39,1,70,0|2,3:2|0:0,0:0:0:0:
349,5,33404,2,0,L|282:26,1,70,8|0,0:0|0:0,0:0:0:0:
203,57,34004,6,0,B|179:126|228:126|203:204,1,140,2|10,3:2|0:0,0:0:0:0:
153,259,34904,1,2,0:0:0:0:
118,335,35204,2,0,B|187:359|187:310|265:335,1,140,0|10,3:2|0:0,0:0:0:0:
335,355,36104,1,10,0:0:0:0:
412,322,36404,6,0,L|435:253,1,70,6|2,3:2|3:2,0:0:0:0:
397,179,37004,2,0,L|420:110,1,70,8|2,0:0|0:0,0:0:0:0:
368,45,37604,1,2,3:2:0:0:
290,77,37904,2,0,P|257:90|223:87,1,70,2|8,0:0|0:0,0:0:0:0:
148,48,38504,1,2,0:0:0:0:
89,108,38804,6,0,L|81:193,1,70,2|2,3:2|3:2,0:0:0:0:
159,211,39404,2,0,L|151:296,1,70,10|2,0:0|0:0,0:0:0:0:
229,314,40004,2,0,L|221:399,2,70,2|2|8,3:2|0:0|0:0,0:0:0:0:
305,279,40904,1,10,0:0:0:0:
380,244,41204,6,0,P|393:211|394:176,1,70,6|2,3:2|3:2,0:0:0:0:
394,92,41804,2,0,P|361:79|326:78,1,70,10|2,0:0|0:0,0:0:0:0:
241,78,42404,2,0,P|228:110|227:145,1,70,2|2,3:2|0:0,0:0:0:0:
227,230,43004,2,0,P|259:242|294:243,1,70,10|2,0:0|0:0,0:0:0:0:
380,244,43604,6,0,P|367:287|282:326,1,140,2|10,3:2|0:0,0:0:0:0:
203,312,44504,1,2,0:0:0:0:
129,352,44804,2,0,B|78:339|78:339|16:360,2,105,10|2|8,0:0|3:2|0:0,0:0:0:0:
203,312,46004,6,0,L|214:235,1,70,4|0,3:2|0:0,0:0:0:0:
185,163,46604,2,0,L|196:86,1,70,8|0,0:0|0:0,0:0:0:0:
278,104,47204,2,0,L|267:181,1,70,2|0,3:2|0:0,0:0:0:0:
296,253,47804,2,0,L|285:330,1,70,8|0,0:0|0:0,0:0:0:0:
360,362,48404,6,0,P|394:369|428:364,1,70,0|0,3:2|0:0,0:0:0:0:
488,305,49004,2,0,P|495:270|490:236,1,70,10|0,0:0|0:0,0:0:0:0:
431,177,49604,2,0,P|396:169|362:174,1,70,2|0,3:2|0:0,0:0:0:0:
303,234,50204,2,0,P|295:268|300:302,1,70,8|0,0:0|0:0,0:0:0:0:
238,359,50804,6,0,B|204:369|204:369|169:361,1,70,0|2,3:2|0:0,0:0:0:0:
110,302,51404,2,0,B|75:294|75:294|41:304,1,70,8|2,0:0|0:0,0:0:0:0:
41,220,52004,2,0,B|75:210|75:210|109:217,1,70,0|0,3:2|0:0,0:0:0:0:
164,153,52604,2,0,B|198:143|198:143|232:150,1,70,8|2,0:0|0:0,0:0:0:0:
297,97,53204,6,0,L|295:20,2,70,0|2|10,3:2|0:0|0:0,0:0:0:0:
331,261,54404,2,0,L|332:330,2,70,2|2|10,3:2|0:0|0:0,0:0:0:0:
388,103,55604,6,0,P|422:101|456:109,1,70,6|0,3:2|0:0,0:0:0:0:
510,173,56204,2,0,P|511:207|503:241,1,70,8|0,0:0|0:0,0:0:0:0:
440,295,56804,2,0,P|405:296|371:288,1,70,2|0,3:2|0:0,0:0:0:0:
318,225,57404,2,0,P|316:190|324:156,1,70,8|0,0:0|0:0,0:0:0:0:
271,90,58004,6,0,L|259:15,1,70,0|0,3:2|0:0,0:0:0:0:
178,40,58604,2,0,L|189:109,1,70,10|0,0:0|0:0,0:0:0:0:
137,176,59204,2,0,P|145:235|179:274,1,105,2|2,3:2|3:2,0:0:0:0:
255,286,59954,1,2,3:2:0:0:
326,241,60254,6,0,L|398:233,1,70,2|2,0:0|3:2,0:0:0:0:
424,154,60854,2,0,L|352:146,1,70,2|2,3:2|3:2,0:0:0:0:
274,171,61454,2,0,L|202:163,1,70,2|2,0:0|3:2,0:0:0:0:
176,84,62054,2,0,L|290:71,1,105,2|10,3:2|0:0,0:0:0:0:
363,60,62804,6,0,P|377:127|358:194,2,140,2|2|2,3:2|3:2|3:2,0:0:0:0:
30,107,65204,6,0,L|54:257,1,140,6|10,3:2|0:0,0:0:0:0:
144,328,66254,2,0,P|196:335|245:318,1,105,2|2,3:2|3:2,0:0:0:0:
292,248,67004,1,10,0:0:0:0:
374,264,67304,1,2,0:0:0:0:
445,219,67604,6,0,L|458:147,2,70,2|2|10,3:2|0:0|0:0,0:0:0:0:
416,341,68654,2,0,P|364:351|308:320,1,105,2|2,3:2|3:2,0:0:0:0:
250,279,69404,1,10,0:0:0:0:
170,307,69704,1,2,0:0:0:0:
97,265,70004,6,0,L|80:193,1,70,2|2,3:2|0:0,0:0:0:0:
59,114,70604,2,0,P|44:65|1:25,2,105,10|2|0,0:0|3:2|3:2,0:0:0:0:
137,85,71804,6,0,L|223:92,1,70,10|2,0:0|0:0,0:0:0:0:
289,104,72404,2,0,P|310:131|320:165,1,70,2|2,3:2|0:0,0:0:0:0:
310,205,72854,2,0,L|396:212,1,70,2|2,0:0|0:0,0:0:0:0:
462,224,73454,2,0,P|483:251|493:285,1,70,2|0,3:2|3:2,0:0:0:0:
395,364,74204,2,0,L|322:372,1,70,8|2,0:0|0:0,0:0:0:0:
242,360,74804,6,0,P|213:297|224:228,1,140,6|10,3:2|0:0,0:0:0:0:
288,119,75854,2,0,P|290:68|264:23,1,105,2|2,3:2|3:2,0:0:0:0:
181,9,76604,1,10,0:0:0:0:
119,66,76904,1,2,0:0:0:0:
35,65,77204,6,0,P|21:37|18:-3,2,70,2|2|10,3:2|0:0|0:0,0:0:0:0:
79,182,78254,2,0,P|94:231|85:282,1,105,2|2,3:2|3:2,0:0:0:0:
150,335,79004,1,10,0:0:0:0:
220,288,79304,1,2,0:0:0:0:
296,323,79604,6,0,L|380:331,1,70,6|0,3:2|0:0,0:0:0:0:
441,292,80204,2,0,P|475:254|486:203,2,105,10|2|0,0:0|3:2|3:2,0:0:0:0:
371,244,81404,6,0,L|301:237,1,70,10|2,0:2|0:0,0:0:0:0:
217,226,82004,2,0,P|210:192|216:154,1,70,2|2,3:2|0:0,0:0:0:0:
185,127,82454,2,0,L|115:133,1,70,2|2,0:0|0:0,0:0:0:0:
31,145,83054,2,0,P|23:179|29:217,1,70,2|0,3:2|3:2,0:0:0:0:
118,301,83804,2,0,L|187:307,1,70,10|2,0:0|3:2,0:0:0:0:
257,354,84404,6,0,L|326:347,1,70,6|2,3:2|0:0,0:0:0:0:
409,333,85004,2,0,P|434:284|430:236,2,105,10|2|0,0:0|3:2|3:2,0:0:0:0:
352,270,86204,6,0,P|334:240|293:215,1,70,10|2,0:0|0:0,0:0:0:0:
220,218,86804,2,0,L|140:239,1,70,2|0,0:0|0:0,0:0:0:0:
112,247,87254,2,0,P|83:226|66:196,1,70,2|2,0:0|0:0,0:0:0:0:
73,113,87854,6,0,B|184:99|139:129|262:115,1,175,2|0,0:0|0:0,0:0:0:0:
