osu file format v14

[General]
AudioFilename: audio.mp3
AudioLeadIn: 0
PreviewTime: 64679
Countdown: 0
SampleSet: Soft
StackLeniency: 0.7
Mode: 0
LetterboxInBreaks: 0
WidescreenStoryboard: 1

[Editor]
DistanceSpacing: 1
BeatDivisor: 4
GridSize: 8
TimelineZoom: 4.699998

[Metadata]
Title:Touch off (TV Size)
TitleUnicode:Touch off (TV Size)
Artist:UVERworld
ArtistUnicode:UVERworld
Creator:Monstrata
Version:High Quality Insane
Source:約束のネバーランド
Tags:promised neverland yakusoku never emma ray norman doormat agatsu musty lit120 anime children habiholic seinen -hakurei- haruto haruto- haruto_aizawa japanese the
BeatmapID:1896733
BeatmapSetID:908896

[Difficulty]
HPDrainRate:5
CircleSize:4
OverallDifficulty:7
ApproachRate:9
SliderMultiplier:1.6
SliderTickRate:1

[Events]
//Background and Video events
0,0,"720891.jpg",0,0
Video,0,"neverland_op.avi"
//Break Periods
//Storyboard Layer 0 (Background)
//Storyboard Layer 1 (Fail)
//Storyboard Layer 2 (Pass)
//Storyboard Layer 3 (Foreground)
//Storyboard Sound Samples

[TimingPoints]
404,300,4,2,1,40,1,0
404,-200,4,2,1,40,0,0
2654,-100,4,2,1,50,0,0
2804,-133.333333333333,4,2,1,50,0,0
7604,-222.222222222221,4,2,1,60,0,0
8654,-133.333333333333,4,2,1,60,0,0
9404,-133.333333333333,4,2,1,40,0,0
11054,-399.999999999997,4,2,1,40,0,0
11804,-100,4,2,1,60,0,0
12404,-100,4,2,1,75,0,0
22004,-142.857142857143,4,2,1,50,0,0
26054,-142.857142857143,4,2,1,60,0,0
26804,-100,4,2,1,60,0,0
37604,-133.333333333333,4,2,1,60,0,0
38204,-100,4,2,1,60,0,0
40004,-133.333333333333,4,2,1,60,0,0
40454,-100,4,2,1,60,0,0
46004,-125,4,2,1,60,0,0
63404,-250,4,2,1,60,0,0
64004,-500,4,2,1,60,0,0
64754,-125,4,2,1,50,0,0
65204,-100,4,2,1,75,0,1
86804,-100,4,2,1,50,0,0
87854,-222.222222222221,4,2,1,50,0,0

[Colours]
Combo1 : 153,206,128
Combo2 : 114,177,160
Combo3 : 178,178,178
Combo4 : 255,128,64

[HitObjects]
130,113,404,6,0,P|148:107|165:96,1,40,2|0,0:0|0:0,0:0:0:0:
95,182,704,2,0,P|75:185|55:184,1,40,0|0,0:0|0:0,0:0:0:0:
157,229,1004,1,2,0:0:0:0:
157,229,1304,6,0,P|175:222|192:211,1,40,2|0,0:0|0:0,0:0:0:0:
121,297,1604,2,0,P|101:300|81:299,1,40,0|0,0:0|0:0,0:0:0:0:
177,360,1904,2,0,P|158:366|141:377,1,40,2|0,0:0|0:0,0:0:0:0:
213,292,2204,2,0,P|232:288|252:289,1,40,2|0,0:0|0:0,0:0:0:0:
288,304,2429,1,0,0:0:0:0:
288,304,2504,2,0,P|307:304|327:301,1,40,0|0,0:0|3:2,0:0:0:0:
383,242,2729,1,0,0:2:0:0:
383,242,2804,6,0,L|398:175,1,60.0000022888184,0|0,3:2|0:0,0:0:0:0:
352,118,3104,1,0,0:0:0:0:
307,52,3254,1,0,0:0:0:0:
233,77,3404,2,0,L|219:135,1,60.0000022888184,8|0,0:0|0:0,0:0:0:0:
186,205,3704,6,0,L|173:264,1,60.0000022888184,0|0,3:2|3:2,0:0:0:0:
142,140,4004,1,0,0:0:0:0:
97,74,4154,1,0,0:0:0:0:
23,99,4304,2,0,L|9:157,1,60.0000022888184,0|0,0:0|3:2,0:0:0:0:
80,222,4604,2,0,P|51:223|23:236,1,60.0000022888184,8|0,0:0|0:0,0:0:0:0:
2,269,4829,1,0,0:0:0:0:
2,269,4904,2,0,L|15:327,1,60.0000022888184,0|0,0:0|3:2,0:0:0:0:
256,192,5204,12,0,6854,3:2:0:0:
212,147,7004,6,0,L|149:159,1,60.0000022888184,10|0,0:0|0:0,0:0:0:0:
300,237,7304,2,0,L|363:225,1,60.0000022888184,2|0,0:0|0:0,0:0:0:0:
256,306,7604,6,0,P|202:300|152:319,1,107.999996704102,6|8,3:2|0:3,0:0:0:0:
152,319,8354,1,8,0:3:0:0:
81,279,8504,1,4,0:3:0:0:
108,206,8654,2,0,P|109:176|101:147,1,60.0000022888184,2|0,3:2|0:0,0:0:0:0:
170,103,8954,2,0,P|169:73|177:44,1,60.0000022888184,2|0,3:2|0:0,0:0:0:0:
177,44,9404,6,0,L|299:56,1,120.000004577637,2|2,0:0|0:0,0:0:0:0:
317,130,9854,1,0,0:0:0:0:
337,204,10004,2,0,L|397:210,1,60.0000022888184,2|0,0:0|0:0,0:0:0:0:
417,284,10304,1,2,0:0:0:0:
438,359,10454,2,0,L|497:364,1,60.0000022888184,2|0,0:0|0:0,0:0:0:0:
472,229,10754,5,2,0:0:0:0:
417,284,10904,1,0,0:0:0:0:
361,339,11054,2,0,P|323:349|273:337,1,90,2|0,0:0|0:0,0:0:0:0:
259,309,11804,6,0,L|253:281,14,20,4|0|0|0|0|0|0|0|0|0|0|0|0|0|0,3:2|0:0|0:0|0:0|0:0|0:0|0:0|0:0|0:0|0:0|0:0|0:0|0:0|0:0|0:0,0:0:0:0:
258,308,12404,6,0,P|181:294|105:316,1,160,4|0,3:2|0:0,0:0:0:0:
0,238,12854,1,2,3:2:0:0:
63,189,13004,2,0,P|140:203|216:181,1,160,10|2,0:0|3:2,0:0:0:0:
274,57,13454,6,0,P|268:96|281:134,1,80,2|0,3:2|0:0,0:0:0:0:
357,160,13754,1,10,0:0:0:0:
393,303,13904,2,0,P|387:264|400:227,1,80,2|0,3:2|3:2,0:0:0:0:
473,194,14204,2,0,L|523:188,2,40,10|2|2,0:0|0:0|3:2,0:0:0:0:
357,160,14504,2,0,L|272:170,1,80,2|10,0:0|0:0,0:0:0:0:
134,287,14804,5,2,3:2:0:0:
134,287,14954,2,0,P|212:293|277:249,1,160,2|2,3:2|3:2,0:0:0:0:
237,99,15404,2,0,P|158:92|93:136,1,160,10|10,0:0|0:0,0:0:0:0:
79,218,15854,1,2,3:2:0:0:
134,287,16004,6,0,L|123:378,1,80,2|8,0:0|0:0,0:0:0:0:
203,236,16304,1,2,0:0:0:0:
256,295,16454,1,2,3:2:0:0:
311,236,16604,2,0,P|346:218|386:219,1,80,8|2,0:0|3:2,0:0:0:0:
438,158,16904,2,0,P|402:140|362:141,1,80,0|8,0:0|0:0,0:0:0:0:
251,5,17204,6,0,P|284:77|284:157,1,160,6|0,3:2|0:0,0:0:0:0:
205,138,17654,1,2,3:2:0:0:
76,182,17804,2,0,B|140:188|140:188|168:215|168:215|224:220,1,160,10|2,0:0|3:2,0:0:0:0:
120,367,18254,6,0,B|39:359,1,80,2|2,3:2|0:0,0:0:0:0:
89,283,18554,1,10,0:0:0:0:
169,290,18704,2,0,B|249:297,1,80,2|0,0:0|3:2,0:0:0:0:
315,342,19004,1,10,0:0:0:0:
422,240,19154,1,2,3:2:0:0:
348,269,19304,1,2,0:0:0:0:
495,273,19454,1,10,0:0:0:0:
487,192,19604,6,0,P|487:113|516:39,1,160,2|0,3:2|0:0,0:0:0:0:
440,14,20054,1,2,3:2:0:0:
335,90,20204,2,0,P|374:82|413:88,1,80,10|0,0:0|0:0,0:0:0:0:
278,34,20504,1,10,0:0:0:0:
330,170,20654,1,2,3:2:0:0:
59,202,20954,5,10,0:0:0:0:
39,279,21104,2,0,L|26:321,2,40,2|2|2,3:2|0:0|3:2,0:0:0:0:
59,202,21404,1,10,0:0:0:0:
116,257,21554,2,0,P|185:227|292:255,1,160,2|2,3:2|0:0,0:0:0:0:
319,297,22004,5,6,3:2:0:0:
471,260,22304,1,2,0:0:0:0:
482,104,22604,1,2,0:0:0:0:
337,44,22904,1,2,0:0:0:0:
236,164,23204,1,2,0:0:0:0:
319,297,23504,1,2,0:0:0:0:
319,297,23804,2,0,L|246:288,1,55.9999982910157,2|2,0:0|0:0,0:0:0:0:
195,329,24104,2,0,L|122:320,1,55.9999982910157,2|2,0:0|0:0,0:0:0:0:
71,361,24404,5,2,0:0:0:0:
10,216,24704,1,2,0:0:0:0:
105,90,25004,1,2,0:0:0:0:
261,109,25304,1,2,0:0:0:0:
322,254,25604,1,2,0:0:0:0:
226,379,25904,2,0,L|162:370,1,55.9999982910157,2|0,0:0|3:2,0:0:0:0:
135,301,26204,2,0,L|199:292,1,55.9999982910157,8|2,0:0|3:2,0:0:0:0:
287,237,26504,1,2,3:2:0:0:
211,217,26654,1,2,0:0:0:0:
307,160,26804,6,0,L|422:143,1,80,6|0,3:2|0:0,0:0:0:0:
453,19,27104,2,0,P|394:71|386:148,1,160,2|8,3:2|0:0,0:0:0:0:
430,215,27554,1,2,3:2:0:0:
135,307,27854,1,10,0:0:0:0:
197,357,28004,5,2,3:2:0:0:
46,71,28304,2,0,L|126:83,1,80,2|0,0:0|3:2,0:0:0:0:
100,165,28604,2,0,L|180:153,1,80,8|2,0:0|0:0,0:0:0:0:
205,77,28904,2,0,L|285:89,1,80,2|2,0:0|0:0,0:0:0:0:
258,171,29204,6,0,P|248:209|254:248,1,80,2|0,3:2|0:0,0:0:0:0:
429,158,29504,2,0,P|440:120|434:81,1,80,2|0,3:2|0:0,0:0:0:0:
462,232,29804,1,8,0:0:0:0:
405,289,29954,2,0,P|394:327|400:366,2,80,2|2|10,3:2|0:0|0:0,0:0:0:0:
462,232,30404,5,2,3:2:0:0:
332,168,30554,1,2,0:0:0:0:
469,111,30704,2,0,P|479:72|473:33,2,80,2|0|8,0:0|3:2|0:0,0:0:0:0:
412,168,31154,1,2,0:0:0:0:
332,168,31304,2,0,P|293:177|262:202,1,80,10|10,0:0|0:0,0:0:0:0:
114,206,31604,6,0,L|129:301,1,80,6|2,3:2|0:0,0:0:0:0:
139,363,31904,2,0,L|234:348,1,80,2|0,3:2|0:0,0:0:0:0:
353,292,32204,1,10,0:0:0:0:
302,363,32354,2,0,L|381:375,1,80,2|0,3:2|0:0,0:0:0:0:
311,215,32654,6,0,P|361:156|357:78,1,160,10|2,0:0|0:0,0:0:0:0:
293,30,33104,1,2,0:0:0:0:
227,75,33254,1,0,3:2:0:0:
161,26,33404,2,0,P|125:25|82:47,1,80,8|0,0:0|0:0,0:0:0:0:
55,118,33704,1,0,0:0:0:0:
42,306,34004,6,0,L|212:330,1,160,2|2,3:2|3:2,0:0:0:0:
200,328,34454,1,0,0:0:0:0:
152,217,34604,2,0,L|322:241,1,160,10|2,0:0|0:0,0:0:0:0:
310,239,35054,1,8,0:0:0:0:
304,81,35204,6,0,P|291:118|297:158,1,80,0|2,3:2|0:0,0:0:0:0:
446,134,35504,2,0,P|408:120|370:128,1,80,2|2,3:2|0:0,0:0:0:0:
392,276,35804,2,0,P|405:239|400:200,1,80,10|2,0:0|0:0,0:0:0:0:
334,331,36104,1,10,0:0:0:0:
264,291,36254,1,10,0:0:0:0:
184,300,36404,6,0,L|105:309,1,80,6|0,3:2|0:0,0:0:0:0:
1,221,36704,2,0,P|78:229|135:177,1,160,2|8,3:2|0:0,0:0:0:0:
102,104,37154,1,2,3:2:0:0:
155,44,37304,2,0,L|234:53,1,80,2|10,0:0|0:0,0:0:0:0:
314,21,37604,6,0,P|365:49|389:105,1,120.000004577637,2|2,3:2|0:0,0:0:0:0:
343,172,38054,1,0,3:2:0:0:
398,345,38204,2,0,P|437:349|476:340,1,80,8|2,0:0|0:0,0:0:0:0:
336,294,38504,2,0,P|296:289|257:298,1,80,2|2,0:0|0:0,0:0:0:0:
126,343,38804,5,2,3:2:0:0:
179,283,38954,1,2,0:0:0:0:
153,207,39104,2,0,L|124:124,1,80,2|2,3:2|0:0,0:0:0:0:
160,3,39404,2,0,L|187:79,1,80,10|2,0:0|3:2,0:0:0:0:
250,127,39704,2,0,P|288:135|327:126,1,80,2|10,0:0|0:0,0:0:0:0:
432,61,40004,6,0,P|406:113|409:173,1,120.000004577637,2|2,3:2|0:0,0:0:0:0:
473,220,40454,1,0,3:2:0:0:
347,324,40604,2,0,P|310:338|271:334,1,80,8|0,0:0|0:0,0:0:0:0:
219,260,40904,2,0,P|256:246|296:250,1,80,10|10,0:0|0:0,0:0:0:0:
171,324,41204,5,6,3:2:0:0:
139,249,41354,1,2,0:0:0:0:
187,182,41504,2,0,P|192:143|179:105,1,80,2|2,3:2|0:0,0:0:0:0:
146,33,41804,2,0,P|109:48|82:77,1,80,10|2,0:0|3:2,0:0:0:0:
37,144,42104,2,0,P|68:168|107:176,1,80,2|10,0:0|0:0,0:0:0:0:
139,249,42404,5,2,3:2:0:0:
187,182,42554,1,0,0:0:0:0:
297,259,42704,1,2,0:0:0:0:
266,187,42854,1,2,3:2:0:0:
218,254,43004,1,10,0:0:0:0:
235,115,43154,1,2,0:0:0:0:
347,194,43304,2,0,P|363:157|392:130,1,80,2|0,0:0|0:0,0:0:0:0:
495,133,43604,6,0,P|450:68|379:35,1,160,2|2,3:2|0:0,0:0:0:0:
379,35,44054,1,0,3:2:0:0:
194,101,44204,2,0,P|238:165|309:198,1,160,10|2,0:0|0:0,0:0:0:0:
310,199,44654,1,0,3:2:0:0:
468,201,44804,5,10,0:0:0:0:
389,220,44954,2,0,P|372:255|372:295,1,80,2|0,0:0|3:2,0:0:0:0:
463,331,45254,2,0,P|386:316|316:352,1,160,2|2,3:2|0:0,0:0:0:0:
214,297,45704,2,0,P|253:295|288:276,1,80,8|10,0:0|0:0,0:0:0:0:
308,201,46004,5,4,3:2:0:0:
308,201,46154,2,0,P|331:163|310:67,1,128,0|0,3:2|3:2,0:0:0:0:
233,70,46604,1,8,0:0:0:0:
233,70,46754,2,0,P|209:107|231:204,1,128,0|2,3:2|0:0,0:0:0:0:
308,201,47204,5,2,3:2:0:0:
308,201,47354,2,0,P|321:262|293:318,1,128,2|2,3:2|3:2,0:0:0:0:
203,305,47804,1,8,0:0:0:0:
203,305,47954,2,0,P|189:243|217:187,1,128,2|2,3:2|0:0,0:0:0:0:
268,95,48404,5,0,3:2:0:0:
268,95,48554,2,0,L|129:120,1,128,2|0,3:2|3:2,0:0:0:0:
58,201,49004,1,10,0:0:0:0:
58,201,49154,2,0,L|197:226,1,128,0|0,3:2|0:0,0:0:0:0:
254,304,49604,5,2,3:2:0:0:
254,304,49754,2,0,L|279:165,1,128,2|2,3:2|3:2,0:0:0:0:
360,94,50204,1,8,0:0:0:0:
360,94,50354,2,0,L|385:233,1,128,2|2,3:2|0:2,0:0:0:0:
401,341,50804,5,0,3:2:0:0:
401,341,50954,2,0,P|429:327|461:324,2,64,2|2|2,3:2|0:0|3:2,0:0:0:0:
297,295,51404,1,8,0:0:0:0:
297,295,51554,2,0,P|265:291|236:278,2,64,2|2|2,3:2|0:0|0:0,0:0:0:0:
382,219,52004,5,0,3:2:0:0:
382,219,52154,2,0,P|413:222|442:235,2,64,2|0|2,3:2|0:0|3:2,0:0:0:0:
297,143,52604,1,8,0:0:0:0:
297,143,52754,2,0,P|268:156|236:159,2,64,2|2|2,3:2|0:0|0:0,0:0:0:0:
382,72,53204,6,0,L|391:-2,1,64,0|0,3:2|3:2,0:0:0:0:
279,0,53504,2,0,L|287:63,1,64,2|2,0:0|3:2,0:0:0:0:
185,87,53804,2,0,L|194:13,1,64,10|0,0:0|3:2,0:0:0:0:
82,14,54104,2,0,L|89:77,1,64,0|2,0:0|0:0,0:0:0:0:
123,174,54404,6,0,P|93:161|61:159,1,64,2|0,3:2|3:2,0:0:0:0:
13,258,54704,2,0,P|42:245|74:243,1,64,2|0,0:0|3:2,0:0:0:0:
144,321,55004,2,0,B|104:339|104:339|63:330,2,85.3333333333333,10|2|2,0:0|0:0|0:0,0:0:0:0:
281,262,55604,5,6,3:2:0:0:
281,262,55754,2,0,P|336:270|383:332,1,128,2|2,3:2|3:2,0:0:0:0:
326,167,56204,1,8,0:0:0:0:
326,167,56354,2,0,P|334:112|396:65,1,128,0|2,3:2|0:0,0:0:0:0:
231,122,56804,5,2,3:2:0:0:
231,122,56954,2,0,P|176:114|129:52,1,128,2|2,3:2|3:2,0:0:0:0:
186,217,57404,1,8,0:0:0:0:
186,217,57554,2,0,P|178:272|116:319,1,128,2|2,3:2|0:0,0:0:0:0:
102,232,58004,5,0,3:2:0:0:
102,232,58154,2,0,L|235:251,1,128,2|0,3:2|3:2,0:0:0:0:
296,346,58604,1,10,0:0:0:0:
296,346,58754,2,0,L|315:213,1,128,0|2,3:2|0:0,0:0:0:0:
197,164,59204,5,2,3:2:0:0:
197,164,59354,2,0,L|215:37,1,128,0|2,3:2|3:2,0:0:0:0:
283,133,59804,1,8,0:0:0:0:
283,133,59954,2,0,L|369:146,1,64,2|0,3:2|0:0,0:0:0:0:
452,201,60254,6,0,P|420:199|391:212,1,64,2|0,0:0|3:2,0:0:0:0:
337,301,60554,2,0,P|366:313|388:336,1,64,2|0,3:2|0:0,0:0:0:0:
235,327,60854,2,0,P|248:356|247:388,1,64,2|8,3:2|0:0,0:0:0:0:
146,273,61154,2,0,P|134:302|111:324,1,64,2|0,3:2|0:0,0:0:0:0:
60,183,61454,6,0,P|91:184|120:171,1,64,2|0,0:0|3:2,0:0:0:0:
174,82,61754,2,0,P|145:70|123:47,1,64,2|0,3:2|0:0,0:0:0:0:
276,56,62054,2,0,P|263:27|265:-4,1,64,2|8,3:2|0:0,0:0:0:0:
365,110,62354,1,2,0:0:0:0:
365,110,62504,2,0,P|377:81|400:59,1,64,10|8,0:0|0:0,0:0:0:0:
452,201,62804,6,0,P|420:199|391:212,1,64,2|0,3:2|0:0,0:0:0:0:
391,212,63404,6,0,P|359:210|330:223,1,64,2|0,3:2|0:0,0:0:0:0:
330,223,64004,6,0,P|298:221|269:234,1,64,2|0,3:2|0:0,0:0:0:0:
269,234,64754,6,0,L|285:371,1,128,2|2,0:0|0:0,0:0:0:0:
354,302,65204,6,0,L|526:322,1,160,6|2,3:2|0:0,0:0:0:0:
512,320,65654,1,0,0:0:0:0:
398,230,65804,1,10,0:0:0:0:
475,208,65954,2,0,P|497:175|506:136,1,80,2|0,0:0|0:0,0:0:0:0:
415,22,66254,6,0,B|335:-6|337:50|242:21,1,160,2|2,3:2|3:2,0:0:0:0:
142,81,66704,2,0,P|181:79|218:95,1,80,2|0,3:2|0:0,0:0:0:0:
210,263,67004,1,10,0:0:0:0:
167,157,67154,1,2,0:0:0:0:
133,229,67304,2,0,P|128:268|141:305,1,80,2|2,0:0|0:0,0:0:0:0:
256,361,67604,5,2,3:2:0:0:
315,307,67754,1,2,0:0:0:0:
393,324,67904,2,0,L|471:341,1,80,2|2,0:0|0:0,0:0:0:0:
347,228,68204,1,10,0:0:0:0:
425,211,68354,2,0,L|503:193,1,80,2|0,0:0|0:0,0:0:0:0:
359,0,68654,6,0,P|341:76|371:150,1,160,2|0,3:2|3:2,0:0:0:0:
186,28,69104,2,0,P|226:31|260:52,1,80,2|0,3:2|0:0,0:0:0:0:
273,131,69404,2,0,P|250:163|215:182,1,80,10|2,0:0|3:2,0:0:0:0:
141,154,69704,2,0,P|124:118|124:78,1,80,2|0,0:0|0:0,0:0:0:0:
226,260,70004,5,2,3:2:0:0:
214,182,70154,1,0,0:0:0:0:
152,232,70304,2,0,L|83:287,1,80,2|0,0:0|0:0,0:0:0:0:
141,154,70604,1,10,0:0:0:0:
201,103,70754,1,2,0:0:0:0:
274,131,70904,1,2,0:0:0:0:
374,22,71054,6,0,B|361:65|361:65|395:185,1,160,2|2,3:2|3:2,0:0:0:0:
418,251,71504,1,0,3:2:0:0:
176,156,71804,6,0,L|156:251,1,80,10|0,0:0|0:0,0:0:0:0:
276,339,72104,1,2,0:0:0:0:
218,287,72254,1,2,0:0:0:0:
366,238,72404,1,2,3:2:0:0:
351,315,72554,1,2,0:0:0:0:
234,210,72704,1,2,0:0:0:0:
308,185,72854,6,0,L|324:106,1,80,2|8,0:0|0:0,0:0:0:0:
395,70,73154,1,2,0:0:0:0:
337,18,73304,1,2,0:0:0:0:
261,43,73454,2,0,L|244:121,1,80,2|0,3:2|0:0,0:0:0:0:
168,152,73754,1,0,3:2:0:0:
26,94,73904,2,0,P|66:89|103:104,1,80,0|0,3:2|0:0,0:0:0:0:
215,216,74204,6,0,P|178:230|138:225,1,80,8|2,0:0|0:0,0:0:0:0:
57,325,74504,1,2,0:0:0:0:
130,357,74654,1,2,0:0:0:0:
194,309,74804,6,0,P|271:297|348:349,1,160,6|0,3:2|0:0,0:0:0:0:
339,336,75254,1,0,0:0:0:0:
393,195,75404,1,10,0:0:0:0:
472,206,75554,2,0,P|496:237|504:276,1,80,2|0,0:0|0:0,0:0:0:0:
409,384,75854,6,0,P|433:312|539:280,1,160,2|2,3:2|3:2,0:0:0:0:
393,195,76304,2,0,P|378:120|454:39,1,160,2|10,3:2|0:0,0:0:0:0:
357,5,76754,1,2,0:0:0:0:
300,129,76904,2,0,L|206:138,1,80,2|2,0:0|0:0,0:0:0:0:
99,192,77204,6,0,B|158:199|158:199|185:217|185:217|275:228,1,160,2|2,3:2|0:0,0:0:0:0:
252,225,77654,1,2,0:0:0:0:
331,328,77804,1,10,0:0:0:0:
377,262,77954,2,0,P|409:239|454:237,1,80,2|2,0:0|0:0,0:0:0:0:
501,147,78254,6,0,L|485:307,1,160,2|0,3:2|3:2,0:0:0:0:
331,328,78704,2,0,P|291:324|259:301,1,80,2|0,3:2|0:0,0:0:0:0:
116,289,79004,1,10,0:0:0:0:
190,258,79154,1,2,0:0:0:0:
99,368,79304,2,0,P|63:351|40:319,1,80,2|2,0:0|0:0,0:0:0:0:
19,189,79604,5,6,3:2:0:0:
98,181,79754,2,0,L|192:171,1,80,2|0,0:0|0:0,0:0:0:0:
89,37,80054,1,2,0:0:0:0:
52,113,80204,1,10,0:0:0:0:
131,105,80354,1,2,0:0:0:0:
10,45,80504,1,2,0:0:0:0:
19,189,80654,2,0,P|61:253|137:251,1,160,2|2,3:2|3:2,0:0:0:0:
98,181,81104,1,0,3:2:0:0:
401,322,81404,6,0,L|415:243,1,80,10|0,0:2|0:0,0:0:0:0:
367,112,81704,1,2,0:0:0:0:
215,166,81854,1,2,0:0:0:0:
339,270,82004,1,2,3:2:0:0:
353,191,82154,1,2,0:0:0:0:
277,218,82304,1,2,0:0:0:0:
325,349,82454,6,0,P|379:341|409:310,1,80,2|8,0:0|0:0,0:0:0:0:
263,297,82754,1,2,0:0:0:0:
249,376,82904,1,2,0:0:0:0:
114,347,83054,2,0,P|147:325|187:324,1,80,2|0,3:2|0:0,0:0:0:0:
220,162,83354,1,0,3:2:0:0:
277,218,83504,2,0,P|244:240|204:241,1,80,0|0,3:2|0:0,0:0:0:0:
163,105,83804,6,0,P|195:84|235:82,1,80,10|0,0:0|3:2,0:0:0:0:
136,182,84104,2,0,P|96:180|63:158,1,80,2|10,3:2|0:0,0:0:0:0:
18,287,84404,6,0,L|94:262,1,80,6|0,3:2|0:0,0:0:0:0:
179,251,84704,2,0,L|155:328,1,80,2|0,0:0|0:0,0:0:0:0:
263,234,85004,1,10,0:0:0:0:
325,284,85154,2,0,P|362:297|400:291,1,80,2|2,0:0|0:0,0:0:0:0:
376,141,85454,6,0,P|362:178|368:216,1,80,2|0,3:2|0:0,0:0:0:0:
318,85,85754,1,2,3:2:0:0:
394,61,85904,2,0,L|495:30,1,80,0|0,3:2|0:0,0:0:0:0:
249,42,86204,6,0,P|235:79|241:117,1,80,10|0,0:0|0:0,0:0:0:0:
141,334,86504,1,2,0:0:0:0:
254,259,86654,1,2,0:0:0:0:
132,199,86804,1,2,0:0:0:0:
218,329,86954,1,0,0:0:0:0:
211,194,87104,1,2,0:0:0:0:
98,269,87254,1,2,0:0:0:0:
98,269,87554,5,2,0:0:0:0:
177,264,87704,1,0,0:0:0:0:
218,329,87854,2,0,B|313:339|282:265|384:280,1,179.999994506836,2|0,0:0|0:0,0:0:0:0:
